osu file format v14

[General]
AudioFilename: audio.mp3
AudioLeadIn: 0
PreviewTime:63372
Countdown: 0
SampleSet: Normal
StackLeniency: 0.7
Mode: 1
LetterboxInBreaks: 0
WidescreenStoryboard: 1

[Editor]
DistanceSpacing: 1
BeatDivisor: 8
GridSize: 32
TimelineZoom: 3.099996

[Metadata]
Title:Shinzou o Sasageyo! (TV Size)
TitleUnicode:心臓を捧げよ! (TV Size)
Artist:Linked Horizon
ArtistUnicode:Linked Horizon
Creator:Hivie
Version:Axer's Inner Titan
Source:進撃の巨人
Tags:radar kyex arcpotato axer i love egg motorjam heavenly moon ginjani revo Attack on Titan shingeki no kyojin season 2 two dedicate all your hearts heart snk aot armin arlert levi eren jaeger mikasa ackerman survey corps opening one theme song anime japanese orchestral j-rock jrock rock symphonic
BeatmapID:3690165
BeatmapSetID:1799377

[Difficulty]
HPDrainRate:6
CircleSize:2
OverallDifficulty:7
ApproachRate:9
SliderMultiplier:2.6
SliderTickRate:1

[Events]
//Background and Video events
0,0,"sasageyo.jpg",0,0
Video,0,"radar loves men.mp4"
//Break Periods
//Storyboard Layer 0 (Background)
//Storyboard Layer 1 (Fail)
//Storyboard Layer 2 (Pass)
//Storyboard Layer 3 (Foreground)
//Storyboard Layer 4 (Overlay)
//Storyboard Sound Samples

[TimingPoints]
560,375,4,1,0,30,1,0
560,-333.333333333333,4,1,0,30,0,0
3278,-125,4,1,0,30,0,0
3466,-125,4,1,0,75,0,0
3513,-125,4,1,0,75,0,0
3557,-100,4,1,0,75,0,0
3744,-101.262404644569,4,1,0,75,0,0
3791,-101.584721657863,4,1,0,75,0,0
3838,-101.9090970854,4,1,0,75,0,0
3932,-102.564102564103,4,1,0,75,0,0
4025,-103.220478943022,4,1,0,75,0,0
4119,-103.892505887242,4,1,0,75,0,0
4307,-105.263157894737,4,1,0,75,0,0
4400,-105.954651409197,4,1,0,75,0,0
4494,-106.662874208917,4,1,0,75,0,0
4541,-107.020547945205,4,1,0,75,0,0
4588,-107.380628534612,4,1,0,75,0,0
4682,-108.108108108108,4,1,0,75,0,0
4775,-108.837614279495,4,1,0,75,0,0
4869,-109.58503798948,4,1,0,75,0,0
5057,-111.111111111111,4,1,0,75,0,0
5150,-111.881852763482,4,1,0,75,0,0
5244,-112.671824532412,4,1,0,75,0,0
5291,-113.071008593397,4,1,0,75,0,0
5338,-113.473031242908,4,1,0,75,0,0
5432,-114.285714285714,4,1,0,75,0,0
5525,-115.101289134438,4,1,0,75,0,0
5619,-115.937548307312,4,1,0,75,0,0
5807,-117.647058823529,4,1,0,75,0,0
5900,-118.511495615075,4,1,0,75,0,0
5994,-119.398232906153,4,1,0,75,0,0
6041,-119.846596356663,4,1,0,75,0,0
6088,-120.29833988291,4,1,0,75,0,0
6182,-121.212121212121,4,1,0,75,0,0
6275,-122.129946262824,4,1,0,75,0,0
6369,-123.071873974401,4,1,0,75,0,0
6463,-124.028443856458,4,1,0,75,0,0
6557,-125,4,1,0,75,0,0
6653,-142.857142857143,4,1,0,50,0,0
17994,-137.943718962663,4,1,0,50,0,0
18182,-133.333333333333,4,1,0,52,0,0
18275,-131.164742917104,4,1,0,54,0,0
18369,-129.043358568479,4,1,0,56,0,0
18463,-126.989502201151,4,1,0,58,0,0
18557,-125,4,1,0,60,0,0
29994,-128.198111916815,4,1,0,60,0,0
30088,-129.86832986833,4,1,0,60,0,0
30182,-131.582642887235,4,1,0,60,0,0
30275,-133.323847467274,4,1,0,60,0,0
30369,-135.131237381021,4,1,0,60,0,0
30463,-136.988304093567,4,1,0,60,0,0
30557,-138.897124221761,4,1,0,60,0,0
30744,-142.857142857143,4,1,0,60,0,0
41013,-142.857142857143,4,1,0,70,0,0
41060,-125,4,1,0,70,0,0
41994,-121.22191692258,4,1,0,70,0,0
42057,-120,4,1,0,70,0,0
42119,-118.821292775665,4,1,0,70,0,0
42182,-117.647058823529,4,1,0,70,0,0
42244,-116.513903992543,4,1,0,70,0,0
42307,-115.384615384615,4,1,0,70,0,0
42369,-114.294422432185,4,1,0,70,0,0
42560,-111.111111111111,4,1,0,70,0,1
45560,-111.111111111111,4,1,0,70,0,0
45747,-166.666666666666,4,1,0,60,0,0
47716,-166.666666666666,4,1,0,70,0,0
47807,-142.857142857143,4,1,0,70,0,0
48182,-133.333333333333,4,1,0,70,0,0
48244,-129.065565307176,4,1,0,70,0,0
48275,-131.164742917104,4,1,0,70,0,0
48307,-125,4,1,0,70,0,0
48369,-121.241513094083,4,1,0,70,0,0
48432,-117.647058823529,4,1,0,70,0,0
48463,-126.989502201151,4,1,0,70,0,0
48494,-114.311842706904,4,1,0,70,0,0
48557,-111.111111111111,4,1,0,70,0,0
49966,-111.111111111111,4,1,0,80,0,0
50060,-111.111111111111,4,1,0,80,0,0
50200,-117.647058823529,4,1,0,80,0,0
50435,-111.111111111111,4,1,0,80,0,0
50622,-117.647058823529,4,1,0,80,0,0
50810,-105.263157894737,4,1,0,80,0,0
50950,-111.111111111111,4,1,0,80,0,0
51513,-95.2380952380952,4,1,0,80,0,0
51747,-166.666666666667,4,1,0,60,0,0
57278,-125,4,1,0,60,0,0
57935,-200,4,1,0,60,0,0
59994,-142.857142857143,4,1,0,70,0,0
60088,-139.529120198265,4,1,0,70,0,0
60182,-136.352627754904,4,1,0,70,0,0
60369,-130.444856348471,4,1,0,70,0,0
60463,-127.664399092971,4,1,0,70,0,0
60557,-125,4,1,0,75,0,0
62060,-111.111111111111,4,1,0,80,0,0
62200,-117.647058823529,4,1,0,80,0,0
62435,-111.111111111111,4,1,0,80,0,0
62622,-117.647058823529,4,1,0,80,0,0
62810,-105.263157894737,4,1,0,80,0,0
62950,-111.111111111111,4,1,0,80,0,0
63560,-90.9090909090909,4,1,0,75,0,1
63700,-100,4,1,0,75,0,1
72560,-100,4,1,0,65,0,0
72747,-100,4,1,0,40,0,0
73310,-105.263157894737,4,1,0,40,0,0
73403,-105.263157894737,4,1,0,65,0,0
73494,-111.111111111111,4,1,0,65,0,0
73588,-110.089949159171,4,1,0,65,0,0
73682,-109.087386165472,4,1,0,65,0,0
73775,-108.1132981277,4,1,0,65,0,0
73869,-107.146255590446,4,1,0,65,0,0
73963,-106.19635952089,4,1,0,65,0,0
74060,-105.263157894737,4,1,0,75,0,0
74247,-105.263157894737,4,1,0,75,0,0
80060,-100,4,1,0,85,0,1
86060,-100,4,1,0,85,0,0

[HitObjects]
256,192,3560,5,4,0:0:0:0:
256,192,3747,1,8,0:0:0:0:
256,192,3794,1,0,0:0:0:0:
256,192,3841,1,0,0:0:0:0:
256,192,3935,1,8,0:0:0:0:
256,192,4028,1,0,0:0:0:0:
256,192,4122,1,12,0:0:0:0:
256,192,4310,1,0,0:0:0:0:
256,192,4403,1,0,0:0:0:0:
256,192,4497,1,8,0:0:0:0:
256,192,4544,1,0,0:0:0:0:
256,192,4591,1,0,0:0:0:0:
256,192,4685,1,8,0:0:0:0:
256,192,4778,1,0,0:0:0:0:
256,192,4872,1,12,0:0:0:0:
256,192,5060,1,0,0:0:0:0:
256,192,5153,1,0,0:0:0:0:
256,192,5247,1,8,0:0:0:0:
256,192,5294,1,0,0:0:0:0:
256,192,5341,1,0,0:0:0:0:
256,192,5435,1,8,0:0:0:0:
256,192,5528,1,0,0:0:0:0:
256,192,5622,1,12,0:0:0:0:
256,192,5810,1,0,0:0:0:0:
256,192,5903,1,0,0:0:0:0:
256,192,5997,1,8,0:0:0:0:
256,192,6044,1,0,0:0:0:0:
256,192,6091,1,0,0:0:0:0:
256,192,6185,1,8,0:0:0:0:
256,192,6278,1,8,0:0:0:0:
256,192,6372,1,8,0:0:0:0:
256,192,6466,1,8,0:0:0:0:
256,192,6560,1,4,0:0:0:0:
256,192,6747,1,8,0:0:0:0:
256,192,7122,1,8,0:0:0:0:
256,192,7310,1,0,0:0:0:0:
256,192,7497,1,8,0:0:0:0:
256,192,7685,1,0,0:0:0:0:
256,192,7872,1,8,0:0:0:0:
256,192,7966,1,8,0:0:0:0:
256,192,8060,1,8,0:0:0:0:
256,192,8247,1,0,0:0:0:0:
256,192,8435,1,0,0:0:0:0:
256,192,8622,1,8,0:0:0:0:
256,192,8810,1,0,0:0:0:0:
256,192,8997,1,0,0:0:0:0:
256,192,9091,1,0,0:0:0:0:
256,192,9185,1,8,0:0:0:0:
256,192,9278,1,0,0:0:0:0:
256,192,9372,1,8,0:0:0:0:
256,192,9466,1,8,0:0:0:0:
256,192,9560,1,0,0:0:0:0:
256,192,9747,1,8,0:0:0:0:
256,192,10122,1,8,0:0:0:0:
256,192,10310,1,0,0:0:0:0:
256,192,10497,1,8,0:0:0:0:
256,192,10685,1,0,0:0:0:0:
256,192,10872,1,8,0:0:0:0:
256,192,10966,1,8,0:0:0:0:
256,192,11060,1,8,0:0:0:0:
256,192,11247,1,0,0:0:0:0:
256,192,11435,1,0,0:0:0:0:
256,192,11622,1,8,0:0:0:0:
256,192,11810,1,8,0:0:0:0:
256,192,11997,1,0,0:0:0:0:
256,192,12185,1,0,0:0:0:0:
256,192,12372,1,8,0:0:0:0:
256,192,12466,1,8,0:0:0:0:
256,192,12560,1,0,0:0:0:0:
256,192,12747,1,8,0:0:0:0:
256,192,13122,1,8,0:0:0:0:
256,192,13216,1,8,0:0:0:0:
256,192,13310,1,8,0:0:0:0:
256,192,13497,1,8,0:0:0:0:
256,192,13685,1,0,0:0:0:0:
256,192,13872,1,8,0:0:0:0:
256,192,13966,1,0,0:0:0:0:
256,192,14060,1,0,0:0:0:0:
256,192,14247,1,8,0:0:0:0:
256,192,14435,1,0,0:0:0:0:
256,192,14622,1,8,0:0:0:0:
256,192,14716,1,8,0:0:0:0:
256,192,14810,1,8,0:0:0:0:
256,192,14997,1,8,0:0:0:0:
256,192,15185,1,0,0:0:0:0:
256,192,15247,1,0,0:0:0:0:
256,192,15310,1,8,0:0:0:0:
256,192,15372,1,8,0:0:0:0:
256,192,15435,1,8,0:0:0:0:
256,192,15497,1,8,0:0:0:0:
256,192,15560,1,0,0:0:0:0:
256,192,15747,1,8,0:0:0:0:
256,192,16122,1,8,0:0:0:0:
256,192,16216,1,8,0:0:0:0:
256,192,16310,1,8,0:0:0:0:
256,192,16497,1,0,0:0:0:0:
256,192,16685,1,0,0:0:0:0:
256,192,16872,1,8,0:0:0:0:
256,192,16966,1,8,0:0:0:0:
256,192,17060,1,4,0:0:0:0:
256,192,17435,1,4,0:0:0:0:
256,192,17810,1,4,0:0:0:0:
256,192,17997,1,8,0:0:0:0:
256,192,18185,1,0,0:0:0:0:
256,192,18278,1,0,0:0:0:0:
256,192,18372,1,8,0:0:0:0:
256,192,18466,1,8,0:0:0:0:
256,192,18560,1,4,0:0:0:0:
256,192,18747,1,8,0:0:0:0:
256,192,18935,1,0,0:0:0:0:
256,192,19122,1,8,0:0:0:0:
256,192,19216,1,8,0:0:0:0:
256,192,19310,1,0,0:0:0:0:
256,192,19497,1,8,0:0:0:0:
256,192,19685,1,0,0:0:0:0:
256,192,19872,1,8,0:0:0:0:
256,192,19966,1,0,0:0:0:0:
256,192,20060,1,0,0:0:0:0:
256,192,20247,1,8,0:0:0:0:
256,192,20435,1,0,0:0:0:0:
256,192,20528,1,0,0:0:0:0:
256,192,20622,1,8,0:0:0:0:
256,192,20716,1,8,0:0:0:0:
256,192,20810,1,0,0:0:0:0:
256,192,20997,1,8,0:0:0:0:
256,192,21185,1,4,0:0:0:0:
256,192,21560,1,12,0:0:0:0:
256,192,21747,1,8,0:0:0:0:
256,192,21935,1,0,0:0:0:0:
256,192,22122,1,8,0:0:0:0:
256,192,22216,1,8,0:0:0:0:
256,192,22310,1,0,0:0:0:0:
256,192,22497,1,8,0:0:0:0:
256,192,22685,1,0,0:0:0:0:
256,192,22872,1,8,0:0:0:0:
256,192,22966,1,0,0:0:0:0:
256,192,23060,1,0,0:0:0:0:
256,192,23247,1,8,0:0:0:0:
256,192,23341,1,8,0:0:0:0:
256,192,23435,1,0,0:0:0:0:
256,192,23622,1,8,0:0:0:0:
256,192,23716,1,8,0:0:0:0:
256,192,23810,1,8,0:0:0:0:
256,192,23997,1,8,0:0:0:0:
256,192,24091,1,8,0:0:0:0:
256,192,24185,1,4,0:0:0:0:
256,192,24560,1,12,0:0:0:0:
256,192,24747,1,8,0:0:0:0:
256,192,24935,1,0,0:0:0:0:
256,192,25122,1,8,0:0:0:0:
256,192,25216,1,0,0:0:0:0:
256,192,25310,1,0,0:0:0:0:
256,192,25497,1,8,0:0:0:0:
256,192,25685,1,0,0:0:0:0:
256,192,25872,1,8,0:0:0:0:
256,192,25966,1,8,0:0:0:0:
256,192,26060,1,4,0:0:0:0:
256,192,26247,1,8,0:0:0:0:
256,192,26435,1,0,0:0:0:0:
256,192,26622,1,8,0:0:0:0:
256,192,26716,1,0,0:0:0:0:
256,192,26810,1,0,0:0:0:0:
256,192,26903,1,0,0:0:0:0:
256,192,26997,1,8,0:0:0:0:
256,192,27185,1,0,0:0:0:0:
256,192,27372,1,8,0:0:0:0:
256,192,27560,1,4,0:0:0:0:
256,192,27935,1,8,0:0:0:0:
256,192,28122,1,8,0:0:0:0:
256,192,28216,1,8,0:0:0:0:
256,192,28310,1,4,0:0:0:0:
256,192,28497,1,8,0:0:0:0:
256,192,28685,1,0,0:0:0:0:
256,192,28778,1,0,0:0:0:0:
256,192,28872,1,8,0:0:0:0:
256,192,28966,1,8,0:0:0:0:
256,192,29060,1,4,0:0:0:0:
256,192,29247,1,8,0:0:0:0:
256,192,29435,1,4,0:0:0:0:
256,192,29810,1,4,0:0:0:0:
256,192,29997,1,0,0:0:0:0:
256,192,30091,1,0,0:0:0:0:
256,192,30185,1,8,0:0:0:0:
256,192,30278,1,0,0:0:0:0:
256,192,30372,1,8,0:0:0:0:
256,192,30466,1,8,0:0:0:0:
256,192,30560,1,4,0:0:0:0:
256,192,30935,1,0,0:0:0:0:
256,192,31122,1,8,0:0:0:0:
256,192,31310,1,0,0:0:0:0:
256,192,31497,1,0,0:0:0:0:
256,192,31591,1,0,0:0:0:0:
256,192,31685,1,8,0:0:0:0:
256,192,31872,1,8,0:0:0:0:
256,192,32060,1,0,0:0:0:0:
256,192,32435,1,8,0:0:0:0:
256,192,32622,1,0,0:0:0:0:
256,192,32810,1,12,0:0:0:0:
256,192,33185,1,12,0:0:0:0:
256,192,33560,1,4,0:0:0:0:
256,192,33935,1,8,0:0:0:0:
256,192,34122,1,8,0:0:0:0:
256,192,34310,1,0,0:0:0:0:
256,192,34497,1,8,0:0:0:0:
256,192,34591,1,8,0:0:0:0:
256,192,34685,1,0,0:0:0:0:
256,192,34872,1,8,0:0:0:0:
256,192,35060,1,0,0:0:0:0:
256,192,35247,1,8,0:0:0:0:
256,192,35435,1,0,0:0:0:0:
256,192,35622,1,0,0:0:0:0:
256,192,35716,1,0,0:0:0:0:
256,192,35810,1,12,0:0:0:0:
256,192,36185,1,12,0:0:0:0:
256,192,36560,1,4,0:0:0:0:
256,192,36935,1,0,0:0:0:0:
256,192,37122,1,0,0:0:0:0:
256,192,37310,1,8,0:0:0:0:
256,192,37497,1,0,0:0:0:0:
256,192,37591,1,0,0:0:0:0:
256,192,37685,1,8,0:0:0:0:
256,192,37872,1,8,0:0:0:0:
256,192,38060,1,0,0:0:0:0:
256,192,38247,1,0,0:0:0:0:
256,192,38435,1,8,0:0:0:0:
256,192,38622,1,0,0:0:0:0:
256,192,38716,1,0,0:0:0:0:
256,192,38810,1,12,0:0:0:0:
256,192,39185,1,12,0:0:0:0:
256,192,39560,1,4,0:0:0:0:
256,192,39935,1,0,0:0:0:0:
256,192,40122,1,0,0:0:0:0:
256,192,40310,1,8,0:0:0:0:
256,192,40497,1,0,0:0:0:0:
256,192,40685,1,8,0:0:0:0:
256,192,40872,1,8,0:0:0:0:
256,192,40966,1,8,0:0:0:0:
256,192,41060,1,4,0:0:0:0:
256,192,41435,1,4,0:0:0:0:
256,192,41810,1,4,0:0:0:0:
256,192,41997,1,8,0:0:0:0:
256,192,42060,1,8,0:0:0:0:
256,192,42122,1,8,0:0:0:0:
256,192,42185,1,8,0:0:0:0:
256,192,42247,1,8,0:0:0:0:
256,192,42310,1,8,0:0:0:0:
256,192,42372,1,0,0:0:0:0:
256,192,42560,1,8,0:0:0:0:
256,192,42622,1,8,0:0:0:0:
256,192,42685,1,8,0:0:0:0:
256,192,42747,1,8,0:0:0:0:
256,192,42810,1,0,0:0:0:0:
256,192,42872,1,0,0:0:0:0:
256,192,42935,1,8,0:0:0:0:
256,192,42997,1,8,0:0:0:0:
256,192,43060,1,0,0:0:0:0:
256,192,43122,1,0,0:0:0:0:
256,192,43185,1,8,0:0:0:0:
256,192,43247,1,0,0:0:0:0:
256,192,43310,1,8,0:0:0:0:
256,192,43372,1,8,0:0:0:0:
256,192,43435,1,0,0:0:0:0:
256,192,43497,1,8,0:0:0:0:
256,192,43560,1,0,0:0:0:0:
256,192,43622,1,0,0:0:0:0:
256,192,43685,1,8,0:0:0:0:
256,192,43747,1,8,0:0:0:0:
256,192,43810,1,0,0:0:0:0:
256,192,43872,1,8,0:0:0:0:
256,192,43935,1,0,0:0:0:0:
256,192,43997,1,0,0:0:0:0:
256,192,44060,1,8,0:0:0:0:
256,192,44122,1,8,0:0:0:0:
256,192,44185,1,8,0:0:0:0:
256,192,44247,1,8,0:0:0:0:
256,192,44310,1,0,0:0:0:0:
256,192,44372,1,0,0:0:0:0:
256,192,44435,1,8,0:0:0:0:
256,192,44497,1,8,0:0:0:0:
256,192,44560,1,0,0:0:0:0:
256,192,44622,1,0,0:0:0:0:
256,192,44685,1,0,0:0:0:0:
256,192,44747,1,0,0:0:0:0:
256,192,44810,1,8,0:0:0:0:
256,192,44903,1,8,0:0:0:0:
256,192,44997,1,0,0:0:0:0:
256,192,45091,1,0,0:0:0:0:
256,192,45185,1,12,0:0:0:0:
256,192,45560,1,4,0:0:0:0:
256,192,45935,1,0,0:0:0:0:
256,192,46122,1,0,0:0:0:0:
256,192,46310,1,8,0:0:0:0:
256,192,46497,1,8,0:0:0:0:
256,192,46685,1,0,0:0:0:0:
256,192,46872,1,0,0:0:0:0:
256,192,46935,1,0,0:0:0:0:
256,192,46997,1,0,0:0:0:0:
256,192,47060,1,8,0:0:0:0:
256,192,47153,1,8,0:0:0:0:
256,192,47247,1,8,0:0:0:0:
256,192,47622,1,0,0:0:0:0:
256,192,47810,1,12,0:0:0:0:
256,192,48185,1,8,0:0:0:0:
256,192,48247,1,8,0:0:0:0:
256,192,48310,1,8,0:0:0:0:
256,192,48372,1,8,0:0:0:0:
256,192,48435,1,8,0:0:0:0:
256,192,48497,1,8,0:0:0:0:
256,192,48560,1,4,0:0:0:0:
256,192,48841,1,0,0:0:0:0:
256,192,48935,1,8,0:0:0:0:
256,192,49122,1,0,0:0:0:0:
256,192,49216,1,8,0:0:0:0:
256,192,49310,1,0,0:0:0:0:
256,192,49497,1,8,0:0:0:0:
256,192,49591,1,0,0:0:0:0:
256,192,49685,1,8,0:0:0:0:
256,192,49778,1,8,0:0:0:0:
256,192,49872,1,0,0:0:0:0:
256,192,50060,1,12,0:0:0:0:
256,192,50247,1,0,0:0:0:0:
256,192,50341,1,0,0:0:0:0:
256,192,50435,1,12,0:0:0:0:
256,192,50622,1,0,0:0:0:0:
256,192,50716,1,0,0:0:0:0:
256,192,50810,1,12,0:0:0:0:
256,192,50997,1,0,0:0:0:0:
256,192,51060,1,0,0:0:0:0:
256,192,51122,1,0,0:0:0:0:
256,192,51185,1,8,0:0:0:0:
256,192,51278,1,8,0:0:0:0:
256,192,51372,1,8,0:0:0:0:
256,192,51466,1,8,0:0:0:0:
256,192,51560,1,4,0:0:0:0:
256,192,52122,1,0,0:0:0:0:
256,192,52310,1,8,0:0:0:0:
256,192,52685,1,0,0:0:0:0:
256,192,52872,1,8,0:0:0:0:
256,192,52966,1,8,0:0:0:0:
256,192,53060,1,0,0:0:0:0:
256,192,53247,1,8,0:0:0:0:
256,192,53435,1,0,0:0:0:0:
256,192,53622,1,0,0:0:0:0:
256,192,53716,1,0,0:0:0:0:
256,192,53810,1,8,0:0:0:0:
256,192,54185,1,8,0:0:0:0:
256,192,54372,1,8,0:0:0:0:
256,192,54466,1,8,0:0:0:0:
256,192,54560,1,4,0:0:0:0:
256,192,55122,1,0,0:0:0:0:
256,192,55310,1,8,0:0:0:0:
256,192,55685,1,0,0:0:0:0:
256,192,55872,1,8,0:0:0:0:
256,192,55966,1,8,0:0:0:0:
256,192,56060,1,0,0:0:0:0:
256,192,56247,1,8,0:0:0:0:
256,192,56435,1,0,0:0:0:0:
256,192,56622,1,0,0:0:0:0:
256,192,56716,1,0,0:0:0:0:
256,192,56810,1,12,0:0:0:0:
256,192,56997,1,0,0:0:0:0:
256,192,57185,1,12,0:0:0:0:
256,192,57560,1,4,0:0:0:0:
256,192,58122,1,8,0:0:0:0:
256,192,58310,1,8,0:0:0:0:
256,192,58872,1,8,0:0:0:0:
256,192,59060,1,8,0:0:0:0:
256,192,59622,1,8,0:0:0:0:
256,192,59810,1,8,0:0:0:0:
256,192,59997,1,0,0:0:0:0:
256,192,60091,1,0,0:0:0:0:
256,192,60185,1,12,0:0:0:0:
256,192,60372,1,0,0:0:0:0:
256,192,60466,1,0,0:0:0:0:
256,192,60560,1,12,0:0:0:0:
256,192,60935,1,0,0:0:0:0:
256,192,61122,1,0,0:0:0:0:
256,192,61216,1,0,0:0:0:0:
256,192,61310,1,12,0:0:0:0:
256,192,61685,1,8,0:0:0:0:
256,192,61872,1,0,0:0:0:0:
256,192,61966,1,0,0:0:0:0:
256,192,62060,1,12,0:0:0:0:
256,192,62247,1,0,0:0:0:0:
256,192,62341,1,0,0:0:0:0:
256,192,62435,1,12,0:0:0:0:
256,192,62622,1,0,0:0:0:0:
256,192,62716,1,0,0:0:0:0:
256,192,62810,1,12,0:0:0:0:
256,192,62997,1,8,0:0:0:0:
256,192,63091,1,0,0:0:0:0:
256,192,63185,1,8,0:0:0:0:
256,192,63278,1,8,0:0:0:0:
256,192,63372,1,8,0:0:0:0:
256,192,63466,1,8,0:0:0:0:
256,192,63560,1,4,0:0:0:0:
256,192,63747,1,8,0:0:0:0:
256,192,63841,1,8,0:0:0:0:
256,192,63935,1,0,0:0:0:0:
256,192,64028,1,0,0:0:0:0:
256,192,64122,1,8,0:0:0:0:
256,192,64216,1,0,0:0:0:0:
256,192,64263,1,0,0:0:0:0:
256,192,64310,1,8,0:0:0:0:
256,192,64403,1,0,0:0:0:0:
256,192,64497,1,8,0:0:0:0:
256,192,64591,1,8,0:0:0:0:
256,192,64685,1,0,0:0:0:0:
256,192,64778,1,0,0:0:0:0:
256,192,64872,1,8,0:0:0:0:
256,192,64919,1,0,0:0:0:0:
256,192,64966,1,0,0:0:0:0:
256,192,65060,1,12,0:0:0:0:
256,192,65247,1,0,0:0:0:0:
256,192,65341,1,0,0:0:0:0:
256,192,65435,1,8,0:0:0:0:
256,192,65528,1,0,0:0:0:0:
256,192,65622,1,8,0:0:0:0:
256,192,65716,1,0,0:0:0:0:
256,192,65763,1,0,0:0:0:0:
256,192,65810,1,8,0:0:0:0:
256,192,65856,1,8,0:0:0:0:
256,192,65903,1,8,0:0:0:0:
256,192,65997,1,0,0:0:0:0:
256,192,66091,1,0,0:0:0:0:
256,192,66185,1,8,0:0:0:0:
256,192,66231,1,8,0:0:0:0:
256,192,66278,1,8,0:0:0:0:
256,192,66325,1,8,0:0:0:0:
256,192,66372,1,0,0:0:0:0:
256,192,66466,1,0,0:0:0:0:
256,192,66560,1,12,0:0:0:0:
256,192,66747,1,0,0:0:0:0:
256,192,66841,1,0,0:0:0:0:
256,192,66935,1,8,0:0:0:0:
256,192,67028,1,8,0:0:0:0:
256,192,67122,1,0,0:0:0:0:
256,192,67216,1,0,0:0:0:0:
256,192,67310,1,8,0:0:0:0:
256,192,67356,1,8,0:0:0:0:
256,192,67403,1,0,0:0:0:0:
256,192,67450,1,0,0:0:0:0:
256,192,67497,1,8,0:0:0:0:
256,192,67591,1,0,0:0:0:0:
256,192,67685,1,8,0:0:0:0:
256,192,67731,1,0,0:0:0:0:
256,192,67778,1,0,0:0:0:0:
256,192,67872,1,8,0:0:0:0:
256,192,67966,1,0,0:0:0:0:
256,192,68060,1,12,0:0:0:0:
256,192,68247,1,8,0:0:0:0:
256,192,68341,1,8,0:0:0:0:
256,192,68435,1,0,0:0:0:0:
256,192,68528,1,0,0:0:0:0:
256,192,68622,1,8,0:0:0:0:
256,192,68716,1,0,0:0:0:0:
256,192,68763,1,0,0:0:0:0:
256,192,68810,1,8,0:0:0:0:
256,192,68856,1,8,0:0:0:0:
256,192,68903,1,8,0:0:0:0:
256,192,68997,1,0,0:0:0:0:
256,192,69091,1,0,0:0:0:0:
256,192,69185,1,8,0:0:0:0:
256,192,69231,1,8,0:0:0:0:
256,192,69278,1,8,0:0:0:0:
256,192,69325,1,8,0:0:0:0:
256,192,69372,1,0,0:0:0:0:
256,192,69466,1,0,0:0:0:0:
256,192,69560,1,12,0:0:0:0:
256,192,69747,1,8,0:0:0:0:
256,192,69841,1,8,0:0:0:0:
256,192,69935,1,0,0:0:0:0:
256,192,70028,1,0,0:0:0:0:
256,192,70122,1,8,0:0:0:0:
256,192,70216,1,0,0:0:0:0:
256,192,70263,1,0,0:0:0:0:
256,192,70310,1,8,0:0:0:0:
256,192,70403,1,0,0:0:0:0:
256,192,70497,1,8,0:0:0:0:
256,192,70591,1,8,0:0:0:0:
256,192,70685,1,0,0:0:0:0:
256,192,70778,1,0,0:0:0:0:
256,192,70872,1,8,0:0:0:0:
256,192,70919,1,0,0:0:0:0:
256,192,70966,1,0,0:0:0:0:
256,192,71060,1,12,0:0:0:0:
256,192,71247,1,0,0:0:0:0:
256,192,71341,1,0,0:0:0:0:
256,192,71435,1,8,0:0:0:0:
256,192,71528,1,0,0:0:0:0:
256,192,71622,1,8,0:0:0:0:
256,192,71716,1,0,0:0:0:0:
256,192,71763,1,0,0:0:0:0:
256,192,71810,1,8,0:0:0:0:
256,192,71856,1,8,0:0:0:0:
256,192,71903,1,8,0:0:0:0:
256,192,71997,1,0,0:0:0:0:
256,192,72091,1,0,0:0:0:0:
256,192,72185,1,8,0:0:0:0:
256,192,72231,1,8,0:0:0:0:
256,192,72278,1,8,0:0:0:0:
256,192,72325,1,8,0:0:0:0:
256,192,72372,1,0,0:0:0:0:
256,192,72466,1,0,0:0:0:0:
256,192,72560,1,12,0:0:0:0:
256,192,73497,1,8,0:0:0:0:
256,192,73591,1,0,0:0:0:0:
256,192,73685,1,8,0:0:0:0:
256,192,73778,1,0,0:0:0:0:
256,192,73872,1,8,0:0:0:0:
256,192,73966,1,8,0:0:0:0:
256,192,74060,1,4,0:0:0:0:
256,192,74247,1,8,0:0:0:0:
256,192,74294,1,0,0:0:0:0:
256,192,74341,1,0,0:0:0:0:
256,192,74435,1,8,0:0:0:0:
256,192,74528,1,0,0:0:0:0:
256,192,74622,1,8,0:0:0:0:
256,192,74669,1,8,0:0:0:0:
256,192,74716,1,8,0:0:0:0:
256,192,74810,1,0,0:0:0:0:
256,192,74903,1,0,0:0:0:0:
256,192,74997,1,8,0:0:0:0:
256,192,75044,1,8,0:0:0:0:
256,192,75091,1,0,0:0:0:0:
256,192,75185,1,8,0:0:0:0:
256,192,75278,1,0,0:0:0:0:
256,192,75372,1,8,0:0:0:0:
256,192,75466,1,8,0:0:0:0:
256,192,75560,1,4,0:0:0:0:
256,192,75747,1,8,0:0:0:0:
256,192,75794,1,0,0:0:0:0:
256,192,75841,1,0,0:0:0:0:
256,192,75935,1,8,0:0:0:0:
256,192,76028,1,0,0:0:0:0:
256,192,76122,1,8,0:0:0:0:
256,192,76169,1,8,0:0:0:0:
256,192,76216,1,8,0:0:0:0:
256,192,76310,1,0,0:0:0:0:
256,192,76403,1,0,0:0:0:0:
256,192,76497,1,8,0:0:0:0:
256,192,76544,1,0,0:0:0:0:
256,192,76591,1,0,0:0:0:0:
256,192,76685,1,12,0:0:0:0:
256,192,76872,1,8,0:0:0:0:
256,192,76966,1,8,0:0:0:0:
256,192,77060,1,4,0:0:0:0:
256,192,77247,1,8,0:0:0:0:
256,192,77294,1,0,0:0:0:0:
256,192,77341,1,0,0:0:0:0:
256,192,77435,1,8,0:0:0:0:
256,192,77528,1,0,0:0:0:0:
256,192,77622,1,8,0:0:0:0:
256,192,77669,1,8,0:0:0:0:
256,192,77716,1,8,0:0:0:0:
256,192,77810,1,0,0:0:0:0:
256,192,77903,1,0,0:0:0:0:
256,192,77997,1,8,0:0:0:0:
256,192,78044,1,0,0:0:0:0:
256,192,78091,1,0,0:0:0:0:
256,192,78185,1,8,0:0:0:0:
256,192,78278,1,0,0:0:0:0:
256,192,78372,1,12,0:0:0:0:
256,192,78560,1,8,0:0:0:0:
256,192,78653,1,8,0:0:0:0:
256,192,78747,1,4,0:0:0:0:
256,192,78935,1,0,0:0:0:0:
256,192,79028,1,0,0:0:0:0:
256,192,79122,1,12,0:0:0:0:
256,192,79310,1,0,0:0:0:0:
256,192,79403,1,0,0:0:0:0:
256,192,79450,1,0,0:0:0:0:
256,192,79497,1,8,0:0:0:0:
256,192,79591,1,8,0:0:0:0:
256,192,79685,1,0,0:0:0:0:
256,192,79731,1,0,0:0:0:0:
256,192,79778,1,0,0:0:0:0:
256,192,79825,1,0,0:0:0:0:
256,192,79872,1,8,0:0:0:0:
256,192,79966,1,8,0:0:0:0:
256,192,80060,1,4,0:0:0:0:
256,192,80247,1,8,0:0:0:0:
256,192,80294,1,0,0:0:0:0:
256,192,80341,1,0,0:0:0:0:
256,192,80435,1,8,0:0:0:0:
256,192,80528,1,0,0:0:0:0:
256,192,80622,1,8,0:0:0:0:
256,192,80669,1,8,0:0:0:0:
256,192,80716,1,8,0:0:0:0:
256,192,80763,1,8,0:0:0:0:
256,192,80810,1,0,0:0:0:0:
256,192,80903,1,0,0:0:0:0:
256,192,80997,1,8,0:0:0:0:
256,192,81044,1,8,0:0:0:0:
256,192,81091,1,0,0:0:0:0:
256,192,81185,1,8,0:0:0:0:
256,192,81278,1,0,0:0:0:0:
256,192,81372,1,8,0:0:0:0:
256,192,81466,1,8,0:0:0:0:
256,192,81560,1,0,0:0:0:0:
256,192,81747,1,8,0:0:0:0:
256,192,81794,1,0,0:0:0:0:
256,192,81841,1,0,0:0:0:0:
256,192,81935,1,8,0:0:0:0:
256,192,82028,1,0,0:0:0:0:
256,192,82122,1,8,0:0:0:0:
256,192,82169,1,8,0:0:0:0:
256,192,82216,1,8,0:0:0:0:
256,192,82263,1,8,0:0:0:0:
256,192,82310,1,0,0:0:0:0:
256,192,82403,1,0,0:0:0:0:
256,192,82497,1,8,0:0:0:0:
256,192,82544,1,0,0:0:0:0:
256,192,82591,1,0,0:0:0:0:
256,192,82685,1,8,0:0:0:0:
256,192,82778,1,0,0:0:0:0:
256,192,82872,1,8,0:0:0:0:
256,192,82966,1,8,0:0:0:0:
256,192,83060,1,0,0:0:0:0:
256,192,83247,1,8,0:0:0:0:
256,192,83294,1,0,0:0:0:0:
256,192,83341,1,0,0:0:0:0:
256,192,83435,1,8,0:0:0:0:
256,192,83528,1,0,0:0:0:0:
256,192,83622,1,8,0:0:0:0:
256,192,83669,1,8,0:0:0:0:
256,192,83716,1,8,0:0:0:0:
256,192,83763,1,8,0:0:0:0:
256,192,83810,1,0,0:0:0:0:
256,192,83903,1,0,0:0:0:0:
256,192,83997,1,8,0:0:0:0:
256,192,84044,1,0,0:0:0:0:
256,192,84091,1,0,0:0:0:0:
256,192,84185,1,8,0:0:0:0:
256,192,84278,1,0,0:0:0:0:
256,192,84372,1,8,0:0:0:0:
256,192,84419,1,8,0:0:0:0:
256,192,84466,1,8,0:0:0:0:
256,192,84560,1,0,0:0:0:0:
256,192,84653,1,0,0:0:0:0:
256,192,84747,1,8,0:0:0:0:
256,192,84794,1,0,0:0:0:0:
256,192,84841,1,0,0:0:0:0:
256,192,84935,1,8,0:0:0:0:
256,192,85028,1,0,0:0:0:0:
256,192,85122,1,8,0:0:0:0:
253,185,85169,1,8,0:0:0:0:
256,192,85216,1,8,0:0:0:0:
256,192,85310,1,0,0:0:0:0:
256,192,85403,1,0,0:0:0:0:
256,192,85497,1,8,0:0:0:0:
256,192,85591,1,0,0:0:0:0:
256,192,85638,1,0,0:0:0:0:
256,192,85685,1,8,0:0:0:0:
256,192,85778,1,8,0:0:0:0:
256,192,85872,1,8,0:0:0:0:
256,192,85966,1,8,0:0:0:0:
256,192,86060,1,4,0:0:0:0:
