osu file format v14

[General]
AudioFilename: audio.mp3
AudioLeadIn: 0
PreviewTime: 263210
Countdown: 0
SampleSet: None
StackLeniency: 0.4
Mode: 0
LetterboxInBreaks: 0
WidescreenStoryboard: 0

[Editor]
Bookmarks: 131866,300616
DistanceSpacing: 2.2
BeatDivisor: 4
GridSize: 8
TimelineZoom: 3

[Metadata]
Title:Shinzou o Sasageyo!
TitleUnicode:心臓を捧げよ!
Artist:Linked Horizon
ArtistUnicode:Linked Horizon
Creator:Artemis99
Version:Colossal
Source:進撃の巨人
Tags:
BeatmapID:2054515
BeatmapSetID:981718

[Difficulty]
HPDrainRate:5
CircleSize:4.2
OverallDifficulty:9
ApproachRate:9.5
SliderMultiplier:1.7
SliderTickRate:1

[Events]
//Background and Video events
0,0,"shinzouosasageyo.jpg",0,0
//Break Periods
2,289754,300091
//Storyboard Layer 0 (Background)
//Storyboard Layer 1 (Fail)
//Storyboard Layer 2 (Pass)
//Storyboard Layer 3 (Foreground)
//Storyboard Sound Samples

[TimingPoints]
2304,375,4,2,0,50,1,0
2304,-166.666666666667,4,2,0,30,0,0
5304,-83.3333333333333,4,2,0,50,0,0
8304,-133.333333333333,4,2,0,20,0,0
18616,-111.111111111111,4,2,0,20,0,0
18804,-111.111111111111,4,2,0,30,0,0
20304,-90.9090909090909,4,2,0,40,0,0
30804,-76.9230769230769,4,2,0,50,0,0
32304,-90.9090909090909,4,2,0,35,0,0
42804,-83.3333333333333,4,2,0,20,0,0
44304,-76.9230769230769,4,2,0,45,0,0
47304,-100,4,2,0,35,0,0
50304,-74.0740740740741,4,2,0,50,0,0
53304,-95.2380952380952,4,2,0,40,0,0
59304,-153.846153846153,4,2,0,25,0,0
61741,-83.3333333333333,4,2,0,35,0,0
62304,-71.4285714285714,4,2,0,50,0,0
65304,-62.5,4,2,0,50,0,0
75241,-83.3333333333333,4,2,0,50,0,0
81804,-71.4285714285714,4,2,0,50,0,0
89116,-83.3333333333333,4,2,0,50,0,0
91554,-100,4,2,0,50,0,0
96054,-83.3333333333333,4,2,0,50,0,0
96804,-90.9090909090909,4,2,0,50,0,0
99054,-83.3333333333333,4,2,0,50,0,0
101304,-83.3333333333333,4,2,0,50,0,0
102804,-76.9230769230769,4,2,0,50,0,0
105804,-100,4,2,0,50,0,0
108804,-76.9230769230769,4,2,0,50,0,0
111804,-100,4,2,0,50,0,0
117804,-153.846153846154,4,2,0,50,0,0
120429,-83.3333333333333,4,2,0,50,0,0
120804,-71.4285714285714,4,2,0,50,0,0
123804,-62.5,4,2,0,50,0,0
134304,-83.3333333333333,4,2,0,50,0,0
140304,-71.4285714285714,4,2,0,50,0,0
146866,-83.3333333333333,4,2,0,50,0,0
149304,-100,4,2,0,50,0,0
159804,-83.3333333333333,4,2,0,50,0,0
161304,-90.9090909090909,4,2,0,50,0,0
171804,-83.3333333333333,4,2,0,50,0,0
172554,-76.9230769230769,4,2,0,50,0,0
173304,-86.9565217391304,4,2,0,50,0,0
181554,-80,4,2,0,50,0,0
181835,-68.9655172413793,4,2,0,50,0,0
182116,-68.9655172413793,4,2,0,50,0,0
182116,-60.6060606060606,4,2,0,50,0,0
182304,-50,4,2,0,50,0,0
185304,-83.3333333333333,4,2,0,50,0,0
188304,-76.9230769230769,4,2,0,50,0,0
189804,-100,4,2,0,50,0,0
190741,-76.9230769230769,4,2,0,50,0,0
191679,-100,4,2,0,50,0,0
192897,-76.9230769230769,4,2,0,50,0,0
194491,-100,4,2,0,50,0,0
196554,-76.9230769230769,4,2,0,50,0,0
197304,-100,4,2,0,50,0,0
197304,-100,4,2,0,50,0,0
198804,-71.4285714285714,4,2,0,50,0,0
210804,-62.5,4,2,0,50,0,0
212679,-74.0740740740741,4,2,0,50,0,0
212679,-76.9230769230769,4,2,0,50,0,0
222804,-60.6060606060606,4,2,0,50,0,0
224304,-71.4285714285714,4,2,0,50,0,0
234804,-58.8235294117647,4,2,0,50,0,0
236304,-66.6666666666667,4,2,0,40,0,0
245304,-58.8235294117647,4,2,0,40,0,0
248304,-64.5161290322581,4,2,0,40,0,0
256929,-57.1428571428571,4,2,0,40,0,0
261804,-133.333333333333,4,2,0,40,0,0
262554,-133.333333333333,4,2,0,40,0,0
263304,-200,4,2,0,40,0,0
268179,-50,4,2,0,40,0,0
268554,-100,4,2,0,40,0,0
268929,-50,4,2,0,40,0,0
269304,-83.3333333333333,4,2,0,40,0,0
270429,-50,4,2,0,40,0,0
270804,-83.3333333333333,4,2,0,40,0,0
271929,-50,4,2,0,40,0,0
272304,-76.9230769230769,4,2,0,40,0,0
273429,-50,4,2,0,40,0,0
273804,-71.4285714285714,4,2,0,40,0,0
275679,-43.4782608695652,4,2,0,40,0,0
276054,-66.6666666666667,4,2,0,40,0,0
279429,-58.8235294117647,4,2,0,40,0,0
279804,-66.6666666666667,4,2,0,40,0,0
301554,375,4,2,0,40,1,0
301554,-100,4,2,0,40,0,0
307554,-153.846153846154,4,2,0,40,0,0
310179,-76.9230769230769,4,2,0,40,0,0
310554,-64.5161290322581,4,2,0,40,0,0
313554,-57.1428571428571,4,2,0,40,0,0
323679,-64.5161290322581,4,2,0,40,0,0
330054,-50,4,2,0,40,0,0

[HitObjects]
471,361,2304,5,0,0:0:0:0:
437,285,2491,2,0,P|398:290|366:286,1,50.9999984436036
298,226,2866,2,0,P|311:274|302:324,2,101.999996887207
302,324,3804,5,0,0:0:0:0:
223,368,3991,2,0,P|184:373|152:369,1,50.9999984436036
27,302,4366,2,0,P|78:310|128:302,2,101.999996887207
6,115,5304,6,0,L|0:178,1,50.9999984436036
34,98,5491,2,0,P|83:110|132:101,1,101.999996887207
258,21,5866,2,0,L|246:148,1,101.999996887207
158,188,6147,1,0,0:0:0:0:
177,201,6241,2,0,L|188:328,1,101.999996887207
265,380,6522,1,0,0:0:0:0:
284,364,6616,6,0,P|334:375|384:367,1,101.999996887207
474,205,6991,2,0,P|481:255|471:304,1,101.999996887207
337,186,7272,1,0,0:0:0:0:
356,164,7366,2,0,L|427:157,1,50.9999984436036
512,74,7554,2,0,L|440:67,1,50.9999984436036
347,2,7741,1,0,0:0:0:0:
328,25,7834,1,0,0:0:0:0:
303,43,7928,1,0,0:0:0:0:
275,55,8022,1,0,0:0:0:0:
245,61,8116,1,0,0:0:0:0:
215,60,8209,1,0,0:0:0:0:
186,52,8304,6,0,P|154:45|123:47,1,63.7500024318696
0,116,8679,2,0,P|31:122|62:120,1,63.7500024318696
95,208,9054,1,0,0:0:0:0:
155,135,9241,1,0,0:3:0:0:
188,222,9429,2,0,L|180:305,1,63.7500024318696
121,338,9710,1,0,0:0:0:0:
97,347,9804,6,0,P|58:353|27:347,1,63.7500024318696
182,285,10179,2,0,P|221:279|252:285,1,63.7500024318696
325,384,10554,2,0,L|319:320,1,63.7500024318696
409,187,10929,1,0,0:0:0:0:
411,210,11022,1,0,0:0:0:0:
413,234,11116,1,0,0:0:0:0:
415,258,11210,1,0,0:0:0:0:
416,281,11304,6,0,L|422:345,2,63.7500024318696
499,209,11866,2,0,L|493:145,1,63.7500024318696
409,187,12241,1,0,0:0:0:0:
330,134,12429,2,0,P|298:128|267:133,1,63.7500024318696
203,176,12710,1,0,0:0:0:0:
189,161,12804,6,0,P|184:129|189:98,1,63.7500024318696
275,209,13179,2,0,P|279:240|274:271,1,63.7500024318696
150,298,13554,1,0,0:0:0:0:
257,284,13741,1,0,0:0:0:0:
101,210,13929,1,0,0:0:0:0:
82,224,14022,1,0,0:0:0:0:
66,242,14116,1,0,0:0:0:0:
56,264,14210,1,0,0:0:0:0:
51,287,14304,6,0,L|45:350,1,63.7500024318696
150,298,14679,1,0,0:0:0:0:
101,210,14866,1,0,0:0:0:0:
101,210,14960,1,0,0:0:0:0:
101,210,15054,2,0,P|71:202|32:200,1,63.7500024318696
189,161,15429,2,0,P|219:169|258:171,1,63.7500024318696
97,46,15804,6,0,L|102:109,1,63.7500024318696
188,160,16179,1,0,0:0:0:0:
265,88,16366,1,0,0:0:0:0:
265,88,16460,1,0,0:0:0:0:
265,88,16554,2,0,P|309:82|341:87,1,63.7500024318696
406,131,16929,2,0,L|400:194,1,63.7500024318696,0|0,0:3|0:3,0:3:0:0:
331,232,17210,1,0,0:0:0:0:
345,244,17304,6,0,L|339:307,1,63.7500024318696,0|0,0:3|0:3,0:3:0:0:
250,360,17679,1,0,0:0:0:0:
363,323,17866,1,0,0:0:0:0:
363,323,17960,1,0,0:0:0:0:
363,323,18054,2,0,P|405:318|437:323,1,63.7500024318696
506,384,18429,1,0,0:0:0:0:
512,245,18616,1,0,0:0:0:0:
512,245,18710,1,0,0:0:0:0:
512,245,18804,6,0,P|509:193|494:144,1,76.4999976654053
413,39,19179,2,0,P|415:90|430:139,1,76.4999976654053
503,16,19554,1,0,0:0:0:0:
323,62,19741,1,0,0:0:0:0:
503,169,19929,1,0,0:0:0:0:
312,43,20116,1,0,0:0:0:0:
312,43,20210,1,0,0:0:0:0:
312,43,20304,6,0,P|265:38|219:44,1,93.5000028533936
166,146,20679,1,0,0:0:0:0:
103,48,20866,1,0,0:0:0:0:
103,48,20960,1,0,0:0:0:0:
103,48,21054,1,0,0:0:0:0:
186,140,21241,1,0,0:0:0:0:
147,257,21429,2,0,P|94:253|38:262,1,93.5000028533936
156,352,21710,1,0,0:0:0:0:
180,360,21804,6,0,P|233:364|289:355,1,93.5000028533936
352,200,22179,2,0,L|343:295,1,93.5000028533936
343,293,22460,1,0,0:0:0:0:
343,293,22554,1,0,0:0:0:0:
206,152,22741,1,0,0:0:0:0:
374,187,22929,2,0,P|421:192|467:189,1,93.5000028533936
491,64,23210,1,0,0:0:0:0:
468,52,23304,6,0,P|421:47|375:50,1,93.5000028533936
206,152,23679,1,0,0:0:0:0:
374,187,23866,1,0,0:0:0:0:
374,187,23960,1,0,0:0:0:0:
374,187,24054,1,0,0:0:0:0:
249,33,24241,1,0,0:0:0:0:
187,176,24429,2,0,L|196:279,1,93.5000028533936
151,365,24710,1,0,0:0:0:0:
127,347,24804,6,0,P|83:330|37:329,1,93.5000028533936
97,193,25179,2,0,P|140:176|186:175,1,93.5000028533936
186,175,25460,1,0,0:0:0:0:
186,175,25554,1,0,0:0:0:0:
23,55,25741,1,0,0:0:0:0:
97,193,25929,1,0,0:0:0:0:
96,158,26022,1,0,0:0:0:0:
109,125,26116,1,0,0:0:0:0:
133,100,26210,1,0,0:0:0:0:
164,85,26304,6,0,L|257:76,1,93.5000028533936
186,175,26679,1,0,0:0:0:0:
321,146,26866,1,0,0:0:0:0:
332,137,26960,1,0,0:0:0:0:
343,128,27054,2,0,P|357:84|350:38,1,93.5000028533936
413,206,27429,2,0,P|398:250|406:295,1,93.5000028533936
473,376,27710,1,0,0:0:0:0:
473,376,27804,6,0,L|379:384,1,93.5000028533936
215,264,28179,1,0,0:0:0:0:
258,384,28366,1,0,0:0:0:0:
258,384,28460,1,0,0:0:0:0:
258,384,28554,1,0,0:0:0:0:
309,225,28741,1,0,0:0:0:0:
121,303,28929,2,0,P|71:314|9:304,1,93.5000028533936
29,310,29210,1,0,0:0:0:0:
29,310,29304,5,0,0:0:0:0:
107,108,29491,1,0,0:0:0:0:
244,277,29679,1,0,0:0:0:0:
1,183,29866,1,0,0:0:0:0:
1,183,29960,1,0,0:0:0:0:
1,183,30054,1,0,0:0:0:0:
321,74,30241,1,0,0:0:0:0:
244,277,30429,1,0,0:0:0:0:
200,3,30616,1,0,0:3:0:0:
512,296,30804,6,0,P|453:288|360:338,1,165.749992412568
181,371,31179,2,0,P|240:379|333:329,1,165.749992412568
321,73,31554,1,0,0:0:0:0:
323,108,31647,1,0,0:0:0:0:
339,138,31741,1,0,0:0:0:0:
366,159,31835,1,0,0:0:0:0:
400,167,31929,2,0,L|463:172,1,55.2499974708558
312,250,32116,2,0,L|248:255,1,55.2499974708558
119,215,32304,5,0,0:0:0:0:
232,273,32491,1,0,0:0:0:0:
226,147,32679,1,0,0:0:0:0:
207,291,32866,1,0,0:0:0:0:
113,89,33054,2,0,P|71:123|20:139,1,93.5000028533936
27,288,33429,2,0,P|69:254|120:238,1,93.5000028533936
135,363,33804,6,0,P|201:384|270:375,1,140.25000428009
372,337,34179,2,0,P|330:371|279:387,1,93.5000028533936
401,250,34554,2,0,P|407:221|406:188,1,46.7500014266968
501,79,34741,2,0,P|495:108|496:141,1,46.7500014266968
370,14,34929,2,0,P|310:6|214:18,1,140.25000428009
162,121,35304,5,0,0:0:0:0:
200,12,35491,1,0,0:0:0:0:
219,217,35679,1,0,0:0:0:0:
143,129,35866,1,0,0:0:0:0:
334,196,36054,1,0,0:0:0:0:
104,238,36241,1,0,0:0:0:0:
354,311,36429,1,0,0:0:0:0:
99,258,36616,1,0,0:0:0:0:
360,181,36804,6,0,P|408:188|469:178,1,93.5000028533936
366,384,37179,2,0,L|374:290,1,93.5000028533936
237,205,37460,1,0,0:0:0:0:
219,217,37554,2,0,L|210:310,1,93.5000028533936
12,353,37929,1,0,0:0:0:0:
45,343,38022,1,0,0:0:0:0:
73,322,38116,1,0,0:0:0:0:
92,293,38210,1,0,0:0:0:0:
99,258,38304,6,0,L|108:165,1,93.5000028533936
19,1,38679,2,0,L|10:94,1,93.5000028533936
217,114,39054,1,0,0:0:0:0:
108,164,39241,1,0,0:0:0:0:
221,92,39429,1,0,0:0:0:0:
104,186,39616,1,0,0:0:0:0:
314,221,39804,6,0,L|417:211,1,93.5000028533936
475,40,40179,2,0,P|460:97|473:145,1,93.5000028533936
500,218,40460,1,0,0:0:0:0:
505,241,40554,2,0,P|507:273|505:297,1,46.7500014266968
409,384,40741,2,0,P|409:361|411:338,1,46.7500014266968
297,200,40929,2,0,P|266:248|170:271,1,140.25000428009
33,186,41304,5,0,0:0:0:0:
165,282,41491,1,0,0:0:0:0:
56,179,41679,1,0,0:0:0:0:
22,325,41866,1,0,0:0:0:0:
199,136,42054,1,0,0:0:0:0:
165,282,42241,1,0,0:0:0:0:
91,34,42429,1,0,0:3:0:0:
307,238,42616,1,0,0:0:0:0:
307,238,42710,1,0,0:0:0:0:
307,238,42804,6,0,P|358:244|409:239,1,101.999996887207
512,80,43179,2,0,P|461:74|410:79,1,101.999996887207
328,20,43460,1,0,0:0:0:0:
296,32,43554,2,0,P|261:37|212:30,1,50.9999984436036
179,122,43741,2,0,P|144:117|95:124,1,50.9999984436036
24,26,43929,1,0,0:0:0:0:
37,61,44022,1,0,0:0:0:0:
42,99,44116,1,0,0:0:0:0:
36,137,44210,1,0,0:0:0:0:
22,171,44304,6,0,P|18:199|19:226,1,55.2499974708558
95,367,44491,2,0,P|98:339|97:312,1,55.2499974708558
179,122,44679,6,0,P|175:149|176:176,1,55.2499974708558
251,317,44866,2,0,P|254:289|253:262,1,55.2499974708558
367,134,45054,2,0,P|355:187|362:242,1,110.499994941712
432,339,45335,1,0,0:0:0:0:
456,328,45429,2,0,P|467:274|460:219,1,110.499994941712
353,114,45710,1,0,0:0:0:0:
336,136,45804,6,0,L|280:140,1,55.2499974708558
123,16,45991,2,0,L|178:11,1,55.2499974708558
224,237,46179,6,0,L|168:241,1,55.2499974708558
11,117,46366,2,0,L|66:112,1,55.2499974708558
17,222,46554,1,0,0:0:0:0:
29,247,46647,2,0,P|48:299|45:354,1,110.499994941712
134,358,46929,2,0,L|22:367,1,110.499994941712
224,236,47304,6,0,P|224:299|262:349,1,127.5
282,362,47679,1,0,0:0:0:0:
319,266,47866,1,0,0:0:0:0:
420,250,48054,6,0,P|419:187|381:137,1,127.5
361,124,48429,1,0,0:0:0:0:
462,44,48616,1,0,0:0:0:0:
462,44,48710,1,0,0:0:0:0:
462,44,48804,5,0,0:0:0:0:
277,0,48991,2,0,B|208:6|208:6|185:24|185:24|113:30,1,170
13,7,49554,1,0,0:0:0:0:
144,136,49741,1,0,0:0:0:0:
144,136,49835,1,0,0:0:0:0:
144,136,49929,2,0,L|239:127,1,85
144,256,50304,6,0,L|16:267,1,114.750000437737
187,360,50585,1,0,0:0:0:0:
205,371,50679,2,0,L|332:359,1,114.750000437737
350,229,50960,1,0,0:0:0:0:
354,209,51054,2,0,L|360:280,1,57.3750002188683
498,265,51241,2,0,L|491:336,1,57.3750002188683
340,54,51429,2,0,L|346:125,1,57.3750002188683
512,110,51616,2,0,L|505:181,1,57.3750002188683
332,218,51804,6,0,P|275:227|218:222,1,114.750000437737
44,151,52085,1,0,0:0:0:0:
60,136,52179,2,0,P|116:127|173:132,1,114.750000437737
48,373,52460,1,0,0:0:0:0:
34,357,52554,2,0,L|28:293,1,57.3750002188683
183,384,52741,2,0,L|188:320,1,57.3750002188683
332,218,52929,1,0,0:0:0:0:
173,132,53116,1,0,0:0:0:0:
326,318,53304,6,0,P|406:286|431:204,1,178.499994552612
332,218,53866,1,0,0:0:0:0:
369,122,54054,2,0,B|317:73|317:73|190:62,1,178.499994552612
140,142,54616,1,0,0:0:0:0:
107,41,54804,5,0,0:0:0:0:
162,157,54991,2,0,P|171:225|164:336,1,178.499994552612
0,384,55554,2,0,P|44:379|88:383,1,89.2499972763062
46,291,55929,1,0,0:0:0:0:
164,334,56116,1,0,0:0:0:0:
164,334,56210,1,0,0:0:0:0:
164,334,56304,6,0,B|233:340|233:340|258:326|258:326|338:333,1,178.499994552612
445,343,56866,1,0,0:0:0:0:
400,246,57054,6,0,P|395:202|401:146,1,89.2499972763062
425,252,57429,1,0,0:0:0:0:
303,132,57616,1,0,0:0:0:0:
290,150,57804,5,0,0:0:0:0:
221,44,57991,2,0,P|135:21|49:42,1,178.499994552612
49,42,58460,1,0,0:0:0:0:
49,42,58554,1,0,0:0:0:0:
135,221,58741,1,0,0:0:0:0:
175,127,58929,2,0,P|131:118|88:129,1,89.2499972763062
181,312,59304,6,0,P|217:290|291:291,1,110.499994941712
296,304,59866,1,0,0:0:0:0:
379,384,60054,2,0,L|374:328,1,55.2499974708558
479,353,60429,2,0,L|483:297,1,55.2499974708558
402,218,60804,5,0,0:0:0:0:
475,198,60991,2,0,P|431:200|400:198,1,55.2499974708558
335,147,61366,1,0,0:0:0:0:
246,193,61554,1,0,0:0:0:0:
424,101,61741,1,0,0:0:0:0:
425,87,61834,1,0,0:0:0:0:
426,73,61929,2,0,B|388:45|388:45|324:40,1,101.999996887207
243,2,62210,1,0,0:0:0:0:
237,26,62304,6,0,P|221:50|189:78,1,59.4999981842042
36,91,62491,2,0,P|52:115|84:143,1,59.4999981842042
246,193,62679,6,0,P|230:217|198:245,1,59.4999981842042
45,258,62866,1,0,0:0:0:0:
69,275,62959,1,0,0:0:0:0:
87,298,63054,2,0,L|93:377,1,59.4999981842042
207,238,63241,2,0,L|200:317,1,59.4999981842042
313,325,63429,2,0,L|319:404,1,59.4999981842042
491,253,63616,1,0,0:0:0:0:
488,282,63709,1,0,0:0:0:0:
485,312,63804,6,0,P|471:242|491:184,1,118.999996368408
470,61,64085,1,0,0:0:0:0:
470,61,64179,2,0,P|484:131|464:189,1,118.999996368408
361,192,64460,1,0,0:0:0:0:
342,168,64554,2,0,L|278:162,1,59.4999981842042
223,73,64741,2,0,L|159:78,1,59.4999981842042
23,12,64929,1,0,0:0:0:0:
51,44,65022,1,0,0:0:0:0:
67,86,65116,1,0,0:0:0:0:
68,130,65210,1,0,0:0:0:0:
53,166,65304,6,0,P|45:208|54:262,1,68
177,384,65491,2,0,P|185:342|176:288,1,68
20,380,65679,1,0,0:0:0:0:
215,168,65866,2,0,L|294:161,1,68
490,371,66054,2,0,L|483:291,1,68
296,376,66241,2,0,L|302:296,1,68
506,379,66429,2,0,L|499:299,1,68
280,384,66616,2,0,L|286:304,1,68
507,93,66804,5,0,0:0:0:0:
208,16,66991,1,0,0:0:0:0:
174,18,67084,1,0,0:0:0:0:
140,21,67178,1,0,0:0:0:0:
13,236,67366,1,0,0:0:0:0:
46,233,67459,1,0,0:0:0:0:
80,230,67554,2,0,B|167:222|167:222|210:258,1,136
215,264,67835,1,0,0:0:0:0:
329,180,67929,2,0,P|342:122|331:25,1,136
502,3,68304,6,0,P|498:37|500:71,1,68
456,266,68491,2,0,P|459:232|457:198,1,68
324,26,68679,1,0,0:0:0:0:
348,196,68866,1,0,0:0:0:0:
116,9,69054,6,0,P|82:7|48:9,1,68
176,194,69241,2,0,P|209:195|243:193,1,68
137,20,69429,1,0,0:0:0:0:
30,235,69616,1,0,0:0:0:0:
257,207,69804,6,0,B|220:250|220:250|229:345,1,136
342,384,70085,1,0,0:0:0:0:
321,367,70179,2,0,L|315:299,1,68
451,130,70366,2,0,L|456:197,1,68
266,12,70554,2,0,P|332:22|401:6,1,136
134,316,70929,2,0,P|67:305|0:322,1,136
257,207,71304,6,0,P|290:211|326:208,1,68
512,314,71491,2,0,P|478:309|442:312,1,68
240,182,71679,1,0,0:0:0:0:
208,194,71772,1,0,0:0:0:0:
174,198,71866,1,0,0:0:0:0:
140,196,71960,1,0,0:0:0:0:
108,188,72054,6,0,L|101:108,1,68
0,67,72241,2,0,L|6:-12,1,68
185,70,72429,1,0,0:0:0:0:
217,60,72522,1,0,0:0:0:0:
250,56,72616,1,0,0:0:0:0:
284,58,72710,1,0,0:0:0:0:
316,66,72804,6,0,P|383:77|449:63,1,136
463,49,73085,1,0,0:0:0:0:
508,158,73179,2,0,P|500:197|504:239,1,68
377,297,73366,2,0,P|385:336|381:378,1,68
136,352,73554,2,0,L|223:344,1,68,0|0,0:3|0:3,0:3:0:0:
392,202,73741,2,0,L|304:209,1,68,0|0,0:3|0:3,0:3:0:0:
65,170,73929,1,0,0:0:0:0:
56,107,74022,1,0,0:0:0:0:
110,74,74116,1,0,0:0:0:0:
162,112,74210,1,0,0:0:0:0:
146,174,74304,5,0,0:0:0:0:
145,174,75241,1,0,0:0:0:0:
134,196,75334,1,0,0:0:0:0:
127,221,75428,1,0,0:0:0:0:
125,246,75522,1,0,0:0:0:0:
127,272,75616,1,0,0:0:0:0:
134,296,75709,1,0,0:0:0:0:
146,319,75804,6,0,L|225:325,1,50.9999984436036
369,267,75991,2,0,L|289:260,1,50.9999984436036
133,334,76179,2,0,L|212:340,1,50.9999984436036
382,252,76366,2,0,P|373:202|386:151,1,101.999996887207
475,84,76647,1,0,0:0:0:0:
475,84,76741,1,0,0:0:0:0:
382,252,76929,1,0,0:0:0:0:
382,252,77022,1,0,0:0:0:0:
382,252,77116,1,0,0:0:0:0:
173,0,77304,6,0,L|178:63,1,50.9999984436036
268,92,77491,2,0,L|262:155,1,50.9999984436036
173,184,77679,2,0,L|178:247,1,50.9999984436036
85,346,77866,2,0,B|106:312|106:312|99:232,1,101.999996887207,0|0,0:3|0:3,0:3:0:0:
36,57,78241,2,0,B|15:91|15:91|22:171,1,101.999996887207,0|0,0:3|0:3,0:3:0:0:
188,166,78616,1,0,0:0:0:0:
4,317,78804,6,0,P|0:342|3:367,1,50.9999984436036
100,199,78991,2,0,P|103:224|100:249,1,50.9999984436036
196,317,79179,2,0,P|199:342|196:367,1,50.9999984436036
304,254,79366,2,0,P|354:243|407:251,1,101.999996887207
512,381,79741,2,0,P|462:391|409:384,1,101.999996887207
304,138,80022,1,0,0:0:0:0:
296,152,80116,6,0,L|305:263,1,101.999996887207
483,91,80397,1,0,0:0:0:0:
491,105,80491,2,0,L|481:216,1,101.999996887207
355,33,80772,1,0,0:0:0:0:
340,14,80866,2,0,B|302:41|302:41|238:46,1,101.999996887207
40,16,81241,2,0,L|111:9,1,50.9999984436036
30,118,81429,1,0,0:0:0:0:
11,150,81522,1,0,0:0:0:0:
5,188,81616,1,0,0:0:0:0:
11,225,81710,1,0,0:0:0:0:
31,258,81804,6,0,L|102:264,1,59.4999981842042
367,379,81991,2,0,L|295:385,1,59.4999981842042
18,275,82179,2,0,L|89:281,1,59.4999981842042
339,116,82366,1,0,0:0:0:0:
346,58,82459,1,0,0:0:0:0:
312,12,82553,1,0,0:0:0:0:
254,3,82647,1,0,0:0:0:0:
208,38,82741,1,0,0:0:0:0:
199,95,82834,1,0,0:0:0:0:
234,142,82929,2,0,P|246:174|248:221,1,59.4999981842042
184,384,83116,2,0,P|172:352|170:305,1,59.4999981842042
253,156,83304,6,0,P|265:188|267:235,1,59.4999981842042
37,57,83491,2,0,P|25:25|23:-22,1,59.4999981842042
272,170,83679,2,0,P|284:202|286:249,1,59.4999981842042
484,373,83866,1,0,0:0:0:0:
442,332,83959,1,0,0:0:0:0:
438,274,84053,1,0,0:0:0:0:
475,229,84147,1,0,0:0:0:0:
512,184,84241,1,0,0:0:0:0:
508,126,84335,1,0,0:0:0:0:
467,86,84429,2,0,L|403:80,1,59.4999981842042
148,43,84616,2,0,L|207:37,1,59.4999981842042
352,325,84804,6,0,L|346:384,1,59.4999981842042
124,113,84991,2,0,L|129:53,1,59.4999981842042
371,314,85179,2,0,L|365:373,1,59.4999981842042
105,124,85366,2,0,L|116:5,1,118.999996368408
260,160,85647,1,0,0:0:0:0:
272,170,85741,2,0,L|260:288,1,118.999996368408
105,124,86116,1,0,0:0:0:0:
354,32,86304,6,0,P|412:23|471:30,1,118.999996368408
260,288,86679,2,0,P|201:296|142:289,1,118.999996368408
142,289,86960,1,0,0:0:0:0:
142,289,87054,1,0,0:0:0:0:
233,53,87241,1,0,0:0:0:0:
452,188,87429,1,0,0:0:0:0:
462,215,87522,1,0,0:0:0:0:
466,245,87616,1,0,0:0:0:0:
465,274,87710,1,0,0:0:0:0:
457,303,87804,5,0,0:0:0:0:
457,303,88741,1,0,0:0:0:0:
366,361,88929,1,0,0:0:0:0:
270,311,89116,6,0,P|171:287|74:312,1,203.999993774414
74,312,89585,1,0,0:0:0:0:
74,312,89679,1,0,0:0:0:0:
0,177,89866,2,0,P|74:190|149:178,1,152.999995330811
254,92,90241,2,0,P|229:96|204:96,1,50.9999984436036
310,8,90429,1,0,0:0:0:0:
337,34,90522,1,0,0:0:0:0:
352,69,90616,1,0,0:0:0:0:
354,107,90710,1,0,0:0:0:0:
342,142,90804,5,0,0:0:0:0:
342,142,90991,1,0,0:0:0:0:
149,178,91554,5,0,0:0:0:0:
149,178,91741,1,0,0:0:0:0:
276,327,92304,1,0,0:0:0:0:
276,327,92491,1,0,0:0:0:0:
477,92,92866,1,0,0:0:0:0:
465,98,92960,1,0,0:0:0:0:
453,103,93054,2,0,P|441:166|456:228,1,127.5
444,372,93429,2,0,P|455:309|440:247,1,127.5
327,179,93804,5,0,0:0:0:0:
327,179,93991,1,0,0:0:0:0:
223,213,94179,2,0,P|167:216|123:212,1,85
0,148,94554,1,0,0:0:0:0:
0,148,94741,1,0,0:0:0:0:
104,114,94929,2,0,P|160:111|204:115,1,85
124,228,95304,5,0,0:0:0:0:
85,98,95491,1,0,0:0:0:0:
239,236,95679,2,0,P|233:279|240:320,1,85
303,377,95960,1,0,0:0:0:0:
323,355,96054,2,0,L|442:344,1,101.999996887207
501,220,96335,1,0,0:0:0:0:
485,240,96429,2,0,L|421:245,1,50.9999984436036
329,136,96616,2,0,L|392:141,1,50.9999984436036
271,2,96804,5,0,0:0:0:0:
313,161,96991,1,0,0:0:0:0:
154,117,97179,1,0,0:0:0:0:
329,136,97366,1,0,0:0:0:0:
129,19,97554,2,0,P|88:41|62:79,1,93.5000028533936
8,238,97929,2,0,P|48:216|74:177,1,93.5000028533936
129,19,98304,5,0,0:0:0:0:
74,177,98491,1,0,0:0:0:0:
238,145,98679,2,0,P|249:191|244:237,1,93.5000028533936
178,299,98960,1,0,0:0:0:0:
169,314,99054,2,0,P|164:338|165:364,1,50.9999984436036
381,285,99241,2,0,P|382:259|377:234,1,50.9999984436036
488,56,99429,2,0,P|463:126|487:198,1,152.999995330811
505,217,99804,5,0,0:0:0:0:
366,303,99991,1,0,0:0:0:0:
510,381,100179,1,0,0:0:0:0:
351,321,100366,1,0,0:0:0:0:
487,198,100554,5,0,0:0:0:0:
265,281,100741,1,0,0:0:0:0:
505,217,100929,1,0,0:0:0:0:
274,376,101116,1,0,0:0:0:0:
259,370,101210,1,0,0:0:0:0:
244,364,101304,6,0,P|186:354|119:369,1,101.999996887207
0,205,101679,2,0,P|58:215|125:200,1,101.999996887207
184,143,101960,1,0,0:0:0:0:
199,119,102054,2,0,P|201:94|198:69,1,50.9999984436036
73,0,102241,2,0,P|70:25|73:50,1,50.9999984436036
199,119,102429,1,0,0:0:0:0:
234,104,102522,1,0,0:0:0:0:
272,100,102616,1,0,0:0:0:0:
310,104,102710,1,0,0:0:0:0:
344,117,102804,6,0,P|372:121|399:120,1,55.2499974708558
512,2,102991,2,0,P|484:-1|457:0,1,55.2499974708558
336,136,103179,2,0,P|363:139|390:138,1,55.2499974708558
503,20,103366,2,0,P|475:16|448:17,1,55.2499974708558
303,218,103554,2,0,P|353:227|431:218,1,110.499994941712
498,325,103835,1,0,0:0:0:0:
512,345,103929,2,0,P|462:336|384:345,1,110.499994941712
287,326,104210,1,0,0:0:0:0:
271,343,104304,6,0,L|191:349,1,55.2499974708558
22,380,104491,2,0,L|101:386,1,55.2499974708558
303,218,104679,6,0,L|223:224,1,55.2499974708558
54,255,104866,2,0,L|133:261,1,55.2499974708558
0,45,105054,1,0,0:0:0:0:
34,237,105241,1,0,0:0:0:0:
183,112,105429,1,0,0:0:0:0:
209,102,105522,1,0,0:0:0:0:
237,98,105616,1,0,0:0:0:0:
264,99,105710,1,0,0:0:0:0:
290,105,105804,6,0,P|352:119|415:108,1,127.5
432,95,106179,1,0,0:0:0:0:
377,205,106366,1,0,0:0:0:0:
377,205,106460,1,0,0:0:0:0:
377,205,106554,6,0,P|363:266|374:329,1,127.5
387,346,106929,1,0,0:0:0:0:
484,384,107116,1,0,0:0:0:0:
484,384,107210,1,0,0:0:0:0:
484,384,107304,5,0,0:0:0:0:
376,205,107491,2,0,P|294:222|211:208,1,170
42,117,108054,2,0,P|84:110|126:115,1,85
211,208,108335,1,0,0:0:0:0:
211,208,108429,2,0,P|169:214|127:209,1,85
16,300,108710,1,0,0:0:0:0:
0,315,108804,6,0,P|54:304|108:312,1,110.499994941712
376,369,109179,2,0,P|321:379|267:371,1,110.499994941712
441,241,109460,1,0,0:0:0:0:
458,263,109554,2,0,L|452:326,1,55.2499974708558
316,205,109741,2,0,L|321:268,1,55.2499974708558
502,106,109929,2,0,L|496:169,1,55.2499974708558
272,48,110116,2,0,L|277:111,1,55.2499974708558
219,317,110304,6,0,L|208:197,1,110.499994941712
117,87,110585,1,0,0:0:0:0:
105,68,110679,2,0,L|115:187,1,110.499994941712
30,245,110960,1,0,0:0:0:0:
42,263,111054,2,0,P|52:293|56:331,1,55.2499974708558
202,331,111241,2,0,P|192:361|188:399,1,55.2499974708558
114,178,111429,1,0,0:0:0:0:
219,317,111616,1,0,0:0:0:0:
287,156,111804,6,0,P|356:113|435:137,1,170
369,214,112366,1,0,0:0:0:0:
386,234,112554,2,0,P|406:285|318:327,1,170
276,175,113116,1,0,0:0:0:0:
276,175,113210,1,0,0:0:0:0:
276,175,113304,5,0,0:0:0:0:
187,253,113491,2,0,B|118:259|118:259|95:277|95:277|23:283,1,170
23,283,113960,1,0,0:0:0:0:
23,283,114054,1,0,0:0:0:0:
71,176,114241,1,0,0:0:0:0:
10,85,114429,2,0,P|3:43|8:0,1,85
124,38,114804,6,0,P|184:47|306:34,1,170
396,1,115366,1,0,0:0:0:0:
396,1,115460,1,0,0:0:0:0:
396,1,115554,2,0,P|387:52|393:90,1,85
462,154,115929,2,0,P|471:205|465:243,1,85
311,288,116304,6,0,B|390:294|390:294|450:340,1,127.5
443,339,116679,1,0,0:0:0:0:
466,237,116866,1,0,0:0:0:0:
283,361,117054,1,0,0:0:0:0:
256,371,117147,1,0,0:0:0:0:
228,372,117241,1,0,0:0:0:0:
200,364,117335,1,0,0:0:0:0:
183,334,117429,1,0,0:0:0:0:
153,323,117522,1,0,0:0:0:0:
121,319,117616,1,0,0:0:0:0:
90,323,117710,1,0,0:0:0:0:
60,335,117804,6,0,P|69:281|51:229,1,110.499994941712
0,166,118366,1,0,0:0:0:0:
78,146,118554,2,0,P|40:147|10:145,1,55.2499974708558
107,65,118929,2,0,P|145:64|175:66,1,55.2499974708558
240,136,119304,5,0,0:0:0:0:
270,61,119491,2,0,L|264:124,1,55.2499974708558
255,226,119866,1,0,0:0:0:0:
355,180,120054,1,0,0:0:0:0:
156,273,120241,1,0,0:0:0:0:
162,278,120335,1,0,0:0:0:0:
167,284,120429,2,0,P|200:323|214:372,1,101.999996887207
340,291,120710,1,0,0:0:0:0:
329,314,120804,6,0,P|322:345|324:382,1,59.4999981842042
506,255,120991,2,0,P|513:286|511:323,1,59.4999981842042
339,108,121179,2,0,P|332:139|334:176,1,59.4999981842042
456,0,121366,1,0,0:0:0:0:
426,2,121459,1,0,0:0:0:0:
396,5,121554,2,0,L|300:13,1,59.4999981842042
66,37,121741,2,0,L|161:45,1,59.4999981842042
339,108,121929,2,0,L|243:116,1,59.4999981842042
9,140,122116,1,0,0:0:0:0:
26,163,122209,1,0,0:0:0:0:
31,192,122304,6,0,P|37:251|74:296,1,118.999996368408
185,356,122585,1,0,0:0:0:0:
242,303,122679,2,0,L|313:309,1,59.4999981842042
411,384,122866,2,0,L|482:377,1,59.4999981842042
496,122,123054,1,0,0:0:0:0:
463,92,123147,1,0,0:0:0:0:
420,79,123241,1,0,0:0:0:0:
377,85,123335,1,0,0:0:0:0:
339,108,123429,1,0,0:0:0:0:
300,130,123522,1,0,0:0:0:0:
257,136,123616,1,0,0:0:0:0:
214,123,123710,1,0,0:0:0:0:
181,93,123804,6,0,P|117:74|53:93,1,136
1,222,124085,1,0,0:0:0:0:
21,246,124179,2,0,P|50:258|96:259,1,68
250,370,124366,2,0,P|221:358|175:357,1,68
322,217,124554,6,0,P|351:229|397:230,1,68
271,70,124741,2,0,P|259:99|258:145,1,68
418,19,124929,2,0,P|389:7|343:6,1,68
469,166,125116,2,0,P|481:137|482:90,1,68
322,217,125304,6,0,B|271:244|271:244|175:236,1,136
20,62,125679,1,0,0:0:0:0:
22,95,125772,1,0,0:0:0:0:
25,129,125866,1,0,0:0:0:0:
193,237,126054,6,0,L|186:316,1,68
34,317,126241,2,0,L|40:396,1,68
117,87,126429,1,0,0:0:0:0:
114,53,126523,1,0,0:0:0:0:
112,20,126616,1,0,0:0:0:0:
346,138,126804,6,0,L|352:217,1,68
511,208,126991,2,0,L|504:287,1,68,2|2,0:0|0:0,0:0:0:0:
356,382,127179,1,0,0:0:0:0:
374,374,127272,1,0,0:0:0:0:
394,374,127366,1,0,0:0:0:0:
190,59,127554,6,0,L|183:138,1,68
25,129,127741,2,0,L|31:208,1,68,2|2,0:0|0:0,0:0:0:0:
142,295,127929,1,0,0:0:0:0:
162,295,128023,1,0,0:0:0:0:
180,303,128116,1,0,0:0:0:0:
346,138,128304,5,0,0:0:0:0:
511,208,128491,1,0,0:0:0:0:
278,228,128679,1,0,0:0:0:0:
244,225,128772,1,0,0:0:0:0:
210,222,128866,1,0,0:0:0:0:
508,45,129054,6,0,L|495:188,1,136
328,28,129335,1,0,0:0:0:0:
314,13,129429,2,0,L|326:156,1,136
168,112,129710,1,0,0:0:0:0:
192,96,129804,6,0,L|199:8,1,68
48,144,129991,2,0,L|40:56,1,68
180,303,130179,1,0,0:0:0:0:
150,286,130272,1,0,0:0:0:0:
117,279,130366,1,0,0:0:0:0:
83,281,130460,1,0,0:0:0:0:
51,293,130554,2,0,P|83:303|117:301,1,68
344,236,130741,2,0,P|311:225|277:227,1,68
394,322,130929,1,0,0:0:0:0:
420,301,131022,1,0,0:0:0:0:
438,272,131116,1,0,0:0:0:0:
444,239,131210,1,0,0:0:0:0:
440,206,131304,6,0,P|421:141|431:75,1,136
305,0,131585,1,0,0:0:0:0:
291,22,131679,2,0,P|299:54|299:88,1,68
48,144,131866,2,0,P|47:177|56:210,1,68
263,349,132054,2,0,P|223:296|164:262,1,136
100,310,132335,1,0,0:0:0:0:
167,309,132428,1,0,0:0:0:0:
230,285,132522,1,0,0:0:0:0:
280,239,132616,1,0,0:0:0:0:
311,179,132710,1,0,0:0:0:0:
317,111,132803,1,0,0:0:0:0:
317,111,133741,5,0,0:0:0:0:
334,124,133834,1,0,0:0:0:0:
355,134,133928,1,0,0:0:0:0:
376,141,134022,1,0,0:0:0:0:
399,143,134116,1,0,0:0:0:0:
421,141,134209,1,0,0:0:0:0:
443,134,134304,6,0,P|468:131|493:132,1,50.9999984436036
344,3,134491,2,0,P|318:4|293:0,1,50.9999984436036
458,150,134679,2,0,P|483:146|508:147,1,50.9999984436036
348,22,134866,2,0,P|297:20|249:3,1,101.999996887207
70,48,135241,1,0,0:0:0:0:
199,180,135429,1,0,0:0:0:0:
199,180,135522,1,0,0:0:0:0:
199,180,135616,1,0,0:0:0:0:
20,225,135804,6,0,L|15:174,1,50.9999984436036
138,314,135991,2,0,L|142:364,1,50.9999984436036
5,242,136179,2,0,L|0:191,1,50.9999984436036
153,297,136366,2,0,B|187:326|187:326|259:319,1,101.999996887207,0|0,2:0|2:0,2:0:0:0:
396,307,136741,1,0,0:0:0:0:
308,182,136929,1,0,0:0:0:0:
308,182,137022,1,0,0:0:0:0:
308,182,137116,1,0,0:0:0:0:
492,275,137304,6,0,P|495:301|495:326,1,50.9999984436036
404,150,137491,2,0,P|401:124|401:99,1,50.9999984436036
308,182,137679,1,0,0:0:0:0:
308,182,137772,1,0,0:0:0:0:
308,182,137866,2,0,P|316:250|309:307,1,101.999996887207
172,140,138241,2,0,P|164:89|166:38,1,101.999996887207
270,0,138522,1,0,0:0:0:0:
285,17,138616,6,0,L|396:26,1,101.999996887207
505,158,138991,2,0,L|393:148,1,101.999996887207
298,266,139272,1,0,0:0:0:0:
313,283,139366,2,0,L|424:292,1,101.999996887207
130,341,139741,2,0,L|66:336,1,50.9999984436036
153,156,139929,1,0,0:0:0:0:
131,186,140022,1,0,0:0:0:0:
99,206,140116,1,0,0:0:0:0:
61,211,140210,1,0,0:0:0:0:
25,202,140304,6,0,L|30:138,1,59.4999981842042
275,59,140491,2,0,L|269:-4,1,59.4999981842042
7,214,140679,2,0,L|12:150,1,59.4999981842042
293,71,140866,1,0,0:0:0:0:
349,60,140959,1,0,0:0:0:0:
392,98,141053,1,0,0:0:0:0:
388,155,141147,1,0,0:0:0:0:
340,187,141241,1,0,0:0:0:0:
300,231,141335,1,0,0:0:0:0:
281,287,141429,2,0,P|278:313|282:363,1,59.4999981842042
476,273,141616,2,0,P|478:243|475:214,1,59.4999981842042
263,300,141804,6,0,P|260:326|264:376,1,59.4999981842042
501,62,141991,2,0,P|504:88|500:138,1,59.4999981842042
245,313,142179,2,0,P|242:339|246:389,1,59.4999981842042
482,48,142366,1,0,0:0:0:0:
440,9,142459,1,0,0:0:0:0:
381,6,142553,1,0,0:0:0:0:
335,41,142647,1,0,0:0:0:0:
289,76,142741,1,0,0:0:0:0:
230,73,142835,1,0,0:0:0:0:
188,34,142929,2,0,L|194:105,1,59.4999981842042
26,159,143116,2,0,L|32:230,1,59.4999981842042
340,281,143304,6,0,L|268:287,1,59.4999981842042
19,370,143491,2,0,L|90:363,1,59.4999981842042
362,262,143679,2,0,L|290:268,1,59.4999981842042
41,351,143866,2,0,L|161:340,1,118.999996368408
388,175,144147,1,0,0:0:0:0:
407,162,144241,2,0,L|286:172,1,118.999996368408
166,25,144616,1,0,0:0:0:0:
479,90,144804,6,0,P|505:142|499:200,1,118.999996368408
216,244,145179,2,0,P|189:191|195:133,1,118.999996368408
211,103,145460,1,0,0:0:0:0:
176,111,145553,1,0,0:0:0:0:
141,107,145647,1,0,0:0:0:0:
109,90,145741,1,0,0:0:0:0:
86,63,145835,1,0,0:0:0:0:
73,30,145929,2,0,P|64:63|41:100,1,59.4999981842042
0,205,146116,2,0,P|9:237|32:274,1,59.4999981842042
232,336,146304,6,0,L|112:346,1,118.999996368408
106,337,146585,1,0,0:0:0:0:
98,327,146679,1,0,0:0:0:0:
265,202,146866,2,0,B|369:193|369:193|421:149,1,152.999995330811
423,148,147241,1,0,0:0:0:0:
396,346,147429,1,0,0:0:0:0:
265,202,147616,6,0,B|289:160|289:160|280:56,1,152.999995330811
277,30,147991,1,0,0:0:0:0:
423,148,148179,1,0,0:0:0:0:
186,85,148366,2,0,P|111:69|36:84,1,152.999995330811
3,212,148741,2,0,P|3:186|0:161,1,50.9999984436036
115,233,148929,1,0,0:0:0:0:
103,269,149022,1,0,0:0:0:0:
100,307,149116,1,0,0:0:0:0:
104,345,149210,1,0,0:0:0:0:
114,382,149304,6,0,P|156:372|198:375,1,85
352,278,149679,2,0,P|310:287|268:284,1,85
423,148,150054,2,0,L|432:251,1,85
292,158,150429,1,0,0:0:0:0:
423,148,150616,1,0,0:0:0:0:
259,67,150804,5,0,0:0:0:0:
440,126,150991,1,0,0:0:0:0:
197,141,151179,2,0,P|154:144|112:142,1,85
92,164,151460,2,0,P|106:215|85:289,1,127.5
9,358,151929,1,0,0:0:0:0:
157,377,152116,1,0,0:0:0:0:
157,377,152210,1,0,0:0:0:0:
157,377,152304,6,0,L|252:385,1,85,0|0,2:0|2:0,2:0:0:0:
408,330,152679,2,0,L|312:321,1,85,0|0,2:0|2:0,2:0:0:0:
241,210,153054,1,0,0:0:0:0:
305,335,153241,1,0,0:0:0:0:
381,218,153429,2,0,P|388:176|383:132,1,85
165,57,153804,6,0,L|252:49,1,85
383,133,154179,2,0,L|295:140,1,85
313,113,154460,2,0,L|440:101,1,127.5
500,11,154929,1,0,0:0:0:0:
383,133,155116,1,0,2:0:0:0:
375,143,155210,1,0,2:0:0:0:
367,153,155304,6,0,P|360:196|369:249,1,85
468,384,155679,2,0,P|475:341|466:288,1,85
311,374,156054,1,0,0:0:0:0:
468,384,156241,1,0,0:0:0:0:
330,279,156429,1,0,0:0:0:0:
485,362,156616,1,0,0:0:0:0:
238,310,156804,6,0,P|197:305|154:308,1,85
40,384,157179,2,0,P|45:342|42:299,1,85
26,283,157460,2,0,P|20:222|30:152,1,127.5
158,147,157929,1,0,0:0:0:0:
0,64,158116,1,0,0:0:0:0:
0,64,158210,1,0,0:0:0:0:
0,64,158304,5,0,0:0:0:0:
109,230,158491,1,0,0:0:0:0:
199,53,158679,2,0,P|244:44|335:52,1,127.5
415,9,159054,1,0,0:0:0:0:
356,199,159241,1,0,0:0:0:0:
324,49,159429,1,0,0:0:0:0:
475,235,159616,1,0,0:0:0:0:
475,235,159710,1,0,0:0:0:0:
475,235,159804,6,0,P|483:296|477:344,1,101.999996887207
243,145,160179,2,0,P|235:206|241:254,1,101.999996887207
374,362,160554,1,0,0:0:0:0:
343,339,160647,1,0,0:0:0:0:
306,330,160741,1,0,0:0:0:0:
268,337,160835,1,0,0:0:0:0:
237,357,160929,1,0,0:0:0:0:
206,377,161023,1,0,0:0:0:0:
168,384,161117,1,0,0:0:0:0:
131,375,161211,1,0,0:0:0:0:
101,353,161304,5,0,0:0:0:0:
19,179,161491,1,0,0:0:0:0:
24,303,161679,5,0,0:0:0:0:
106,129,161866,1,0,0:0:0:0:
215,287,162054,5,0,0:0:0:0:
3,162,162241,1,0,0:0:0:0:
257,168,162429,5,0,0:0:0:0:
45,293,162616,1,0,0:0:0:0:
207,80,162804,2,0,P|251:66|297:76,1,93.5000028533936
393,226,163179,2,0,L|384:130,1,93.5000028533936
403,59,163460,2,0,L|416:210,1,140.25000428009
512,336,163929,2,0,L|507:383,1,46.7500014266968
414,304,164116,2,0,L|418:351,1,46.7500014266968
299,268,164304,6,0,P|247:257|195:269,1,93.5000028533936
139,380,164679,1,0,0:0:0:0:
184,250,164866,1,0,0:0:0:0:
274,353,165054,5,0,0:0:0:0:
49,277,165241,1,0,0:0:0:0:
139,380,165429,1,0,0:0:0:0:
94,147,165616,1,0,0:0:0:0:
91,135,165709,1,0,0:0:0:0:
89,124,165804,6,0,L|68:14,1,93.5000028533936
220,84,166179,2,0,L|241:194,1,93.5000028533936
279,238,166460,2,0,L|252:100,1,140.25000428009
252,100,166835,1,0,0:0:0:0:
252,100,166929,1,0,0:0:0:0:
346,17,167116,1,0,0:0:0:0:
491,201,167304,6,0,P|444:194|398:201,1,93.5000028533936
274,353,167679,2,0,P|320:359|366:352,1,93.5000028533936
258,327,167960,2,0,P|198:318|105:336,1,140.25000428009
9,375,168429,1,0,0:0:0:0:
152,224,168616,1,0,0:0:0:0:
160,215,168709,1,0,0:0:0:0:
167,207,168804,6,0,P|175:160|168:114,1,93.5000028533936
18,0,169179,2,0,P|10:46|17:92,1,93.5000028533936
57,162,169460,1,0,0:0:0:0:
38,184,169554,2,0,P|45:230|37:277,1,93.5000028533936
168,114,169929,1,0,0:0:0:0:
244,307,170116,1,0,0:0:0:0:
244,307,170210,1,0,0:0:0:0:
243,306,170304,5,0,0:0:0:0:
282,330,170397,1,0,0:0:0:0:
327,320,170491,1,0,0:0:0:0:
351,282,170585,1,0,0:0:0:0:
342,237,170679,1,0,0:0:0:0:
333,192,170773,1,0,0:0:0:0:
357,154,170867,1,0,0:0:0:0:
402,144,170961,1,0,0:0:0:0:
441,168,171054,6,0,L|445:223,1,46.7500014266968
242,172,171241,2,0,L|237:227,1,46.7500014266968
467,150,171429,6,0,L|471:205,1,46.7500014266968
216,154,171616,2,0,L|211:209,1,46.7500014266968
19,47,171804,5,0,0:0:0:0:
61,21,171897,1,0,0:0:0:0:
110,30,171991,1,0,0:0:0:0:
141,69,172085,1,0,0:0:0:0:
138,119,172179,1,0,0:0:0:0:
102,154,172272,1,0,0:0:0:0:
52,156,172366,2,0,P|27:158|1:161,1,50.9999984436036
113,250,172554,5,0,0:0:0:0:
59,253,172647,1,0,0:0:0:0:
29,297,172741,1,0,0:0:0:0:
43,348,172835,1,0,0:0:0:0:
93,368,172929,1,0,0:0:0:0:
140,343,173022,1,0,0:0:0:0:
192,327,173115,1,0,0:0:0:0:
247,331,173209,1,0,0:0:0:0:
297,353,173304,6,0,P|289:298|300:253,1,97.7500018644333
429,80,173679,2,0,P|437:135|426:180,1,97.7500018644333
281,243,174054,1,0,0:0:0:0:
445,190,174241,1,0,0:0:0:0:
297,353,174429,1,0,0:0:0:0:
253,61,174616,6,0,P|158:40|63:63,1,195.500003728867
32,229,175179,2,0,P|36:181|26:133,1,97.7500018644333
26,133,175460,1,0,0:0:0:0:
26,133,175554,1,0,0:0:0:0:
140,250,175741,1,0,0:0:0:0:
297,209,175929,2,0,P|347:202|417:211,1,97.7500018644333
143,346,176304,6,0,P|136:297|139:249,1,97.7500018644333
183,94,176679,1,0,0:0:0:0:
297,209,176866,1,0,0:0:0:0:
139,249,177054,5,0,0:0:0:0:
411,324,177241,1,0,0:0:0:0:
297,209,177429,2,0,P|290:160|293:112,1,97.7500018644333
363,18,177710,1,0,0:0:0:0:
377,31,177804,6,0,P|383:79|380:127,1,97.7500018644333
183,94,178179,1,0,0:0:0:0:
512,0,178366,1,0,0:0:0:0:
297,209,178554,1,0,0:0:0:0:
297,209,178741,1,0,0:0:0:0:
161,6,178929,2,0,P|112:1|55:11,1,97.7500018644333
52,17,179210,1,0,0:0:0:0:
40,26,179304,5,0,0:0:0:0:
202,101,179491,1,0,0:0:0:0:
15,108,179679,5,0,0:0:0:0:
263,17,179866,1,0,0:0:0:0:
217,277,180054,1,0,0:0:0:0:
161,6,180241,1,0,0:0:0:0:
305,111,180429,1,0,0:0:0:0:
22,197,180616,6,0,P|0:291|26:384,1,195.500003728867
217,277,181179,1,0,0:0:0:0:
55,384,181366,1,0,0:0:0:0:
345,306,181554,2,0,P|396:296|449:302,1,106.25
512,181,181835,2,0,P|446:193|381:185,1,123.250003761292
269,124,182116,1,0,0:0:0:0:
497,7,182304,6,0,P|329:35|162:12,1,340
0,189,182866,1,0,0:0:0:0:
162,365,183054,2,0,P|329:342|497:371,1,340
0,189,183616,1,0,0:0:0:0:
0,189,183710,1,0,0:0:0:0:
0,189,183804,6,0,B|92:213|172:189|172:189|244:165|340:189,1,340
497,371,184366,1,0,0:0:0:0:
497,371,184460,1,0,0:0:0:0:
497,371,184554,1,0,0:0:0:0:
511,82,184741,1,0,0:0:0:0:
253,214,184929,2,0,P|240:297|254:381,1,170
331,149,185304,6,0,P|290:120|239:114,1,101.999996887207
67,212,185679,2,0,P|87:166|128:135,1,101.999996887207
118,280,186054,2,0,P|98:304|66:328,1,50.9999984436036
0,350,186241,1,0,0:0:0:0:
128,135,186429,1,0,0:0:0:0:
250,353,186616,1,0,2:0:0:0:
250,353,186710,1,0,2:0:0:0:
250,353,186804,5,0,2:0:0:0:
250,353,187554,1,0,0:0:0:0:
285,365,187647,1,0,0:0:0:0:
323,370,187741,1,0,0:0:0:0:
361,366,187835,1,0,0:0:0:0:
397,353,187929,2,0,P|447:343|496:353,1,101.999996887207
461,101,188304,6,0,L|450:221,1,110.499994941712
368,96,188679,1,0,0:0:0:0:
370,68,188772,1,0,0:0:0:0:
224,160,188960,1,0,0:0:0:0:
222,188,189053,1,0,0:0:0:0:
71,79,189241,1,0,0:0:0:0:
51,293,189429,1,0,0:0:0:0:
53,265,189522,1,0,0:0:0:0:
376,356,189804,6,0,P|312:351|248:356,1,127.5
284,192,190272,1,0,0:0:0:0:
307,202,190366,2,0,P|349:204|391:201,1,85
228,49,190741,2,0,P|202:59|180:76,1,55.2499974708558
134,233,190929,2,0,P|137:205|134:178,1,55.2499974708558
21,59,191116,2,0,P|42:75|68:86,1,55.2499974708558
21,201,191304,5,0,0:0:0:0:
33,225,191397,1,0,0:0:0:0:
39,252,191491,1,0,0:0:0:0:
38,279,191585,1,0,0:0:0:0:
30,306,191679,2,0,P|26:337|32:374,1,42.5
155,251,191866,2,0,P|159:282|153:319,1,42.5
240,368,192054,5,0,0:0:0:0:
238,340,192147,1,0,0:0:0:0:
336,168,192335,1,0,0:0:0:0:
338,196,192428,1,0,0:0:0:0:
448,363,192616,1,0,0:0:0:0:
444,349,192678,1,0,0:0:0:0:
443,335,192741,1,0,0:0:0:0:
443,320,192803,5,0,0:0:0:0:
463,251,192897,2,0,P|465:195|455:141,1,110.499994941712
338,196,193179,2,0,P|387:170|429:135,1,110.499994941712
323,60,193460,2,0,P|369:89|421:108,1,110.499994941712
252,102,193741,2,0,P|228:87|203:75,1,55.2499974708558
187,185,193929,2,0,P|162:198|140:213,1,55.2499974708558
226,282,194116,2,0,P|225:309|227:337,1,55.2499974708558
329,296,194304,5,0,0:0:0:0:
119,107,194491,1,0,0:0:0:0:
98,102,194584,1,0,0:0:0:0:
75,100,194679,2,0,P|53:99|33:95,1,42.5
0,0,194866,1,0,0:0:0:0:
79,189,195054,5,0,0:0:0:0:
81,217,195147,1,0,0:0:0:0:
24,376,195335,1,0,0:0:0:0:
22,348,195428,1,0,0:0:0:0:
179,273,195616,1,0,0:0:0:0:
200,268,195709,1,0,0:0:0:0:
221,268,195803,5,0,0:0:0:0:
364,373,195991,2,0,P|353:333|357:291,1,85
413,239,196272,1,0,0:0:0:0:
430,219,196366,2,0,P|431:197|429:176,1,42.5
336,102,196554,2,0,L|296:99,3,27.6249987354279
224,48,196741,2,0,L|263:44,3,27.6249987354279
176,128,196929,2,0,L|112:122,1,55.2499974708558
0,224,197116,2,0,L|63:218,1,55.2499974708558
120,299,197304,5,0,0:0:0:0:
127,308,197366,1,0,0:0:0:0:
134,316,197429,1,0,0:0:0:0:
143,322,197491,1,0,0:0:0:0:
152,327,197554,1,0,0:0:0:0:
162,330,197616,1,0,0:0:0:0:
173,331,197679,1,0,0:0:0:0:
184,331,197741,1,0,0:0:0:0:
194,329,197804,1,0,0:0:0:0:
204,325,197866,1,0,0:0:0:0:
213,320,197929,1,0,0:0:0:0:
221,313,197991,1,0,0:0:0:0:
228,305,198054,5,0,0:0:0:0:
235,313,198117,1,0,0:0:0:0:
243,320,198179,1,0,0:0:0:0:
252,325,198242,1,0,0:0:0:0:
262,329,198304,1,0,0:0:0:0:
272,331,198367,1,0,0:0:0:0:
283,331,198429,1,0,0:0:0:0:
294,330,198492,1,0,0:0:0:0:
304,327,198554,1,0,0:0:0:0:
313,322,198617,1,0,0:0:0:0:
322,316,198679,1,0,0:0:0:0:
329,308,198742,1,0,0:0:0:0:
336,300,198804,6,0,L|354:173,1,118.999996368408
372,114,199085,2,0,L|386:219,1,59.4999981842042
477,244,199272,1,0,0:0:0:0:
492,223,199366,2,0,L|474:96,1,118.999996368408
472,95,199616,5,0,0:0:0:0:
471,85,199679,1,0,0:0:0:0:
470,75,199741,1,0,0:0:0:0:
468,65,199804,1,0,0:0:0:0:
467,55,199866,1,0,0:0:0:0:
466,46,199929,2,0,P|431:44|374:48,1,59.4999981842042
159,133,200116,2,0,P|194:131|251:135,1,59.4999981842042
336,300,200304,5,0,0:0:0:0:
340,308,200679,1,0,0:0:0:0:
345,317,201054,1,0,0:0:0:0:
350,325,201429,1,0,0:0:0:0:
355,334,201804,5,0,0:0:0:0:
360,343,202179,1,0,0:0:0:0:
365,351,202554,1,0,0:0:0:0:
215,375,202741,2,0,P|186:376|156:375,1,59.4999981842042
46,317,202929,1,0,0:0:0:0:
38,294,203022,1,0,0:0:0:0:
91,241,203116,1,0,0:0:0:0:
99,218,203209,1,0,0:0:0:0:
46,165,203304,5,0,0:0:0:0:
41,156,203679,1,0,0:0:0:0:
36,148,204054,1,0,0:0:0:0:
31,139,204429,1,0,0:0:0:0:
27,131,204804,5,0,0:0:0:0:
72,64,204897,2,0,L|207:52,1,118.999996368408
184,160,205179,2,0,L|319:148,1,118.999996368408
296,256,205460,2,0,L|431:244,1,118.999996368408
87,79,205741,2,0,L|194:69,1,59.4999981842042
199,175,205929,2,0,L|306:165,1,59.4999981842042
311,271,206116,2,0,L|418:261,1,59.4999981842042
423,367,206304,5,0,0:0:0:0:
427,358,206679,1,0,0:0:0:0:
432,349,207054,1,0,0:0:0:0:
437,341,207429,1,0,0:0:0:0:
442,332,207804,5,0,0:0:0:0:
447,323,208179,1,0,0:0:0:0:
452,315,208554,1,0,0:0:0:0:
496,198,208741,2,0,P|499:168|493:132,1,59.4999981842042
429,57,208929,1,0,0:0:0:0:
399,60,209022,1,0,0:0:0:0:
370,57,209116,1,0,0:0:0:0:
232,15,209304,5,0,0:0:0:0:
224,19,209679,1,0,0:0:0:0:
215,25,210054,1,0,0:0:0:0:
206,30,210429,1,0,0:0:0:0:
198,35,210804,6,0,P|205:79|204:124,1,90.6666666666667
192,236,211054,2,0,P|184:191|185:146,1,90.6666666666667
291,94,211304,2,0,P|298:138|297:183,1,90.6666666666667
284,294,211554,2,0,P|276:249|277:204,1,90.6666666666667
383,152,211804,2,0,P|390:196|389:241,1,90.6666666666667
376,352,212054,2,0,P|368:307|369:262,1,90.6666666666667
512,381,212679,6,0,P|428:365|344:384,1,172.125000656605
261,333,213054,2,0,P|233:343|206:349,1,57.3750002188683
116,380,213241,2,0,P|88:370|61:364,1,57.3750002188683
17,219,213429,2,0,L|10:293,1,57.3750002188683
157,177,213616,2,0,L|163:251,1,57.3750002188683
39,112,213804,5,0,0:0:0:0:
62,81,213897,1,0,0:0:0:0:
92,58,213991,1,0,0:0:0:0:
127,44,214085,1,0,0:0:0:0:
165,41,214179,1,0,0:0:0:0:
203,48,214272,1,0,0:0:0:0:
237,66,214366,2,0,P|319:88|399:60,1,172.125000656605
420,45,214741,1,0,0:0:0:0:
512,168,214929,2,0,L|505:239,1,57.3750002188683
368,316,215116,1,0,0:0:0:0:
365,344,215209,1,0,0:0:0:0:
362,373,215304,6,0,P|313:377|281:374,1,57.3750002188683
168,224,215491,2,0,P|216:219|248:222,1,57.3750002188683
343,363,215679,2,0,P|294:367|262:364,1,57.3750002188683
148,214,215866,2,0,P|230:205|311:220,1,165.749992412568
331,234,216241,1,0,0:0:0:0:
176,328,216429,1,0,0:0:0:0:
120,100,216616,1,0,0:0:0:0:
16,296,216804,6,0,L|21:359,1,55.2499974708558
148,214,216991,1,0,0:0:0:0:
8,68,217179,1,0,0:0:0:0:
34,278,217366,1,0,0:0:0:0:
121,3,217554,2,0,P|176:10|231:6,1,110.499994941712
337,30,217835,2,0,P|282:23|227:27,1,110.499994941712
208,47,218116,1,0,0:0:0:0:
462,230,218304,6,0,P|468:175|464:120,1,110.499994941712
349,300,218679,1,0,0:0:0:0:
457,97,218866,2,0,P|454:127|458:158,1,55.2499974708558
261,180,219054,1,0,0:0:0:0:
300,193,219147,1,0,0:0:0:0:
331,221,219241,1,0,0:0:0:0:
348,258,219335,1,0,0:0:0:0:
349,300,219429,2,0,L|343:363,1,55.2499974708558,0|0,0:3|0:3,0:3:0:0:
207,353,219616,1,0,0:0:0:0:
186,360,219710,1,0,0:0:0:0:
165,367,219804,6,0,L|169:311,1,55.2499974708558,0|0,0:3|0:3,0:3:0:0:
64,120,219991,1,0,0:0:0:0:
60,161,220084,1,0,0:0:0:0:
56,202,220178,1,0,0:0:0:0:
53,243,220272,1,0,0:0:0:0:
48,284,220366,2,0,L|44:340,1,55.2499974708558,0|0,0:3|0:3,0:3:0:0:
261,180,220554,6,0,L|256:235,1,55.2499974708558,0|0,0:3|0:3,0:3:0:0:
141,96,220741,2,0,L|145:151,1,55.2499974708558,0|0,0:3|0:3,0:3:0:0:
273,34,220929,1,0,0:0:0:0:
393,118,221116,2,0,L|388:173,1,55.2499974708558,0|0,0:3|0:3,0:3:0:0:
494,383,221304,5,0,0:0:0:0:
491,355,221397,1,0,0:0:0:0:
488,327,221491,2,0,L|477:212,1,114.750000437737
356,359,221866,2,0,L|361:304,1,55.2499974708558,0|0,0:3|0:3,0:3:0:0:
163,312,222054,1,0,0:0:0:0:
161,356,222147,1,0,0:0:0:0:
196,383,222241,1,0,0:0:0:0:
238,371,222335,1,0,0:0:0:0:
253,329,222429,1,0,0:0:0:0:
228,293,222522,1,0,0:0:0:0:
204,254,222615,1,0,0:0:0:0:
203,209,222709,1,0,0:0:0:0:
224,169,222804,6,0,P|264:144|366:183,1,140.250001337528
493,148,223085,1,0,0:0:0:0:
493,148,223179,6,0,P|453:173|351:134,1,140.250001337528
219,24,223554,1,0,0:0:0:0:
168,0,223647,1,0,0:0:0:0:
114,9,223741,1,0,0:0:0:0:
73,47,223835,1,0,0:0:0:0:
61,101,223929,1,0,0:0:0:0:
80,153,224022,1,0,0:0:0:0:
97,206,224115,1,0,0:0:0:0:
94,261,224209,1,0,0:0:0:0:
71,312,224304,6,0,P|63:237|137:143,1,178.499994552612
218,125,224679,1,0,0:0:0:0:
246,158,224772,1,0,0:0:0:0:
286,178,224866,1,0,0:0:0:0:
330,181,224960,1,0,0:0:0:0:
371,165,225054,6,0,L|364:236,2,59.4999981842042
311,73,225335,2,0,L|316:13,2,59.4999981842042
486,133,225616,2,0,L|479:204,1,59.4999981842042
504,350,225804,5,0,0:0:0:0:
469,329,225897,1,0,0:0:0:0:
428,324,225991,1,0,0:0:0:0:
389,337,226085,1,0,0:0:0:0:
359,365,226179,5,0,0:0:0:0:
339,343,226272,1,0,0:0:0:0:
313,329,226366,1,0,0:0:0:0:
284,323,226460,1,0,0:0:0:0:
253,327,226554,5,0,0:0:0:0:
260,304,226647,1,0,0:0:0:0:
259,280,226741,1,0,0:0:0:0:
250,258,226835,1,0,0:0:0:0:
235,240,226929,2,0,P|218:215|209:187,1,59.4999981842042
97,109,227116,2,0,P|113:133|122:161,1,59.4999981842042
120,365,227304,6,0,P|90:282|14:239,1,178.499994552612
17,287,227679,5,0,0:0:0:0:
58,271,227772,1,0,0:0:0:0:
92,243,227866,1,0,0:0:0:0:
114,204,227960,1,0,0:0:0:0:
122,161,228054,2,0,P|113:133|97:109,2,59.4999981842042
0,90,228335,2,0,P|16:65|25:37,2,59.4999981842042
125,16,228616,2,0,P|149:32|177:41,1,59.4999981842042
248,134,228804,6,0,P|299:93|417:110,1,178.499994552612
424,122,229179,1,0,0:0:0:0:
327,246,229366,2,0,P|320:184|378:231,1,178.499994552612
369,249,229741,1,0,0:0:0:0:
491,361,229929,2,0,P|462:357|432:359,1,59.4999981842042
321,384,230116,2,0,P|291:385|261:381,1,59.4999981842042
190,230,230304,6,0,L|196:309,2,79.3333309122722
123,163,230679,2,0,L|51:129,2,79.3333309122722
214,138,231054,2,0,L|278:92,2,79.3333309122722
99,255,231429,2,0,L|-5:328,1,118.999996368408
117,363,231710,1,0,0:0:0:0:
141,362,231804,6,0,L|189:327,1,59.4999981842042
344,379,231991,2,0,L|295:344,1,59.4999981842042
256,240,232179,1,0,0:0:0:0:
280,203,232272,1,0,0:0:0:0:
317,178,232366,1,0,0:0:0:0:
361,170,232460,1,0,0:0:0:0:
404,179,232554,2,0,P|441:185|484:184,1,59.4999981842042
363,285,232741,1,0,0:0:0:0:
270,67,232929,2,0,P|329:54|388:59,1,118.999996368408
126,0,233304,5,0,0:0:0:0:
127,41,233397,1,0,0:0:0:0:
106,76,233491,1,0,0:0:0:0:
70,95,233585,1,0,0:0:0:0:
35,117,233678,1,0,0:0:0:0:
21,156,233772,1,0,0:0:0:0:
33,195,233866,1,0,0:0:0:0:
66,218,233960,1,0,0:0:0:0:
107,216,234054,5,0,0:0:0:0:
154,212,234147,1,0,0:0:0:0:
196,233,234241,1,0,0:0:0:0:
221,273,234335,1,0,0:0:0:0:
221,320,234429,1,0,0:0:0:0:
197,360,234522,1,0,0:0:0:0:
155,381,234616,1,0,0:0:0:0:
108,377,234710,1,0,0:0:0:0:
70,350,234804,6,0,P|173:339|292:353,1,216.750004134178
482,328,235179,2,0,P|435:320|386:305,1,72.2500013780594
299,196,235366,2,0,P|346:204|395:219,1,72.2500013780594
510,148,235554,2,0,P|431:137|360:106,1,144.500002756119
411,313,235929,1,0,0:0:0:0:
263,92,236116,1,0,0:0:0:0:
69,350,236304,6,0,P|86:256|68:163,1,191.250007295609
78,86,236679,2,0,P|92:167|123:221,1,127.500004863739
287,264,237054,2,0,L|207:257,1,63.7500024318696,0|0,0:3|0:3,0:3:0:0:
69,350,237241,1,0,0:0:0:0:
342,348,237429,1,0,0:0:0:0:
375,313,237523,1,0,0:0:0:0:
388,267,237617,1,0,0:0:0:0:
378,221,237711,1,0,0:0:0:0:
348,184,237804,6,0,L|188:170,1,127.500004863739,0|0,0:3|0:3,0:3:0:0:
287,264,238179,1,0,0:0:0:0:
409,104,238366,1,0,0:0:0:0:
210,79,238554,1,0,0:0:0:0:
348,184,238741,1,0,0:0:0:0:
188,251,238929,2,0,P|160:249|111:235,1,63.7500024318696
16,126,239116,2,0,P|44:128|93:142,1,63.7500024318696
33,369,239304,6,0,P|17:294|37:230,1,127.500004863739
203,263,239679,1,0,0:0:0:0:
49,382,239866,1,0,0:0:0:0:
260,364,240054,2,0,L|388:353,1,127.500004863739
512,220,240429,2,0,L|432:226,1,63.7500024318696
348,184,240616,1,0,0:0:0:0:
506,30,240804,6,0,P|473:33|424:29,1,63.7500024318696
262,7,240991,2,0,P|295:4|344:8,1,63.7500024318696
226,101,241179,1,0,0:0:0:0:
198,85,241272,1,0,0:0:0:0:
177,61,241366,1,0,0:0:0:0:
165,32,241460,1,0,0:0:0:0:
163,0,241554,5,0,0:0:0:0:
145,43,241647,1,0,0:0:0:0:
111,77,241741,1,0,0:0:0:0:
66,94,241835,1,0,0:0:0:0:
19,92,241929,5,0,0:0:0:0:
66,134,242022,1,0,0:0:0:0:
85,194,242116,1,0,0:0:0:0:
72,256,242210,1,0,0:0:0:0:
31,303,242304,6,0,P|95:269|217:322,1,191.250007295609
248,372,242679,1,0,0:0:0:0:
291,136,242866,1,0,0:0:0:0:
291,136,242960,1,0,0:0:0:0:
291,136,243054,2,0,P|352:152|415:146,1,127.500004863739
512,182,243335,2,0,P|450:165|387:171,1,127.500004863739
360,188,243616,1,0,0:0:0:0:
491,367,243804,5,0,0:0:0:0:
443,130,243991,1,0,0:0:0:0:
340,294,244179,5,0,0:0:0:0:
388,57,244366,1,0,0:0:0:0:
388,57,244460,1,0,0:0:0:0:
388,57,244554,5,0,0:0:0:0:
481,344,244741,1,0,0:0:0:0:
478,45,244929,5,0,0:0:0:0:
221,198,245116,1,0,0:0:0:0:
197,207,245210,1,0,0:0:0:0:
171,211,245304,6,0,L|99:204,1,72.2500013780594
18,339,245491,1,0,0:0:0:0:
54,342,245584,1,0,0:0:0:0:
90,346,245678,1,0,0:0:0:0:
126,349,245772,1,0,0:0:0:0:
162,352,245866,2,0,L|233:358,1,72.2500013780594
481,344,246054,5,0,0:0:0:0:
446,335,246147,1,0,0:0:0:0:
417,313,246241,1,0,0:0:0:0:
398,283,246335,1,0,0:0:0:0:
392,246,246429,6,0,L|399:175,1,72.2500013780594
309,7,246616,2,0,P|310:37|292:113,1,72.2500013780594
165,139,246804,6,0,P|164:175|170:210,1,72.2500013780594
399,174,246991,1,0,0:0:0:0:
188,36,247179,1,0,0:0:0:0:
157,16,247272,1,0,0:0:0:0:
122,6,247366,1,0,0:0:0:0:
86,7,247460,1,0,0:0:0:0:
51,16,247554,2,0,P|65:124|43:229,1,216.750004134178
78,367,247929,2,0,P|64:259|86:154,1,216.750004134178
369,371,248304,6,0,B|254:341|290:394|165:364,1,197.625001507759
432,128,248679,2,0,B|416:168|432:208|432:208|424:216|424:216|432:224|432:224|440:232|440:232|432:240|432:240|440:272|432:312,1,197.625001507759
330,162,249054,2,0,P|336:112|372:36,1,131.750001005173
432,309,249429,1,0,0:0:0:0:
432,128,249616,1,0,0:0:0:0:
280,267,249804,6,0,B|264:265|251:260|236:245|236:245|213:263|187:269|159:266,1,131.750001005173
0,102,250179,1,0,0:0:0:0:
18,355,250366,1,0,0:0:0:0:
18,355,250460,1,0,0:0:0:0:
18,355,250554,2,0,P|15:274|42:207,1,131.750001005173
95,181,250835,1,0,0:0:0:0:
118,164,250929,2,0,P|136:100|130:35,1,131.750001005173
281,11,251304,5,0,0:0:0:0:
252,45,251397,1,0,0:0:0:0:
250,90,251491,1,0,0:0:0:0:
277,127,251585,1,0,0:0:0:0:
321,138,251679,1,0,0:0:0:0:
362,120,251772,1,0,0:0:0:0:
398,104,251865,1,0,0:0:0:0:
437,104,251959,1,0,0:0:0:0:
472,122,252053,5,0,0:0:0:0:
496,153,252147,1,0,0:0:0:0:
503,191,252240,1,0,0:0:0:0:
493,229,252334,1,0,0:0:0:0:
467,258,252428,1,0,0:0:0:0:
431,274,252522,1,0,0:0:0:0:
392,271,252616,2,0,P|348:269|289:275,1,65.8750005025864
109,368,252804,6,0,P|207:377|305:366,1,197.625001507759
159,266,253179,2,0,P|114:263|55:269,1,65.8750005025864
0,149,253366,2,0,P|44:151|103:145,1,65.8750005025864
108,25,253554,1,0,0:0:0:0:
138,50,253647,1,0,0:0:0:0:
174,65,253741,1,0,0:0:0:0:
213,70,253835,1,0,0:0:0:0:
252,64,253929,2,0,L|338:48,1,65.8750005025864
472,122,254116,2,0,L|386:106,1,65.8750005025864
159,266,254304,5,0,0:0:0:0:
171,222,254397,1,0,0:0:0:0:
207,194,254491,1,0,0:0:0:0:
252,194,254585,1,0,0:0:0:0:
289,221,254679,1,0,0:0:0:0:
302,265,254772,1,0,0:0:0:0:
318,307,254865,1,0,0:0:0:0:
355,333,254959,1,0,0:0:0:0:
401,333,255053,5,0,0:0:0:0:
438,307,255147,1,0,0:0:0:0:
455,265,255240,1,0,0:0:0:0:
445,221,255334,1,0,0:0:0:0:
411,190,255429,1,0,0:0:0:0:
380,157,255522,1,0,0:0:0:0:
364,114,255616,1,0,0:0:0:0:
367,68,255710,1,0,0:0:0:0:
388,27,255804,5,0,0:0:0:0:
442,62,255897,1,0,0:0:0:0:
463,124,255991,1,0,0:0:0:0:
443,185,256085,1,0,0:0:0:0:
389,221,256179,1,0,0:0:0:0:
324,216,256272,1,0,0:0:0:0:
276,173,256366,1,0,0:0:0:0:
265,109,256460,1,0,0:0:0:0:
253,46,256553,1,0,0:0:0:0:
199,10,256647,1,0,0:0:0:0:
137,24,256741,1,0,0:0:0:0:
102,78,256835,1,0,0:0:0:0:
117,140,256929,2,0,P|126:186|123:252,1,74.3750007092953
25,384,257116,2,0,P|16:338|19:272,1,74.3750007092953
348,162,257304,5,0,0:0:0:0:
389,221,257397,1,0,0:0:0:0:
388,295,257491,1,0,0:0:0:0:
343,352,257585,1,0,0:0:0:0:
273,373,257679,2,0,L|185:365,1,74.3750007092953
273,258,257866,5,0,0:0:0:0:
232,199,257959,1,0,0:0:0:0:
233,125,258053,1,0,0:0:0:0:
278,68,258147,1,0,0:0:0:0:
348,47,258241,2,0,L|435:54,1,74.3750007092953
476,280,258429,5,0,0:0:0:0:
436,217,258522,1,0,0:0:0:0:
374,178,258616,1,0,0:0:0:0:
300,171,258710,1,0,0:0:0:0:
232,199,258804,2,0,P|198:213|131:226,1,74.3750007092953
29,17,258991,5,0,0:0:0:0:
73,75,259084,1,0,0:0:0:0:
138,108,259178,1,0,0:0:0:0:
212,109,259272,1,0,0:0:0:0:
279,76,259366,2,0,P|311:59|377:40,1,74.3750007092953
484,309,259554,1,0,0:0:0:0:
436,364,259647,1,0,0:0:0:0:
365,382,259741,1,0,0:0:0:0:
296,356,259835,1,0,0:0:0:0:
255,296,259929,2,0,P|293:308|327:344,1,74.3750007092953
65,374,260116,2,0,P|27:362|-7:326,1,74.3750007092953
18,87,260304,5,0,0:0:0:0:
62,30,260397,1,0,0:0:0:0:
133,14,260491,1,0,0:0:0:0:
197,47,260585,1,0,0:0:0:0:
225,114,260679,5,0,0:0:0:0:
252,167,260772,1,0,0:0:0:0:
302,197,260866,1,0,0:0:0:0:
361,194,260960,1,0,0:0:0:0:
408,159,261054,5,0,0:0:0:0:
389,200,261147,1,0,0:0:0:0:
383,243,261241,1,0,0:0:0:0:
389,288,261335,1,0,0:0:0:0:
407,328,261429,5,0,0:0:0:0:
378,323,261522,1,0,0:0:0:0:
348,323,261616,1,0,0:0:0:0:
319,329,261710,1,0,0:0:0:0:
291,340,261804,6,0,P|221:367|160:272,1,191.250007295609
211,226,262554,1,0,0:0:0:0:
133,202,262679,1,0,0:0:0:0:
102,127,262804,1,0,0:0:0:0:
133,52,262929,1,0,0:0:0:0:
198,21,263054,1,0,0:0:0:0:
244,49,263179,1,0,0:0:0:0:
276,37,263304,6,0,B|319:46|345:36|365:23|365:23|394:42|394:42|419:32|445:37|445:37|424:43|411:52,1,212.5
361,126,264429,1,0,0:0:0:0:
349,218,264616,1,0,0:0:0:0:
384,303,264804,2,0,B|389:332|406:355|406:355|391:359|372:360|351:350|351:350|327:366|291:370|252:363,1,212.5
173,303,265929,1,0,0:0:0:0:
86,352,266116,1,0,0:0:0:0:
86,352,266210,1,0,0:0:0:0:
86,352,266304,2,0,B|84:324|74:299|55:275|55:275|66:244|68:221|66:191|66:191|79:208|80:240,1,212.5
176,209,267429,1,0,0:0:0:0:
232,134,267616,6,0,P|275:123|325:132,1,85
218,116,268179,6,0,P|302:104|379:137,1,170
499,296,268554,6,0,P|456:307|406:298,1,85
512,313,268929,6,0,P|428:324|351:291,1,170
282,340,269210,1,0,0:0:0:0:
263,322,269304,2,0,P|206:295|156:284,1,101.999996887207
76,279,269585,1,0,2:0:0:0:
94,260,269679,2,0,P|121:203|132:153,1,101.999996887207,0|0,2:0|2:0,2:0:0:0:
137,73,269960,1,0,2:0:0:0:
156,91,270054,2,0,P|213:118|263:129,1,101.999996887207,0|0,2:0|2:0,2:0:0:0:
430,108,270429,2,0,P|353:68|272:46,1,170
325,153,270804,6,0,P|298:210|287:260,1,101.999996887207,0|0,2:0|2:0,2:0:0:0:
320,327,271085,1,0,0:0:0:0:
326,350,271179,2,0,P|353:293|364:243,1,101.999996887207,0|0,2:0|2:0,2:0:0:0:
122,358,271554,1,0,0:0:0:0:
347,367,271741,1,0,0:0:0:0:
105,172,271929,2,0,P|125:253|110:336,1,170
6,157,272304,6,0,P|27:107|72:76,1,110.499994941712
139,10,272585,1,0,0:0:0:0:
160,8,272679,2,0,P|138:58|93:89,1,110.499994941712
110,336,273054,2,0,P|131:285|176:254,1,110.499994941712
352,174,273429,2,0,P|328:253|257:297,1,170
450,147,273804,6,0,P|443:226|418:287,1,118.999996368408
261,116,274179,2,0,P|268:37|293:-24,1,118.999996368408
512,262,274554,1,0,0:0:0:0:
509,297,274647,1,0,0:0:0:0:
492,328,274741,1,0,0:0:0:0:
463,349,274835,1,0,0:0:0:0:
429,356,274929,1,0,0:0:0:0:
394,347,275022,1,0,0:0:0:0:
366,325,275116,1,0,0:0:0:0:
195,371,275304,5,0,0:0:0:0:
195,371,275491,1,0,0:0:0:0:
92,141,275679,6,0,L|109:340,1,195.500003728867
254,190,276054,1,0,0:0:0:0:
6,305,276241,1,0,0:0:0:0:
195,371,276429,1,0,0:0:0:0:
79,119,276616,6,0,P|102:38|266:54,1,255.000009727478
254,190,277179,1,0,0:0:0:0:
512,220,277366,2,0,B|363:187|433:243|258:206,1,255.000009727478
465,57,277929,1,0,0:0:0:0:
447,369,278116,1,0,0:0:0:0:
447,369,278210,1,0,0:0:0:0:
447,369,278304,6,0,P|305:385|175:365,1,255.000009727478
0,281,278866,2,0,P|141:264|271:284,1,255.000009727478
13,192,279429,2,0,P|84:183|177:182,1,144.500002756119
465,56,279804,2,0,P|352:103|258:26,1,255.000009727478
512,220,280366,1,0,0:0:0:0:
485,37,280554,5,0,0:0:0:0:
447,369,280741,1,0,0:0:0:0:
258,26,280929,5,0,0:0:0:0:
296,358,281116,1,0,0:0:0:0:
296,358,281210,1,0,0:0:0:0:
296,358,281304,6,0,P|316:278|175:276,1,255.000009727478
107,384,281866,1,0,0:0:0:0:
107,384,281960,1,0,0:0:0:0:
107,384,282054,1,0,0:0:0:0:
0,105,282241,1,0,0:0:0:0:
0,281,282429,1,0,0:0:0:0:
366,3,282616,6,0,B|205:-31|289:48|117:17,1,255.000009727478
196,222,283179,1,0,0:0:0:0:
487,221,283366,2,0,P|393:239|297:236,1,191.250007295609
170,321,283741,2,0,P|259:315|324:325,1,127.500004863739
374,373,284022,1,0,0:0:0:0:
437,51,284304,5,0,0:0:0:0:
408,17,284397,1,0,0:0:0:0:
366,3,284491,1,0,0:0:0:0:
323,13,284585,1,0,0:0:0:0:
292,44,284679,1,0,0:0:0:0:
281,87,284772,1,0,0:0:0:0:
294,129,284866,1,0,0:0:0:0:
327,158,284960,1,0,0:0:0:0:
340,200,285054,1,0,0:0:0:0:
329,243,285147,1,0,0:0:0:0:
298,274,285241,1,0,0:0:0:0:
255,284,285335,1,0,0:0:0:0:
213,270,285429,1,0,0:0:0:0:
184,236,285522,1,0,0:0:0:0:
160,198,285615,1,0,0:0:0:0:
125,170,285709,1,0,0:0:0:0:
83,157,285804,5,0,0:0:0:0:
103,236,285897,1,0,0:0:0:0:
166,288,285991,1,0,0:0:0:0:
247,293,286085,1,0,0:0:0:0:
316,249,286179,1,0,0:0:0:0:
345,173,286272,1,0,0:0:0:0:
324,94,286366,1,0,0:0:0:0:
260,43,286460,1,0,0:0:0:0:
179,39,286554,1,0,0:0:0:0:
179,39,289554,5,0,0:0:0:0:
476,111,300616,5,0,0:0:0:0:
476,111,300710,1,0,0:0:0:0:
476,111,300804,1,0,0:0:0:0:
499,202,300991,1,0,0:0:0:0:
473,292,301179,1,0,0:0:0:0:
405,356,301366,1,0,0:3:0:0:
291,253,301554,6,0,P|236:293|131:262,1,170
78,193,302116,1,0,0:0:0:0:
177,176,302304,2,0,B|186:142|185:90|171:54|171:54|170:84|163:99,1,170
14,113,302866,1,0,0:0:0:0:
14,113,302960,1,0,0:0:0:0:
14,113,303054,5,0,0:0:0:0:
78,193,303241,1,0,0:0:0:0:
176,176,303429,2,0,P|218:169|261:170,1,85
347,266,303804,6,0,P|333:182|360:103,1,170
422,35,304366,1,0,0:0:0:0:
500,181,304554,6,0,B|428:174|428:174|402:188|402:188|334:182,1,170
361,276,305116,1,0,0:0:0:0:
361,276,305210,1,0,0:0:0:0:
361,276,305304,2,0,L|445:283,1,85
320,366,305679,1,0,0:0:0:0:
361,276,305866,1,0,0:0:0:0:
263,286,306054,5,0,0:0:0:0:
270,178,306241,2,0,P|281:242|273:291,1,85
114,310,306616,1,0,0:0:0:0:
114,310,306710,1,0,0:0:0:0:
114,310,306804,1,0,0:0:0:0:
220,368,306991,1,0,0:3:0:0:
173,203,307179,1,0,0:0:0:0:
157,175,307272,1,0,0:0:0:0:
134,153,307366,1,0,0:0:0:0:
105,139,307460,1,0,0:0:0:0:
74,133,307554,6,0,P|127:119|163:78,1,110.499994941712
186,0,308116,1,0,0:0:0:0:
262,19,308304,2,0,P|228:7|191:1,1,55.2499974708558
274,105,308679,2,0,P|308:117|345:123,1,55.2499974708558
430,108,309054,5,0,0:0:0:0:
433,192,309241,2,0,L|438:128,1,55.2499974708558,0|0,0:3|0:3,0:3:0:0:
350,252,309616,1,0,0:0:0:0:
443,293,309804,1,0,0:0:0:0:
257,211,309991,1,0,0:0:0:0:
257,211,310085,1,0,0:0:0:0:
257,211,310179,2,0,P|260:266|227:308,1,110.499994941712
114,359,310460,1,0,0:0:0:0:
100,338,310554,6,0,P|92:304|93:266,1,65.8750005025864
278,195,310741,2,0,P|286:161|285:123,1,65.8750005025864
16,225,310929,6,0,P|8:191|9:153,1,65.8750005025864
194,82,311116,2,0,P|202:48|201:10,1,65.8750005025864
8,48,311304,2,0,L|87:54,1,65.8750005025864,0|0,0:3|0:3,0:3:0:0:
294,41,311491,2,0,L|373:47,1,65.8750005025864,0|0,0:3|0:3,0:3:0:0:
112,245,311679,2,0,L|191:238,1,65.8750005025864,0|0,0:3|0:3,0:3:0:0:
398,252,311866,2,0,L|477:245,1,65.8750005025864,0|0,0:3|0:3,0:3:0:0:
211,384,312054,6,0,L|343:373,1,131.750001005173,0|0,2:0|2:0,2:0:0:0:
463,246,312335,1,0,0:0:0:0:
479,223,312429,2,0,L|347:234,1,131.750001005173,0|0,2:0|2:0,2:0:0:0:
168,83,312804,1,0,0:0:0:0:
196,67,312897,1,0,0:0:0:0:
227,58,312991,1,0,0:0:0:0:
260,56,313085,1,0,0:0:0:0:
292,63,313179,1,0,0:0:0:0:
324,70,313273,1,0,0:0:0:0:
357,68,313367,1,0,0:0:0:0:
388,59,313461,1,0,0:0:0:0:
417,43,313554,6,0,P|349:20|291:62,1,148.750001418591
261,190,313835,1,0,0:0:0:0:
325,237,313929,2,0,P|360:249|397:251,1,74.3750007092953
253,269,314116,1,0,0:0:0:0:
128,384,314304,2,0,L|121:304,1,74.3750007092953
0,216,314491,2,0,L|6:136,1,74.3750007092953
175,9,314679,1,0,0:0:0:0:
168,83,314772,1,0,0:0:0:0:
162,157,314866,1,0,0:0:0:0:
417,43,315054,6,0,P|384:32|321:26,1,74.3750007092953
97,161,315241,2,0,P|132:172|169:177,1,74.3750007092953
359,184,315429,1,0,0:0:0:0:
428,205,315522,1,0,0:0:0:0:
472,264,315616,1,0,0:0:0:0:
266,384,315804,6,0,L|425:370,1,148.750001418591,0|0,0:3|0:3,0:3:0:0:
196,316,316179,1,0,0:0:0:0:
121,309,316272,1,0,0:0:0:0:
47,303,316366,1,0,0:0:0:0:
461,139,316554,6,0,P|447:173|427:204,1,74.3750007092953
302,257,316741,2,0,P|278:228|262:194,1,74.3750007092953
279,60,316929,2,0,P|315:54|352:56,1,74.3750007092953
347,151,317116,1,0,0:0:0:0:
32,80,317304,2,0,L|38:0,1,74.3750007092953
176,216,317491,2,0,L|169:136,1,74.3750007092953
32,352,317679,1,0,0:0:0:0:
32,352,317772,1,0,0:0:0:0:
32,352,317866,1,0,0:0:0:0:
302,256,318054,6,0,P|375:248|449:255,1,148.750001418591
375,352,318335,1,0,0:0:0:0:
292,365,318429,2,0,P|254:366|217:365,1,74.3750007092953
101,216,318616,2,0,P|138:214|175:215,1,74.3750007092953
380,114,318804,2,0,P|305:119|231:115,1,148.750001418591
74,55,319085,1,0,0:0:0:0:
143,21,319179,2,0,P|217:15|291:19,1,148.750001418591
380,114,319460,1,0,0:0:0:0:
468,72,319554,6,0,L|459:167,1,74.3750007092953,0|0,0:3|0:3,0:3:0:0:
278,273,319741,2,0,L|284:198,1,74.3750007092953,0|0,0:3|0:3,0:3:0:0:
341,351,319929,1,0,0:0:0:0:
272,373,320022,1,0,0:0:0:0:
206,342,320116,2,0,P|182:335|102:336,1,74.3750007092953
0,161,320304,6,0,L|6:235,1,74.3750007092953,0|0,0:3|0:3,0:3:0:0:
143,21,320491,2,0,L|136:95,1,74.3750007092953,0|0,0:3|0:3,0:3:0:0:
278,273,320679,1,0,0:0:0:0:
271,198,320772,1,0,0:0:0:0:
265,124,320866,1,0,0:0:0:0:
512,0,321054,6,0,L|496:175,1,148.750001418591
416,248,321335,1,0,0:0:0:0:
471,302,321429,2,0,P|476:339|475:378,1,74.3750007092953
408,152,321616,2,0,P|403:188|404:227,1,74.3750007092953
185,366,321804,2,0,P|194:292|178:212,1,148.750001418591
84,220,322085,1,0,0:0:0:0:
35,135,322179,1,0,0:0:0:0:
83,52,322272,1,0,0:0:0:0:
180,52,322366,1,0,0:0:0:0:
229,135,322460,1,0,0:0:0:0:
180,219,322554,1,0,0:0:0:0:
180,219,323491,6,0,P|182:262|197:308,1,74.3750007092953
329,320,323679,2,0,P|265:303|200:309,1,131.750001005173
412,378,324054,6,0,P|454:380|502:374,1,65.8750005025864
512,233,324241,2,0,P|470:231|422:237,1,65.8750005025864
395,356,324429,6,0,P|437:358|485:352,1,65.8750005025864
292,209,324616,1,0,0:0:0:0:
256,170,324709,1,0,0:0:0:0:
247,119,324803,1,0,0:0:0:0:
267,71,324897,1,0,0:0:0:0:
309,41,324991,1,0,0:0:0:0:
361,39,325084,1,0,0:0:0:0:
406,65,325179,2,0,P|436:76|469:83,1,65.8750005025864
247,119,325366,2,0,P|216:107|183:100,1,65.8750005025864
266,302,325554,6,0,P|296:313|329:320,1,65.8750005025864
235,97,325741,2,0,P|204:85|171:78,1,65.8750005025864
278,324,325929,2,0,P|309:336|342:343,1,65.8750005025864
37,183,326116,1,0,0:0:0:0:
11,228,326209,1,0,0:0:0:0:
12,280,326303,1,0,0:0:0:0:
42,322,326397,1,0,0:0:0:0:
90,343,326491,1,0,0:0:0:0:
141,335,326584,1,0,0:0:0:0:
180,301,326679,2,0,L|186:221,1,65.8750005025864
37,183,326866,2,0,L|30:103,1,65.8750005025864
195,318,327054,6,0,L|201:238,1,65.8750005025864
361,39,327241,2,0,L|355:104,1,65.8750005025864
507,299,327429,1,0,0:0:0:0:
509,266,327522,1,0,0:0:0:0:
512,233,327616,2,0,P|450:211|387:227,1,131.750001005173
286,367,327897,1,0,0:0:0:0:
291,384,327991,2,0,P|312:322|296:259,1,131.750001005173
158,157,328272,1,0,0:0:0:0:
140,162,328366,6,0,P|201:183|264:167,1,131.750001005173
25,11,328741,1,0,0:0:0:0:
361,39,328929,2,0,L|217:26,1,131.750001005173,0|0,0:3|0:3,0:3:0:0:
421,129,329210,1,0,0:0:0:0:
440,152,329304,2,0,L|527:159,1,65.8750005025864,0|0,0:3|0:3,0:3:0:0:
296,259,329491,2,0,L|208:251,1,65.8750005025864,0|0,0:3|0:3,0:3:0:0:
29,232,329679,1,0,0:0:0:0:
18,262,329772,1,0,0:0:0:0:
14,295,329866,1,0,0:0:0:0:
18,328,329960,1,0,0:0:0:0:
29,358,330054,5,0,0:0:0:0:
58,288,330147,1,0,0:0:0:0:
69,212,330241,1,0,0:0:0:0:
62,136,330335,1,0,0:0:0:0:
38,64,330429,2,0,P|27:107|36:174,1,85
342,56,330616,1,0,0:0:0:0:
271,34,330709,1,0,0:0:0:0:
215,80,330803,1,0,0:0:0:0:
223,153,330897,1,0,0:0:0:0:
288,186,330991,1,0,0:0:0:0:
296,259,331085,1,0,0:0:0:0:
240,305,331179,2,0,L|152:297,1,85
428,50,331366,2,0,L|515:57,1,85
479,358,331554,5,0,0:3:0:0:
437,293,331647,1,0,0:3:0:0:
413,220,331741,1,0,0:3:0:0:
406,144,331835,1,0,0:3:0:0:
417,69,331929,2,0,P|440:118|449:181,1,85
195,207,332116,1,0,0:0:0:0:
128,174,332209,1,0,0:0:0:0:
102,103,332303,1,0,0:0:0:0:
132,35,332397,1,0,0:0:0:0:
201,7,332491,1,0,0:0:0:0:
271,34,332584,1,0,0:0:0:0:
302,101,332679,2,0,P|282:139|272:180,1,85
105,384,332866,2,0,P|125:346|135:305,1,85
34,0,333054,5,0,0:3:0:0:
6,71,333147,1,0,0:3:0:0:
0,147,333241,1,0,0:3:0:0:
10,223,333335,1,0,0:3:0:0:
37,294,333429,2,0,P|48:241|42:177,1,85,0|0,0:3|0:3,0:3:0:0:
271,34,333616,1,0,0:0:0:0:
243,103,333709,1,0,0:0:0:0:
270,172,333803,1,0,0:0:0:0:
338,204,333897,1,0,0:0:0:0:
408,180,333991,1,0,0:0:0:0:
480,195,334084,1,0,0:0:0:0:
504,264,334178,1,0,0:0:0:0:
457,320,334272,1,0,0:0:0:0:
385,309,334366,2,0,P|347:304|285:312,1,85
35,367,334554,5,0,0:0:0:0:
108,373,334647,1,0,0:0:0:0:
156,317,334741,1,0,0:0:0:0:
138,245,334835,1,0,0:0:0:0:
69,218,334929,1,0,0:0:0:0:
18,164,335022,1,0,0:0:0:0:
34,93,335116,1,0,0:0:0:0:
102,66,335210,1,0,0:0:0:0:
162,109,335304,5,0,0:0:0:0:
210,30,335397,1,0,0:0:0:0:
295,0,335491,1,0,0:0:0:0:
384,18,335585,1,0,0:0:0:0:
442,89,335679,1,0,0:0:0:0:
446,181,335772,1,0,0:0:0:0:
394,257,335866,1,0,0:0:0:0:
307,287,335960,1,0,0:0:0:0:
256,192,336054,12,0,338304,0:0:0:0:
