osu file format v14

[General]
AudioFilename: audio.mp3
AudioLeadIn: 0
PreviewTime: 63185
Countdown: 0
SampleSet: Normal
StackLeniency: 0.7
Mode: 1
LetterboxInBreaks: 0
WidescreenStoryboard: 0

[Editor]
Bookmarks: 6560,18560,30560,42560,51560
DistanceSpacing: 1
BeatDivisor: 4
GridSize: 4
TimelineZoom: 2.599999

[Metadata]
Title:Shinzou o Sasageyo! [TV Size]
TitleUnicode:心臓を捧げよ! [TV Size]
Artist:Linked Horizon
ArtistUnicode:Linked Horizon
Creator:puxtu
Version:Oni
Source:進撃の巨人
Tags:Chromoxx Opfert eure Herzen! Attack on Titan shingeki no kyojin season aot snk 2 two dedicate all your hearts 澤野 弘之 hiroyuki sawano revo 諌山 創 Hajime Isayama 進撃の軌跡 Shingeki no Kiseki 鎌仲泰郎Yasuo Kamanaka Sound Opening Theme PCCA-04540 PCCA-04539
BeatmapID:1292936
BeatmapSetID:595844

[Difficulty]
HPDrainRate:6
CircleSize:4
OverallDifficulty:6
ApproachRate:5
SliderMultiplier:1.4
SliderTickRate:1

[Events]
//Background and Video events
0,0,"35783775_p0.jpg",0,0
//Break Periods
//Storyboard Layer 0 (Background)
//Storyboard Layer 1 (Fail)
//Storyboard Layer 2 (Pass)
//Storyboard Layer 3 (Foreground)
//Storyboard Sound Samples

[TimingPoints]
560,375,4,1,0,50,1,0
560,-125,4,1,0,50,0,0
3560,-100,4,1,0,90,0,0
6747,-100,4,1,0,60,0,0
18560,-100,4,1,0,80,0,0
30560,-100,4,1,0,70,0,0
42560,-100,4,1,0,80,0,0
45560,-100,4,1,0,60,0,0
48560,-100,4,1,0,80,0,0
51747,-111.111111111111,4,1,0,70,0,0
60560,-100,4,1,0,80,0,0
63560,-90.9090909090909,4,1,0,90,0,1
72560,-90.9090909090909,4,1,0,90,0,0
72747,-100,4,1,0,80,0,0
74060,-100,4,1,0,90,0,0
79310,-98.0392156862745,4,1,0,90,0,0
79403,-97.0873786407767,4,1,0,90,0,0
79497,-96.1538461538461,4,1,0,90,0,0
79591,-95.2380952380952,4,1,0,90,0,0
79685,-94.3396226415094,4,1,0,90,0,0
79778,-93.4579439252336,4,1,0,90,0,0
79872,-92.5925925925926,4,1,0,90,0,0
79966,-91.743119266055,4,1,0,90,0,0
80060,-90.9090909090909,4,1,0,90,0,1
86060,-90.9090909090909,4,1,0,90,0,0

[HitObjects]
276,200,560,5,0,0:0:0:0:
276,200,747,1,8,0:0:0:0:
200,184,1122,1,8,0:0:0:0:
200,184,1497,1,0,0:0:0:0:
192,160,1872,1,8,0:0:0:0:
308,204,2060,1,0,0:0:0:0:
308,204,2247,1,8,0:0:0:0:
308,204,2435,1,0,0:0:0:0:
308,204,2622,1,8,0:0:0:0:
288,220,2997,1,0,0:0:0:0:
164,156,3372,1,8,0:0:0:0:
252,164,3560,1,4,0:0:0:0:
312,152,3747,1,8,0:0:0:0:
312,152,3935,1,0,0:0:0:0:
228,140,4028,1,0,0:0:0:0:
208,160,4122,1,8,0:0:0:0:
212,152,4310,1,0,0:0:0:0:
196,160,4403,1,8,0:0:0:0:
316,184,4497,1,8,0:0:0:0:
264,252,4685,1,0,0:0:0:0:
200,272,4778,1,0,0:0:0:0:
200,184,4872,1,8,0:0:0:0:
168,200,5060,1,0,0:0:0:0:
168,200,5153,1,0,0:0:0:0:
168,200,5247,1,0,0:0:0:0:
172,192,5341,1,0,0:0:0:0:
168,200,5435,1,8,0:0:0:0:
208,228,5622,1,8,0:0:0:0:
184,184,5810,1,0,0:0:0:0:
280,232,5903,1,0,0:0:0:0:
252,152,5997,1,8,0:0:0:0:
252,152,6091,1,8,0:0:0:0:
192,176,6185,1,0,0:0:0:0:
192,176,6278,1,8,0:0:0:0:
180,164,6372,1,8,0:0:0:0:
180,164,6466,1,8,0:0:0:0:
168,160,6560,1,0,0:0:0:0:
297,89,6747,1,8,0:0:0:0:
336,164,6935,1,0,0:0:0:0:
297,89,7122,1,8,0:0:0:0:
344,168,7497,1,8,0:0:0:0:
344,168,7685,1,0,0:0:0:0:
124,236,7872,1,8,0:0:0:0:
176,168,8060,1,0,0:0:0:0:
176,168,8247,1,0,0:0:0:0:
360,184,8435,1,8,0:0:0:0:
216,228,8622,1,0,0:0:0:0:
208,188,8997,1,0,0:0:0:0:
208,188,9185,1,8,0:0:0:0:
188,180,9278,1,8,0:0:0:0:
188,180,9372,1,8,0:0:0:0:
92,164,9560,1,0,0:0:0:0:
100,160,9747,1,8,0:0:0:0:
100,160,9935,1,0,0:0:0:0:
100,160,10122,1,8,0:0:0:0:
100,160,10497,1,8,0:0:0:0:
100,160,10685,1,0,0:0:0:0:
100,160,10872,1,8,0:0:0:0:
112,164,11060,1,0,0:0:0:0:
112,164,11247,1,0,0:0:0:0:
256,184,11435,1,8,0:0:0:0:
256,184,11622,1,0,0:0:0:0:
256,184,11997,1,0,0:0:0:0:
256,184,12185,1,8,0:0:0:0:
256,184,12278,1,8,0:0:0:0:
256,184,12372,1,8,0:0:0:0:
256,184,12560,1,4,0:0:0:0:
232,176,12747,1,8,0:0:0:0:
232,176,12935,1,0,0:0:0:0:
232,176,13122,1,8,0:0:0:0:
216,76,13216,1,8,0:0:0:0:
216,76,13310,1,0,0:0:0:0:
224,176,13685,1,8,0:0:0:0:
240,224,13872,1,0,0:0:0:0:
224,216,13966,1,0,0:0:0:0:
240,224,14060,1,0,0:0:0:0:
224,216,14247,1,0,0:0:0:0:
224,216,14435,1,8,0:0:0:0:
224,216,14622,1,0,0:0:0:0:
224,216,14716,1,0,0:0:0:0:
296,124,14810,1,8,0:0:0:0:
296,124,14997,1,0,0:0:0:0:
296,124,15185,1,8,0:0:0:0:
212,192,15372,1,8,0:0:0:0:
196,188,15466,1,8,0:0:0:0:
180,184,15560,1,0,0:0:0:0:
180,184,15935,1,8,0:0:0:0:
192,168,16122,1,0,0:0:0:0:
192,168,16216,1,0,0:0:0:0:
176,152,16310,1,8,0:0:0:0:
176,152,16685,1,8,0:0:0:0:
176,152,16872,1,0,0:0:0:0:
180,152,17060,1,12,0:0:0:0:
272,208,17247,1,0,0:0:0:0:
240,196,17341,1,0,0:0:0:0:
240,196,17435,1,8,0:0:0:0:
240,196,17622,1,0,0:0:0:0:
240,196,17716,1,8,0:0:0:0:
240,196,17810,1,8,0:0:0:0:
248,196,17997,1,0,0:0:0:0:
248,196,18091,1,0,0:0:0:0:
248,192,18185,1,8,0:0:0:0:
248,192,18278,1,8,0:0:0:0:
248,192,18372,1,8,0:0:0:0:
248,192,18560,1,4,0:0:0:0:
364,200,18747,1,8,0:0:0:0:
272,112,18935,1,0,0:0:0:0:
272,112,19028,1,0,0:0:0:0:
240,112,19122,1,8,0:0:0:0:
240,112,19310,1,0,0:0:0:0:
240,112,19497,1,8,0:0:0:0:
240,112,19685,1,0,0:0:0:0:
248,116,19778,1,8,0:0:0:0:
248,116,19872,1,8,0:0:0:0:
220,116,20060,1,0,0:0:0:0:
208,232,20247,1,0,0:0:0:0:
204,240,20341,1,0,0:0:0:0:
200,232,20435,1,8,0:0:0:0:
184,168,20622,1,8,0:0:0:0:
200,232,20716,1,8,0:0:0:0:
220,116,20810,1,0,0:0:0:0:
212,244,20997,1,0,0:0:0:0:
208,232,21185,1,12,0:0:0:0:
208,208,21560,1,4,0:0:0:0:
292,140,21747,1,0,0:0:0:0:
296,144,21935,1,8,0:0:0:0:
232,184,22028,1,8,0:0:0:0:
296,144,22122,1,0,0:0:0:0:
232,184,22310,1,8,0:0:0:0:
224,176,22497,1,0,0:0:0:0:
224,176,22685,1,8,0:0:0:0:
188,172,22778,1,0,0:0:0:0:
188,172,22872,1,0,0:0:0:0:
188,172,23060,1,8,0:0:0:0:
188,172,23247,1,8,0:0:0:0:
304,116,23341,1,8,0:0:0:0:
304,116,23435,1,0,0:0:0:0:
304,116,23622,1,0,0:0:0:0:
304,116,23716,1,0,0:0:0:0:
304,116,23810,1,8,0:0:0:0:
260,200,23997,1,0,0:0:0:0:
240,200,24185,1,12,0:0:0:0:
216,208,24560,1,4,0:0:0:0:
244,168,24747,1,8,0:0:0:0:
304,144,24935,1,0,0:0:0:0:
304,144,25028,1,0,0:0:0:0:
276,132,25122,1,8,0:0:0:0:
276,132,25310,1,0,0:0:0:0:
236,120,25497,1,8,0:0:0:0:
260,128,25685,1,0,0:0:0:0:
252,132,25778,1,8,0:0:0:0:
264,132,25872,1,8,0:0:0:0:
272,180,26060,1,4,0:0:0:0:
276,244,26247,1,0,0:0:0:0:
276,244,26435,1,8,0:0:0:0:
256,240,26528,1,8,0:0:0:0:
248,236,26622,1,0,0:0:0:0:
248,236,26810,1,8,0:0:0:0:
248,236,26997,1,0,0:0:0:0:
248,232,27185,1,8,0:0:0:0:
232,228,27278,1,0,0:0:0:0:
232,228,27372,1,0,0:0:0:0:
232,228,27560,1,12,0:0:0:0:
248,216,27747,1,0,0:0:0:0:
248,216,27841,1,0,0:0:0:0:
220,204,27935,1,8,0:0:0:0:
220,204,28122,1,0,0:0:0:0:
216,204,28310,1,12,0:0:0:0:
220,204,28497,1,0,0:0:0:0:
224,192,28591,1,0,0:0:0:0:
224,192,28685,1,8,0:0:0:0:
224,192,28872,1,8,0:0:0:0:
224,188,29060,1,4,0:0:0:0:
176,304,29247,1,0,0:0:0:0:
144,292,29341,1,0,0:0:0:0:
128,284,29435,1,8,0:0:0:0:
128,284,29622,1,8,0:0:0:0:
128,284,29716,1,8,0:0:0:0:
136,276,29810,1,0,0:0:0:0:
232,268,29997,1,0,0:0:0:0:
232,268,30091,1,0,0:0:0:0:
208,252,30185,1,8,0:0:0:0:
216,256,30278,1,8,0:0:0:0:
208,252,30372,1,8,0:0:0:0:
220,248,30560,1,0,0:0:0:0:
328,232,30747,1,0,0:0:0:0:
328,232,30935,1,8,0:0:0:0:
328,232,31122,1,8,0:0:0:0:
260,120,31310,1,0,0:0:0:0:
260,120,31497,1,0,0:0:0:0:
260,120,31685,1,8,0:0:0:0:
260,120,31872,1,0,0:0:0:0:
260,120,32060,1,0,0:0:0:0:
280,200,32435,1,8,0:0:0:0:
280,200,32622,1,8,0:0:0:0:
280,200,32810,1,0,0:0:0:0:
240,192,33185,1,8,0:0:0:0:
120,252,33560,1,0,0:0:0:0:
120,252,33747,1,0,0:0:0:0:
320,232,33935,1,8,0:0:0:0:
320,232,34122,1,0,0:0:0:0:
256,216,34310,1,8,0:0:0:0:
320,232,34497,1,8,0:0:0:0:
308,252,34685,1,0,0:0:0:0:
308,252,34872,1,0,0:0:0:0:
256,240,35060,1,8,0:0:0:0:
256,240,35247,1,0,0:0:0:0:
216,228,35435,1,8,0:0:0:0:
216,228,35622,1,8,0:0:0:0:
216,228,35810,1,0,0:0:0:0:
228,200,36185,1,8,0:0:0:0:
360,208,36560,1,0,0:0:0:0:
360,208,36747,1,0,0:0:0:0:
295,168,36935,1,8,0:0:0:0:
295,168,37122,1,0,0:0:0:0:
240,172,37310,1,8,0:0:0:0:
237,151,37497,1,8,0:0:0:0:
214,116,37685,1,0,0:0:0:0:
214,116,37872,1,8,0:0:0:0:
214,116,38060,1,0,0:0:0:0:
195,109,38247,1,0,0:0:0:0:
195,109,38435,1,8,0:0:0:0:
194,107,38622,1,0,0:0:0:0:
320,240,38810,1,8,0:0:0:0:
316,224,39185,1,8,0:0:0:0:
316,224,39560,1,0,0:0:0:0:
304,184,39747,1,0,0:0:0:0:
304,184,39935,1,8,0:0:0:0:
300,168,40122,1,8,0:0:0:0:
300,168,40310,1,0,0:0:0:0:
216,176,40497,1,0,0:0:0:0:
216,176,40685,1,8,0:0:0:0:
216,176,40872,1,8,0:0:0:0:
180,152,41060,1,4,0:0:0:0:
180,152,41435,1,4,0:0:0:0:
180,152,41810,1,12,0:0:0:0:
192,152,41997,1,0,0:0:0:0:
184,144,42091,1,0,0:0:0:0:
256,256,42185,1,8,0:0:0:0:
176,144,42278,1,8,0:0:0:0:
148,248,42372,1,0,0:0:0:0:
192,232,42560,1,12,0:0:0:0:
208,220,42747,1,0,0:0:0:0:
288,264,42841,1,0,0:0:0:0:
192,212,42935,1,8,0:0:0:0:
200,220,43122,1,0,0:0:0:0:
208,140,43216,1,0,0:0:0:0:
200,220,43310,1,8,0:0:0:0:
208,216,43497,1,0,0:0:0:0:
192,208,43685,1,8,0:0:0:0:
176,208,43778,1,8,0:0:0:0:
176,216,43872,1,0,0:0:0:0:
320,160,43966,1,0,0:0:0:0:
176,208,44060,1,8,0:0:0:0:
176,208,44247,1,0,0:0:0:0:
208,216,44341,1,0,0:0:0:0:
260,160,44435,1,8,0:0:0:0:
380,216,44622,1,0,0:0:0:0:
380,216,44716,1,0,0:0:0:0:
324,200,44810,1,8,0:0:0:0:
324,200,44903,1,8,0:0:0:0:
324,200,45091,1,0,0:0:0:0:
324,200,45185,1,8,0:0:0:0:
316,192,45560,1,4,0:0:0:0:
296,140,45935,1,8,0:0:0:0:
216,272,46122,1,0,0:0:0:0:
264,288,46310,1,0,0:0:0:0:
304,156,46685,1,8,0:0:0:0:
256,96,46872,1,8,0:0:0:0:
256,96,47060,1,0,0:0:0:0:
304,156,47247,1,8,0:0:0:0:
260,272,47622,1,0,0:0:0:0:
260,272,47810,1,8,0:0:0:0:
352,184,47997,1,0,0:0:0:0:
352,184,48091,1,0,0:0:0:0:
340,108,48185,1,8,0:0:0:0:
340,108,48278,1,8,0:0:0:0:
340,108,48372,1,8,0:0:0:0:
340,108,48560,1,4,0:0:0:0:
284,224,48935,1,8,0:0:0:0:
296,168,49122,1,0,0:0:0:0:
256,232,49216,1,0,0:0:0:0:
240,200,49310,1,8,0:0:0:0:
284,204,49497,1,0,0:0:0:0:
300,112,49685,1,8,0:0:0:0:
300,112,49778,1,8,0:0:0:0:
300,112,49872,1,0,0:0:0:0:
276,200,50060,1,12,0:0:0:0:
360,192,50247,1,0,0:0:0:0:
360,192,50341,1,0,0:0:0:0:
344,156,50435,1,8,0:0:0:0:
344,156,50622,1,0,0:0:0:0:
280,156,50716,1,0,0:0:0:0:
280,156,50810,1,8,0:0:0:0:
280,156,50997,1,0,0:0:0:0:
280,156,51091,1,0,0:0:0:0:
280,144,51185,1,8,0:0:0:0:
280,144,51278,1,8,0:0:0:0:
272,140,51372,1,8,0:0:0:0:
208,116,51560,1,4,0:0:0:0:
260,96,52122,1,0,0:0:0:0:
260,96,52310,1,8,0:0:0:0:
260,96,52497,1,0,0:0:0:0:
296,180,52872,1,0,0:0:0:0:
296,180,53060,1,8,0:0:0:0:
296,180,53247,1,8,0:0:0:0:
220,148,53622,1,0,0:0:0:0:
220,148,53810,1,8,0:0:0:0:
192,128,53997,1,0,0:0:0:0:
188,124,54091,1,0,0:0:0:0:
184,120,54185,1,8,0:0:0:0:
168,120,54278,1,0,0:0:0:0:
168,120,54372,1,0,0:0:0:0:
180,124,54560,1,0,0:0:0:0:
240,128,54747,1,0,0:0:0:0:
240,128,55122,1,0,0:0:0:0:
240,128,55310,1,8,0:0:0:0:
240,128,55497,1,8,0:0:0:0:
236,148,55872,1,0,0:0:0:0:
236,148,56060,1,0,0:0:0:0:
236,148,56247,1,8,0:0:0:0:
228,152,56622,1,0,0:0:0:0:
228,152,56810,1,8,0:0:0:0:
176,132,56997,1,0,0:0:0:0:
168,128,57091,1,0,0:0:0:0:
176,132,57185,1,8,0:0:0:0:
168,128,57560,1,0,0:0:0:0:
344,212,59997,1,0,0:0:0:0:
344,212,60091,1,0,0:0:0:0:
344,212,60185,1,8,0:0:0:0:
216,160,60560,1,4,0:0:0:0:
260,252,60747,1,8,0:0:0:0:
240,244,60841,1,8,0:0:0:0:
216,236,60935,1,0,0:0:0:0:
152,204,61122,1,8,0:0:0:0:
152,216,61310,1,0,0:0:0:0:
220,232,61497,1,8,0:0:0:0:
212,236,61591,1,8,0:0:0:0:
208,232,61685,1,0,0:0:0:0:
152,204,61872,1,0,0:0:0:0:
132,208,62060,1,12,0:0:0:0:
264,220,62247,1,0,0:0:0:0:
240,216,62341,1,0,0:0:0:0:
232,212,62435,1,8,0:0:0:0:
240,212,62622,1,0,0:0:0:0:
240,212,62716,1,0,0:0:0:0:
264,148,62810,1,8,0:0:0:0:
264,148,62903,1,8,0:0:0:0:
264,148,62997,1,0,0:0:0:0:
264,148,63091,1,0,0:0:0:0:
264,148,63185,1,8,0:0:0:0:
332,232,63372,1,8,0:0:0:0:
248,136,63560,1,0,0:0:0:0:
204,116,63747,1,8,0:0:0:0:
204,116,63841,1,8,0:0:0:0:
208,136,63935,1,0,0:0:0:0:
152,148,64028,1,0,0:0:0:0:
208,136,64122,1,8,0:0:0:0:
160,140,64310,1,0,0:0:0:0:
160,140,64403,1,0,0:0:0:0:
156,136,64497,1,8,0:0:0:0:
156,136,64591,1,0,0:0:0:0:
128,124,64685,1,8,0:0:0:0:
132,196,64872,1,8,0:0:0:0:
192,208,65060,1,0,0:0:0:0:
288,264,65153,1,8,0:0:0:0:
264,204,65247,1,8,0:0:0:0:
276,200,65341,1,8,0:0:0:0:
232,176,65435,1,0,0:0:0:0:
252,204,65622,1,0,0:0:0:0:
212,104,65810,1,8,0:0:0:0:
240,180,65997,1,0,0:0:0:0:
296,196,66091,1,0,0:0:0:0:
260,184,66185,1,8,0:0:0:0:
240,180,66278,1,8,0:0:0:0:
216,172,66372,1,0,0:0:0:0:
216,172,66560,1,8,0:0:0:0:
236,208,66747,1,0,0:0:0:0:
208,196,66841,1,0,0:0:0:0:
192,188,66935,1,8,0:0:0:0:
284,128,67122,1,0,0:0:0:0:
284,128,67310,1,8,0:0:0:0:
284,128,67403,1,8,0:0:0:0:
280,124,67497,1,0,0:0:0:0:
268,120,67591,1,0,0:0:0:0:
264,116,67685,1,8,0:0:0:0:
264,116,67872,1,8,0:0:0:0:
312,176,68060,1,0,0:0:0:0:
288,168,68153,1,0,0:0:0:0:
288,168,68247,1,0,0:0:0:0:
272,168,68341,1,0,0:0:0:0:
272,168,68435,1,8,0:0:0:0:
272,168,68622,1,0,0:0:0:0:
268,168,68810,1,8,0:0:0:0:
264,160,68903,1,8,0:0:0:0:
252,156,68997,1,0,0:0:0:0:
252,156,69091,1,0,0:0:0:0:
232,148,69185,1,8,0:0:0:0:
232,148,69372,1,8,0:0:0:0:
232,152,69560,1,0,0:0:0:0:
224,152,69747,1,8,0:0:0:0:
224,152,69841,1,8,0:0:0:0:
212,144,69935,1,8,0:0:0:0:
208,144,70028,1,8,0:0:0:0:
208,132,70122,1,0,0:0:0:0:
208,132,70310,1,8,0:0:0:0:
208,132,70497,1,0,0:0:0:0:
208,132,70591,1,0,0:0:0:0:
208,132,70685,1,0,0:0:0:0:
208,132,70778,1,0,0:0:0:0:
208,132,70872,1,8,0:0:0:0:
292,256,71060,1,0,0:0:0:0:
292,256,71153,1,0,0:0:0:0:
260,236,71247,1,8,0:0:0:0:
260,236,71341,1,0,0:0:0:0:
260,236,71435,1,8,0:0:0:0:
260,228,71622,1,0,0:0:0:0:
280,96,71810,1,8,0:0:0:0:
280,96,71903,1,8,0:0:0:0:
280,96,71997,1,0,0:0:0:0:
280,96,72091,1,0,0:0:0:0:
280,96,72185,1,8,0:0:0:0:
280,96,72278,1,0,0:0:0:0:
280,96,72372,1,8,0:0:0:0:
280,96,72560,1,4,0:0:0:0:
180,168,73497,1,0,0:0:0:0:
264,152,73591,1,0,0:0:0:0:
264,152,73685,1,8,0:0:0:0:
280,212,74060,1,4,0:0:0:0:
280,208,74247,1,8,0:0:0:0:
280,200,74435,1,0,0:0:0:0:
264,192,74528,1,0,0:0:0:0:
224,184,74622,1,8,0:0:0:0:
244,192,74810,1,0,0:0:0:0:
244,192,74997,1,8,0:0:0:0:
232,140,75091,1,8,0:0:0:0:
248,192,75185,1,0,0:0:0:0:
224,184,75278,1,8,0:0:0:0:
248,192,75372,1,8,0:0:0:0:
280,200,75560,1,0,0:0:0:0:
236,92,75747,1,8,0:0:0:0:
244,92,75841,1,8,0:0:0:0:
224,80,75935,1,0,0:0:0:0:
224,80,76122,1,8,0:0:0:0:
224,84,76310,1,0,0:0:0:0:
272,168,76403,1,0,0:0:0:0:
264,164,76497,1,8,0:0:0:0:
244,160,76591,1,0,0:0:0:0:
264,164,76685,1,0,0:0:0:0:
244,160,76872,1,8,0:0:0:0:
204,172,77060,1,0,0:0:0:0:
204,172,77247,1,8,0:0:0:0:
192,168,77435,1,0,0:0:0:0:
196,164,77528,1,0,0:0:0:0:
192,160,77622,1,8,0:0:0:0:
192,160,77810,1,0,0:0:0:0:
192,160,77903,1,8,0:0:0:0:
192,160,77997,1,8,0:0:0:0:
304,264,78185,1,0,0:0:0:0:
304,264,78278,1,0,0:0:0:0:
224,240,78372,1,8,0:0:0:0:
260,192,78560,1,0,0:0:0:0:
276,228,78653,1,0,0:0:0:0:
260,192,78747,1,0,0:0:0:0:
260,192,78841,1,0,0:0:0:0:
232,184,78935,1,8,0:0:0:0:
172,204,79122,1,8,0:0:0:0:
180,196,79310,1,0,0:0:0:0:
168,192,79403,1,0,0:0:0:0:
164,188,79497,1,8,0:0:0:0:
164,188,79591,1,8,0:0:0:0:
236,168,79685,1,0,0:0:0:0:
152,184,79778,1,8,0:0:0:0:
152,180,79872,1,8,0:0:0:0:
152,180,79966,1,8,0:0:0:0:
152,180,80060,1,0,0:0:0:0:
328,208,80247,1,8,0:0:0:0:
308,200,80341,1,8,0:0:0:0:
256,188,80435,1,0,0:0:0:0:
248,168,80528,1,0,0:0:0:0:
248,164,80622,1,8,0:0:0:0:
248,164,80810,1,0,0:0:0:0:
248,160,80997,1,8,0:0:0:0:
248,152,81091,1,8,0:0:0:0:
240,140,81185,1,0,0:0:0:0:
236,136,81278,1,8,0:0:0:0:
236,136,81372,1,8,0:0:0:0:
248,128,81466,1,8,0:0:0:0:
240,108,81560,1,0,0:0:0:0:
220,108,81747,1,8,0:0:0:0:
196,232,81841,1,8,0:0:0:0:
176,208,81935,1,0,0:0:0:0:
176,208,82028,1,0,0:0:0:0:
184,208,82122,1,8,0:0:0:0:
204,216,82310,1,0,0:0:0:0:
192,212,82403,1,0,0:0:0:0:
188,208,82497,1,8,0:0:0:0:
192,208,82591,1,0,0:0:0:0:
192,208,82685,1,0,0:0:0:0:
184,208,82778,1,0,0:0:0:0:
184,208,82872,1,8,0:0:0:0:
176,216,83060,1,0,0:0:0:0:
284,252,83153,1,0,0:0:0:0:
284,252,83247,1,8,0:0:0:0:
224,200,83341,1,8,0:0:0:0:
216,192,83435,1,0,0:0:0:0:
232,176,83622,1,8,0:0:0:0:
148,152,83716,1,8,0:0:0:0:
224,208,83810,1,0,0:0:0:0:
344,200,83903,1,8,0:0:0:0:
336,184,83997,1,8,0:0:0:0:
308,176,84185,1,0,0:0:0:0:
308,176,84278,1,0,0:0:0:0:
308,176,84372,1,8,0:0:0:0:
264,184,84466,1,0,0:0:0:0:
272,184,84560,1,0,0:0:0:0:
240,168,84747,1,8,0:0:0:0:
240,168,84841,1,8,0:0:0:0:
240,168,84935,1,0,0:0:0:0:
244,160,85028,1,0,0:0:0:0:
256,152,85122,1,8,0:0:0:0:
256,152,85216,1,8,0:0:0:0:
256,152,85310,1,0,0:0:0:0:
256,152,85403,1,0,0:0:0:0:
256,152,85497,1,8,0:0:0:0:
256,152,85591,1,0,0:0:0:0:
256,152,85685,1,0,0:0:0:0:
256,152,85778,1,0,0:0:0:0:
248,152,85872,1,8,0:0:0:0:
256,152,86060,1,4,0:0:0:0:
