osu file format v14

[General]
AudioFilename: audio.mp3
AudioLeadIn: 0
PreviewTime: 63185
Countdown: 0
SampleSet: Normal
StackLeniency: 0.7
Mode: 1
LetterboxInBreaks: 0
WidescreenStoryboard: 0

[Editor]
Bookmarks: 6560,18560,30560,42560,51560
DistanceSpacing: 1
BeatDivisor: 4
GridSize: 4
TimelineZoom: 2.299999

[Metadata]
Title:Shinzou o Sasageyo! [TV Size]
TitleUnicode:心臓を捧げよ! [TV Size]
Artist:Linked Horizon
ArtistUnicode:Linked Horizon
Creator:puxtu
Version:Muzukashii
Source:進撃の巨人
Tags:Chromoxx Opfert eure Herzen! Attack on Titan shingeki no kyojin season aot snk 2 two dedicate all your hearts 澤野 弘之 hiroyuki sawano revo 諌山 創 Hajime Isayama 進撃の軌跡 Shingeki no Kiseki 鎌仲泰郎Yasuo Kamanaka Sound Opening Theme PCCA-04540 PCCA-04539
BeatmapID:1292935
BeatmapSetID:595844

[Difficulty]
HPDrainRate:7
CircleSize:4
OverallDifficulty:5
ApproachRate:5
SliderMultiplier:1.4
SliderTickRate:1

[Events]
//Background and Video events
0,0,"35783775_p0.jpg",0,0
//Break Periods
//Storyboard Layer 0 (Background)
//Storyboard Layer 1 (Fail)
//Storyboard Layer 2 (Pass)
//Storyboard Layer 3 (Foreground)
//Storyboard Sound Samples

[TimingPoints]
560,375,4,1,0,50,1,0
3560,-100,4,1,0,90,0,0
6747,-100,4,1,0,60,0,0
18560,-100,4,1,0,80,0,0
30560,-100,4,1,0,70,0,0
42560,-100,4,1,0,80,0,0
45560,-100,4,1,0,60,0,0
48560,-100,4,1,0,80,0,0
51747,-100,4,1,0,70,0,0
60560,-100,4,1,0,80,0,0
63560,-100,4,1,0,90,0,1
72560,-100,4,1,0,90,0,0
72747,-100,4,1,0,80,0,0
74060,-100,4,1,0,90,0,0
80060,-100,4,1,0,90,0,1
86060,-100,4,1,0,90,0,0

[HitObjects]
200,200,560,5,0,0:0:0:0:
256,152,747,1,8,0:0:0:0:
324,148,1122,1,8,0:0:0:0:
324,148,1497,1,0,0:0:0:0:
324,148,1872,1,8,0:0:0:0:
144,132,2060,1,0,0:0:0:0:
144,132,2247,1,8,0:0:0:0:
352,240,2622,1,8,0:0:0:0:
352,240,2997,1,0,0:0:0:0:
352,240,3372,1,8,0:0:0:0:
364,236,3560,1,4,0:0:0:0:
364,244,3747,1,8,0:0:0:0:
372,204,3935,1,0,0:0:0:0:
372,248,4122,1,8,0:0:0:0:
364,168,4497,1,8,0:0:0:0:
364,168,4685,1,0,0:0:0:0:
364,168,4872,1,8,0:0:0:0:
340,148,5247,1,8,0:0:0:0:
340,148,5435,1,0,0:0:0:0:
340,148,5622,1,8,0:0:0:0:
340,148,5810,1,8,0:0:0:0:
324,144,5997,1,0,0:0:0:0:
220,224,6091,1,0,0:0:0:0:
324,144,6185,1,0,0:0:0:0:
324,144,6372,1,8,0:0:0:0:
288,204,6560,1,4,0:0:0:0:
164,176,6747,1,8,0:0:0:0:
268,248,7122,1,8,0:0:0:0:
268,248,7497,1,0,0:0:0:0:
244,224,7872,1,8,0:0:0:0:
244,224,8247,1,8,0:0:0:0:
244,224,8622,1,0,0:0:0:0:
244,224,8997,1,8,0:0:0:0:
208,192,9560,1,0,0:0:0:0:
208,192,9747,1,0,0:0:0:0:
208,192,10122,1,8,0:0:0:0:
160,176,10497,1,0,0:0:0:0:
160,176,10872,1,8,0:0:0:0:
160,176,11247,1,8,0:0:0:0:
148,244,11622,1,0,0:0:0:0:
148,244,11997,1,8,0:0:0:0:
148,232,12560,1,0,0:0:0:0:
148,232,12747,1,0,0:0:0:0:
144,224,13122,1,8,0:0:0:0:
144,224,13497,1,0,0:0:0:0:
144,224,13872,1,8,0:0:0:0:
144,224,14247,1,8,0:0:0:0:
144,224,14622,1,0,0:0:0:0:
144,224,14997,1,8,0:0:0:0:
408,248,15560,1,0,0:0:0:0:
408,248,15747,1,0,0:0:0:0:
408,248,16122,1,8,0:0:0:0:
352,236,16685,1,0,0:0:0:0:
344,244,17060,1,12,0:0:0:0:
340,244,17435,1,4,0:0:0:0:
344,244,17810,1,4,0:0:0:0:
340,176,18560,1,0,0:0:0:0:
304,96,18747,1,8,0:0:0:0:
304,96,18935,1,0,0:0:0:0:
296,92,19122,1,8,0:0:0:0:
332,184,19497,1,8,0:0:0:0:
332,184,19685,1,0,0:0:0:0:
332,184,19872,1,8,0:0:0:0:
264,188,20060,1,0,0:0:0:0:
264,188,20247,1,0,0:0:0:0:
264,188,20435,1,8,0:0:0:0:
256,184,20622,1,0,0:0:0:0:
240,192,20997,1,0,0:0:0:0:
240,192,21185,1,8,0:0:0:0:
256,184,21560,1,0,0:0:0:0:
256,184,21747,1,0,0:0:0:0:
256,184,21935,1,8,0:0:0:0:
256,184,22122,1,0,0:0:0:0:
336,264,22497,1,0,0:0:0:0:
336,264,22685,1,8,0:0:0:0:
312,268,22872,1,0,0:0:0:0:
264,212,23060,1,8,0:0:0:0:
308,260,23247,1,8,0:0:0:0:
308,260,23435,1,0,0:0:0:0:
308,260,23622,1,8,0:0:0:0:
308,260,23997,1,0,0:0:0:0:
308,260,24185,1,8,0:0:0:0:
312,264,24560,1,0,0:0:0:0:
308,260,24747,1,8,0:0:0:0:
340,200,24935,1,0,0:0:0:0:
340,200,25122,1,8,0:0:0:0:
340,200,25497,1,8,0:0:0:0:
340,200,25685,1,0,0:0:0:0:
340,200,25872,1,8,0:0:0:0:
340,200,26060,1,0,0:0:0:0:
340,200,26247,1,0,0:0:0:0:
328,188,26435,1,8,0:0:0:0:
328,188,26622,1,0,0:0:0:0:
328,188,26997,1,0,0:0:0:0:
328,188,27185,1,8,0:0:0:0:
336,192,27372,1,8,0:0:0:0:
336,192,27560,1,0,0:0:0:0:
336,192,27935,1,8,0:0:0:0:
336,192,28122,1,0,0:0:0:0:
328,196,28310,1,8,0:0:0:0:
304,224,28685,1,0,0:0:0:0:
304,224,28872,1,0,0:0:0:0:
296,192,29060,1,12,0:0:0:0:
376,168,29435,1,4,0:0:0:0:
376,168,29810,1,4,0:0:0:0:
368,156,30560,1,0,0:0:0:0:
368,156,30935,1,8,0:0:0:0:
304,204,31122,1,8,0:0:0:0:
368,156,31310,1,0,0:0:0:0:
232,204,31497,1,0,0:0:0:0:
248,176,31685,1,8,0:0:0:0:
248,256,32060,1,0,0:0:0:0:
152,128,32435,1,8,0:0:0:0:
212,136,32622,1,0,0:0:0:0:
340,180,32810,1,8,0:0:0:0:
368,168,33185,1,8,0:0:0:0:
368,168,33560,1,0,0:0:0:0:
368,176,33935,1,8,0:0:0:0:
368,176,34122,1,0,0:0:0:0:
304,192,34310,1,8,0:0:0:0:
220,256,34497,1,8,0:0:0:0:
376,228,34685,1,0,0:0:0:0:
344,208,35060,1,8,0:0:0:0:
344,208,35435,1,0,0:0:0:0:
344,208,35622,1,0,0:0:0:0:
344,208,35810,1,8,0:0:0:0:
352,224,36185,1,8,0:0:0:0:
352,132,36560,1,0,0:0:0:0:
352,132,36935,1,8,0:0:0:0:
320,248,37122,1,8,0:0:0:0:
352,132,37310,1,0,0:0:0:0:
328,268,37497,1,0,0:0:0:0:
328,268,37685,1,8,0:0:0:0:
240,244,38060,1,0,0:0:0:0:
240,244,38435,1,8,0:0:0:0:
336,144,38622,1,0,0:0:0:0:
336,144,38810,1,8,0:0:0:0:
336,144,39185,1,8,0:0:0:0:
336,144,39560,1,0,0:0:0:0:
332,136,39935,1,8,0:0:0:0:
196,160,40122,1,8,0:0:0:0:
196,160,40310,1,0,0:0:0:0:
196,248,40497,1,8,0:0:0:0:
136,224,40685,1,0,0:0:0:0:
328,160,41060,1,12,0:0:0:0:
328,160,41435,1,4,0:0:0:0:
328,160,41810,1,12,0:0:0:0:
288,128,42560,1,8,0:0:0:0:
344,264,42747,1,0,0:0:0:0:
332,192,42935,1,8,0:0:0:0:
332,192,43122,1,0,0:0:0:0:
332,192,43310,1,8,0:0:0:0:
288,152,43685,1,8,0:0:0:0:
288,152,43872,1,0,0:0:0:0:
216,136,44060,1,8,0:0:0:0:
216,136,44247,1,8,0:0:0:0:
216,136,44435,1,0,0:0:0:0:
144,128,44622,1,0,0:0:0:0:
144,128,44810,1,8,0:0:0:0:
304,192,45185,1,8,0:0:0:0:
296,184,45560,1,0,0:0:0:0:
296,184,46310,1,8,0:0:0:0:
296,184,47060,1,0,0:0:0:0:
304,184,47247,1,0,0:0:0:0:
224,204,47622,1,0,0:0:0:0:
304,184,47810,1,8,0:0:0:0:
264,156,48560,1,4,0:0:0:0:
264,156,49310,1,4,0:0:0:0:
264,156,50060,1,12,0:0:0:0:
264,156,50435,1,4,0:0:0:0:
264,156,50810,1,12,0:0:0:0:
360,172,51560,1,0,0:0:0:0:
328,192,52122,1,0,0:0:0:0:
328,192,52310,1,8,0:0:0:0:
328,192,52872,1,0,0:0:0:0:
328,192,53060,1,0,0:0:0:0:
368,188,53622,1,0,0:0:0:0:
368,188,53810,1,8,0:0:0:0:
344,184,54560,1,0,0:0:0:0:
296,228,55122,1,0,0:0:0:0:
296,228,55310,1,8,0:0:0:0:
256,208,55685,1,0,0:0:0:0:
296,228,56060,1,0,0:0:0:0:
264,208,56622,1,0,0:0:0:0:
264,208,56810,1,8,0:0:0:0:
272,224,57185,1,8,0:0:0:0:
272,224,57560,1,0,0:0:0:0:
276,224,59997,1,8,0:0:0:0:
276,224,60185,1,8,0:0:0:0:
232,220,60560,1,4,0:0:0:0:
328,132,60935,1,8,0:0:0:0:
328,132,61122,1,8,0:0:0:0:
308,120,61310,1,4,0:0:0:0:
308,120,61685,1,8,0:0:0:0:
296,116,61872,1,0,0:0:0:0:
320,128,62060,1,12,0:0:0:0:
320,128,62435,1,4,0:0:0:0:
320,128,62810,1,4,0:0:0:0:
336,184,63560,1,4,0:0:0:0:
224,292,63935,1,0,0:0:0:0:
224,292,64122,1,0,0:0:0:0:
224,292,64310,1,8,0:0:0:0:
224,292,64685,1,0,0:0:0:0:
224,292,64872,1,8,0:0:0:0:
108,120,65060,1,8,0:0:0:0:
232,236,65435,1,0,0:0:0:0:
312,216,65622,1,0,0:0:0:0:
348,200,65810,1,8,0:0:0:0:
292,276,65997,1,0,0:0:0:0:
276,268,66185,1,8,0:0:0:0:
276,268,66278,1,8,0:0:0:0:
272,116,66372,1,8,0:0:0:0:
224,260,66560,1,0,0:0:0:0:
352,172,66935,1,8,0:0:0:0:
352,172,67122,1,0,0:0:0:0:
288,176,67310,1,8,0:0:0:0:
288,176,67497,1,8,0:0:0:0:
284,192,67685,1,0,0:0:0:0:
284,232,67778,1,0,0:0:0:0:
284,192,67872,1,0,0:0:0:0:
284,192,68060,1,8,0:0:0:0:
324,128,68435,1,0,0:0:0:0:
324,128,68622,1,0,0:0:0:0:
324,128,68810,1,8,0:0:0:0:
324,172,68997,1,0,0:0:0:0:
272,168,69185,1,8,0:0:0:0:
280,244,69278,1,8,0:0:0:0:
324,172,69372,1,8,0:0:0:0:
272,168,69560,1,0,0:0:0:0:
260,292,69935,1,0,0:0:0:0:
248,296,70122,1,0,0:0:0:0:
248,296,70310,1,8,0:0:0:0:
268,320,70685,1,0,0:0:0:0:
268,320,70872,1,8,0:0:0:0:
268,320,71060,1,8,0:0:0:0:
292,216,71435,1,0,0:0:0:0:
292,216,71622,1,0,0:0:0:0:
292,216,71810,1,8,0:0:0:0:
216,108,71997,1,0,0:0:0:0:
216,108,72185,1,8,0:0:0:0:
216,108,72278,1,8,0:0:0:0:
216,108,72372,1,8,0:0:0:0:
216,108,72560,1,4,0:0:0:0:
324,232,73497,1,0,0:0:0:0:
324,232,73685,1,8,0:0:0:0:
304,172,74060,1,4,0:0:0:0:
224,60,74247,1,8,0:0:0:0:
292,8,74435,1,0,0:0:0:0:
316,80,74622,1,8,0:0:0:0:
316,80,74997,1,0,0:0:0:0:
300,208,75372,1,8,0:0:0:0:
300,208,75560,1,0,0:0:0:0:
300,208,75747,1,8,0:0:0:0:
300,208,75935,1,0,0:0:0:0:
248,188,76122,1,8,0:0:0:0:
248,188,76497,1,0,0:0:0:0:
248,188,76872,1,8,0:0:0:0:
248,188,77060,1,0,0:0:0:0:
248,188,77247,1,8,0:0:0:0:
160,184,77435,1,0,0:0:0:0:
160,184,77622,1,8,0:0:0:0:
292,156,77997,1,8,0:0:0:0:
292,156,78185,1,0,0:0:0:0:
204,136,78372,1,8,0:0:0:0:
204,136,78747,1,8,0:0:0:0:
204,136,78935,1,0,0:0:0:0:
204,136,79122,1,8,0:0:0:0:
204,136,79310,1,8,0:0:0:0:
204,136,79497,1,0,0:0:0:0:
204,136,79591,1,0,0:0:0:0:
188,132,79685,1,0,0:0:0:0:
188,132,79872,1,8,0:0:0:0:
188,132,80060,1,4,0:0:0:0:
292,112,80247,1,8,0:0:0:0:
292,112,80435,1,0,0:0:0:0:
292,112,80622,1,8,0:0:0:0:
400,88,80997,1,8,0:0:0:0:
400,88,81185,1,0,0:0:0:0:
400,88,81372,1,8,0:0:0:0:
400,88,81560,1,0,0:0:0:0:
400,88,81747,1,8,0:0:0:0:
400,88,81935,1,0,0:0:0:0:
400,88,82122,1,8,0:0:0:0:
344,240,82497,1,8,0:0:0:0:
344,240,82685,1,0,0:0:0:0:
344,240,82872,1,8,0:0:0:0:
344,240,83060,1,0,0:0:0:0:
164,196,83247,1,8,0:0:0:0:
196,248,83435,1,0,0:0:0:0:
196,248,83622,1,8,0:0:0:0:
196,248,83997,1,8,0:0:0:0:
196,248,84185,1,0,0:0:0:0:
160,224,84372,1,8,0:0:0:0:
380,200,84560,1,0,0:0:0:0:
264,168,84747,1,8,0:0:0:0:
288,208,84935,1,0,0:0:0:0:
192,176,85122,1,8,0:0:0:0:
288,208,85310,1,8,0:0:0:0:
188,184,85497,1,0,0:0:0:0:
268,116,85591,1,0,0:0:0:0:
268,116,85685,1,0,0:0:0:0:
268,116,85872,1,8,0:0:0:0:
268,116,86060,1,4,0:0:0:0:
