osu file format v14

[General]
AudioFilename: audio.mp3
AudioLeadIn: 0
PreviewTime: 63185
Countdown: 0
SampleSet: Normal
StackLeniency: 0.7
Mode: 3
LetterboxInBreaks: 0
SpecialStyle: 0
WidescreenStoryboard: 0

[Editor]
Bookmarks: 6560,18560,30560,42560,51560
DistanceSpacing: 1
BeatDivisor: 4
GridSize: 4
TimelineZoom: 3.299998

[Metadata]
Title:Shinzou o Sasageyo! [TV Size]
TitleUnicode:心臓を捧げよ! [TV Size]
Artist:Linked Horizon
ArtistUnicode:Linked Horizon
Creator:puxtu
Version:MX
Source:進撃の巨人
Tags:Chromoxx Opfert eure Herzen! Attack on Titan shingeki no kyojin season aot snk 2 two dedicate all your hearts 澤野 弘之 hiroyuki sawano revo 諌山 創 Hajime Isayama 進撃の軌跡 Shingeki no Kiseki 鎌仲泰郎Yasuo Kamanaka Sound Opening Theme PCCA-04540 PCCA-04539
BeatmapID:1260095
BeatmapSetID:595844

[Difficulty]
HPDrainRate:8.5
CircleSize:4
OverallDifficulty:8.5
ApproachRate:5
SliderMultiplier:1.4
SliderTickRate:1

[Events]
//Background and Video events
0,0,"35783775_p0.jpg",0,0
//Break Periods
//Storyboard Layer 0 (Background)
//Storyboard Layer 1 (Fail)
//Storyboard Layer 2 (Pass)
//Storyboard Layer 3 (Foreground)
//Storyboard Sound Samples

[TimingPoints]
560,375,4,1,4,50,1,0
63560,-100,4,1,4,50,0,1
72560,-100,4,1,4,50,0,0
74060,-100,4,1,4,50,0,1
79685,-100,4,1,4,50,0,0
80060,-100,4,1,4,50,0,1
86060,-100,4,1,4,50,0,0

[HitObjects]
320,192,560,5,2,2:0:0:0:
64,192,747,1,2,2:0:0:0:
448,192,1122,1,2,2:0:0:0:
192,192,1497,1,2,2:0:0:0:
320,192,1872,1,2,2:0:0:0:
64,192,2060,1,2,2:0:0:0:
448,192,2247,1,2,2:0:0:0:
192,192,2622,1,2,2:0:0:0:
320,192,2997,1,2,2:0:0:0:
192,192,3372,1,2,2:0:0:0:
64,192,3560,1,4,0:0:0:0:
320,192,3560,1,2,0:0:0:0:
448,192,3560,1,0,0:0:0:0:
192,192,3653,1,0,0:0:0:0:
64,192,3747,1,4,0:0:0:0:
448,192,3747,1,0,0:0:0:0:
320,192,3747,1,2,0:0:0:0:
192,192,3841,1,0,0:0:0:0:
448,192,3935,1,0,0:0:0:0:
320,192,4028,1,0,0:0:0:0:
192,192,4122,1,2,0:0:0:0:
448,192,4122,1,0,0:0:0:0:
64,192,4122,1,4,0:0:0:0:
320,192,4216,1,0,0:0:0:0:
192,192,4310,1,0,0:0:0:0:
64,192,4403,1,8,3:0:0:0:
320,192,4497,1,4,0:0:0:0:
448,192,4497,1,0,0:0:0:0:
192,192,4497,1,2,0:0:0:0:
64,192,4591,1,0,0:0:0:0:
448,192,4685,1,8,3:0:0:0:
320,192,4685,1,0,0:0:0:0:
192,192,4778,1,8,3:0:0:0:
320,192,4872,1,2,0:0:0:0:
448,192,4872,1,0,0:0:0:0:
64,192,4872,1,4,0:0:0:0:
192,192,4966,1,0,0:0:0:0:
64,192,5060,1,0,0:0:0:0:
448,192,5153,1,0,0:0:0:0:
64,192,5247,1,4,0:0:0:0:
320,192,5247,1,0,0:0:0:0:
192,192,5247,1,2,0:0:0:0:
448,192,5341,1,0,0:0:0:0:
192,192,5435,1,0,0:0:0:0:
320,192,5528,1,0,0:0:0:0:
448,192,5622,1,2,0:0:0:0:
192,192,5622,1,0,0:0:0:0:
64,192,5622,1,4,0:0:0:0:
320,192,5716,1,0,0:0:0:0:
64,192,5810,1,8,3:0:0:0:
448,192,5810,1,0,0:0:0:0:
192,192,5903,1,8,3:0:0:0:
320,192,5997,1,4,0:0:0:0:
64,192,5997,1,8,3:0:0:0:
448,192,5997,1,2,0:0:0:0:
192,192,6091,1,8,3:0:0:0:
448,192,6185,1,8,3:0:0:0:
64,192,6185,1,0,0:0:0:0:
320,192,6278,1,8,3:0:0:0:
192,192,6372,1,2,0:0:0:0:
64,192,6372,1,0,0:0:0:0:
448,192,6372,1,4,0:0:0:0:
320,192,6466,1,8,3:0:0:0:
448,192,6560,1,4,0:0:0:0:
64,192,6560,1,0,0:0:0:0:
192,192,6560,1,2,0:0:0:0:
320,192,6747,1,2,0:0:0:0:
320,192,6935,1,2,0:0:0:0:
64,192,6935,1,0,0:0:0:0:
448,192,7122,1,2,0:0:0:0:
192,192,7310,1,0,0:0:0:0:
448,192,7310,1,2,0:0:0:0:
64,192,7497,1,2,0:0:0:0:
320,192,7685,1,0,0:0:0:0:
64,192,7685,1,2,0:0:0:0:
192,192,7872,1,2,0:0:0:0:
320,192,7966,1,2,0:0:0:0:
192,192,8060,1,2,0:0:0:0:
448,192,8060,1,0,0:0:0:0:
64,192,8060,1,8,0:0:0:0:
64,192,8247,1,2,0:0:0:0:
448,192,8435,1,0,0:0:0:0:
64,192,8435,1,2,0:0:0:0:
320,192,8622,1,2,0:0:0:0:
192,192,8810,1,0,0:0:0:0:
320,192,8810,1,2,0:0:0:0:
64,192,8997,1,2,0:0:0:0:
192,192,9185,1,8,3:0:0:0:
448,192,9185,1,2,0:0:0:0:
320,192,9278,1,8,3:0:0:0:
64,192,9278,1,0,0:0:0:0:
192,192,9372,1,8,3:0:0:0:
448,192,9372,1,0,0:0:0:0:
64,192,9560,1,2,0:0:0:0:
192,192,9560,1,0,0:0:0:0:
320,192,9560,1,8,3:0:0:0:
448,192,9747,1,2,0:0:0:0:
448,192,9935,1,2,0:0:0:0:
64,192,9935,1,0,0:0:0:0:
320,192,10122,1,2,0:0:0:0:
320,192,10310,1,0,0:0:0:0:
64,192,10310,1,2,0:0:0:0:
192,192,10497,1,2,0:0:0:0:
192,192,10685,1,0,0:0:0:0:
448,192,10685,1,2,0:0:0:0:
320,192,10872,1,2,0:0:0:0:
192,192,10966,1,2,0:0:0:0:
320,192,11060,1,2,0:0:0:0:
64,192,11060,1,0,0:0:0:0:
448,192,11060,1,8,0:0:0:0:
192,192,11247,1,2,0:0:0:0:
192,192,11435,1,0,0:0:0:0:
448,192,11435,1,2,0:0:0:0:
320,192,11622,1,2,0:0:0:0:
320,192,11810,1,0,0:0:0:0:
64,192,11810,1,2,0:0:0:0:
448,192,11997,1,2,0:0:0:0:
64,192,12185,1,8,3:0:0:0:
192,192,12185,1,2,0:0:0:0:
320,192,12278,1,8,3:0:0:0:
448,192,12278,1,0,0:0:0:0:
192,192,12372,1,8,3:0:0:0:
64,192,12372,1,0,0:0:0:0:
448,192,12560,1,2,0:0:0:0:
64,192,12560,1,0,0:0:0:0:
320,192,12560,1,4,0:0:0:0:
192,192,12747,1,2,0:0:0:0:
320,192,12935,1,2,0:0:0:0:
64,192,12935,1,0,0:0:0:0:
448,192,13122,1,2,0:0:0:0:
320,192,13216,1,2,0:0:0:0:
192,192,13310,1,0,0:0:0:0:
448,192,13310,1,2,0:0:0:0:
64,192,13310,1,8,0:0:0:0:
320,192,13497,1,2,0:0:0:0:
320,192,13685,1,0,0:0:0:0:
64,192,13685,1,2,0:0:0:0:
192,192,13872,1,2,0:0:0:0:
320,192,13966,1,2,0:0:0:0:
192,192,14060,1,2,0:0:0:0:
448,192,14060,1,0,0:0:0:0:
64,192,14060,1,8,3:0:0:0:
320,192,14247,1,2,0:0:0:0:
320,192,14435,1,0,0:0:0:0:
64,192,14435,1,2,0:0:0:0:
192,192,14622,1,2,0:0:0:0:
448,192,14716,1,2,0:0:0:0:
192,192,14810,1,0,0:0:0:0:
320,192,14810,1,2,0:0:0:0:
64,192,14810,1,8,0:0:0:0:
448,192,14997,1,2,0:0:0:0:
192,192,15091,1,2,0:0:0:0:
320,192,15185,1,2,0:0:0:0:
64,192,15185,1,0,0:0:0:0:
448,192,15278,1,2,0:0:0:0:
192,192,15372,1,2,0:0:0:0:
320,192,15466,1,2,0:0:0:0:
64,192,15560,1,2,0:0:0:0:
448,192,15560,1,0,0:0:0:0:
192,192,15560,1,8,0:0:0:0:
320,192,15747,1,2,0:0:0:0:
448,192,15935,1,2,0:0:0:0:
320,192,15935,1,0,0:0:0:0:
64,192,16122,1,2,0:0:0:0:
192,192,16216,1,2,0:0:0:0:
320,192,16310,1,0,0:0:0:0:
64,192,16310,1,2,0:0:0:0:
448,192,16310,1,8,3:0:0:0:
320,192,16497,1,2,0:0:0:0:
192,192,16685,1,0,0:0:0:0:
448,192,16685,1,2,0:0:0:0:
320,192,16872,1,2,0:0:0:0:
192,192,16966,1,2,0:0:0:0:
64,192,17060,1,2,0:0:0:0:
448,192,17060,1,0,0:0:0:0:
320,192,17060,1,4,0:0:0:0:
192,192,17247,1,8,3:0:0:0:
448,192,17247,1,0,0:0:0:0:
320,192,17341,1,8,3:0:0:0:
192,192,17435,1,2,0:0:0:0:
64,192,17435,1,4,0:0:0:0:
448,192,17435,1,8,3:0:0:0:
320,192,17622,1,8,3:0:0:0:
64,192,17622,1,0,0:0:0:0:
192,192,17716,1,8,3:0:0:0:
448,192,17810,1,8,3:0:0:0:
320,192,17810,1,4,0:0:0:0:
64,192,17810,1,2,0:0:0:0:
192,192,17997,1,8,3:0:0:0:
448,192,17997,1,0,0:0:0:0:
320,192,18091,1,8,3:0:0:0:
192,192,18185,1,2,0:0:0:0:
448,192,18185,1,4,0:0:0:0:
64,192,18185,1,8,3:0:0:0:
320,192,18278,1,8,3:0:0:0:
192,192,18372,1,8,3:0:0:0:
320,192,18466,1,8,3:0:0:0:
448,192,18560,1,2,0:0:0:0:
64,192,18560,1,0,0:0:0:0:
192,192,18560,1,4,0:0:0:0:
320,192,18747,1,2,0:0:0:0:
64,192,18747,1,0,0:0:0:0:
192,192,18841,1,2,0:0:0:0:
448,192,18935,1,0,0:0:0:0:
320,192,18935,1,2,0:0:0:0:
192,192,19122,1,2,0:0:0:0:
64,192,19122,1,0,0:0:0:0:
320,192,19216,1,2,0:0:0:0:
448,192,19310,1,0,0:0:0:0:
64,192,19310,1,2,0:0:0:0:
192,192,19497,1,2,0:0:0:0:
320,192,19497,1,0,0:0:0:0:
64,192,19591,1,2,0:0:0:0:
448,192,19685,1,0,0:0:0:0:
320,192,19685,1,2,0:0:0:0:
64,192,19872,1,0,0:0:0:0:
192,192,19872,1,2,0:0:0:0:
320,192,19966,1,2,0:0:0:0:
448,192,20060,1,2,0:0:0:0:
64,192,20060,1,0,0:0:0:0:
192,192,20247,1,2,0:0:0:0:
320,192,20247,1,0,0:0:0:0:
64,192,20341,1,2,0:0:0:0:
448,192,20435,1,0,0:0:0:0:
192,192,20435,1,2,0:0:0:0:
320,192,20622,1,2,0:0:0:0:
64,192,20622,1,0,0:0:0:0:
192,192,20716,1,2,0:0:0:0:
320,192,20810,1,0,0:0:0:0:
448,192,20810,1,2,0:0:0:0:
192,192,20997,1,2,0:0:0:0:
64,192,20997,1,0,0:0:0:0:
320,192,21091,1,2,0:0:0:0:
448,192,21185,1,0,0:0:0:0:
192,192,21185,1,2,0:0:0:0:
64,192,21185,1,4,0:0:0:0:
448,192,21372,1,0,0:0:0:0:
320,192,21372,1,2,0:0:0:0:
192,192,21466,1,2,0:0:0:0:
64,192,21560,1,2,0:0:0:0:
448,192,21560,1,0,0:0:0:0:
320,192,21560,1,4,0:0:0:0:
192,192,21747,1,2,0:0:0:0:
64,192,21747,1,0,0:0:0:0:
320,192,21841,1,2,0:0:0:0:
448,192,21935,1,0,0:0:0:0:
192,192,21935,1,2,0:0:0:0:
320,192,22122,1,2,0:0:0:0:
64,192,22122,1,0,0:0:0:0:
192,192,22216,1,2,0:0:0:0:
64,192,22310,1,0,0:0:0:0:
448,192,22310,1,2,0:0:0:0:
320,192,22497,1,2,0:0:0:0:
192,192,22497,1,0,0:0:0:0:
448,192,22591,1,2,0:0:0:0:
64,192,22685,1,0,0:0:0:0:
192,192,22685,1,2,0:0:0:0:
448,192,22872,1,0,0:0:0:0:
320,192,22872,1,2,0:0:0:0:
192,192,22966,1,2,0:0:0:0:
64,192,23060,1,2,0:0:0:0:
448,192,23060,1,0,0:0:0:0:
320,192,23247,1,2,0:0:0:0:
192,192,23247,1,0,0:0:0:0:
448,192,23341,1,2,0:0:0:0:
64,192,23435,1,0,0:0:0:0:
320,192,23435,1,2,0:0:0:0:
192,192,23622,1,2,0:0:0:0:
448,192,23622,1,0,0:0:0:0:
320,192,23716,1,2,0:0:0:0:
448,192,23810,1,0,0:0:0:0:
64,192,23810,1,2,0:0:0:0:
192,192,23997,1,2,0:0:0:0:
320,192,23997,1,0,0:0:0:0:
448,192,24091,1,2,0:0:0:0:
64,192,24185,1,0,0:0:0:0:
192,192,24185,1,2,0:0:0:0:
320,192,24185,1,4,0:0:0:0:
448,192,24278,1,2,0:0:0:0:
64,192,24372,1,0,0:0:0:0:
320,192,24372,1,2,0:0:0:0:
192,192,24466,1,2,0:0:0:0:
448,192,24560,1,2,0:0:0:0:
64,192,24560,1,0,0:0:0:0:
320,192,24560,1,4,0:0:0:0:
448,192,24747,1,0,0:0:0:0:
192,192,24747,1,2,0:0:0:0:
64,192,24841,1,2,0:0:0:0:
192,192,24935,1,2,0:0:0:0:
320,192,24935,1,0,0:0:0:0:
64,192,25122,1,0,0:0:0:0:
448,192,25122,1,2,0:0:0:0:
192,192,25216,1,2,0:0:0:0:
448,192,25310,1,2,0:0:0:0:
320,192,25310,1,0,0:0:0:0:
192,192,25497,1,0,0:0:0:0:
64,192,25497,1,2,0:0:0:0:
448,192,25591,1,2,0:0:0:0:
320,192,25685,1,2,0:0:0:0:
64,192,25685,1,0,0:0:0:0:
192,192,25872,1,2,0:0:0:0:
448,192,25872,1,0,0:0:0:0:
320,192,25966,1,2,0:0:0:0:
448,192,26060,1,0,0:0:0:0:
64,192,26060,1,2,0:0:0:0:
192,192,26060,1,4,0:0:0:0:
320,192,26247,1,0,0:0:0:0:
64,192,26247,1,2,0:0:0:0:
448,192,26341,1,2,0:0:0:0:
320,192,26435,1,2,0:0:0:0:
192,192,26435,1,0,0:0:0:0:
448,192,26622,1,0,0:0:0:0:
64,192,26622,1,2,0:0:0:0:
320,192,26716,1,2,0:0:0:0:
192,192,26810,1,2,0:0:0:0:
448,192,26810,1,0,0:0:0:0:
320,192,26997,1,0,0:0:0:0:
64,192,26997,1,2,0:0:0:0:
448,192,27091,1,2,0:0:0:0:
192,192,27185,1,2,0:0:0:0:
64,192,27185,1,0,0:0:0:0:
320,192,27278,1,2,0:0:0:0:
448,192,27372,1,2,0:0:0:0:
64,192,27372,1,0,0:0:0:0:
192,192,27466,1,2,0:0:0:0:
320,192,27560,1,4,0:0:0:0:
64,192,27560,1,0,0:0:0:0:
448,192,27560,1,2,0:0:0:0:
320,192,27747,1,8,3:0:0:0:
192,192,27747,1,2,0:0:0:0:
448,192,27841,1,8,3:0:0:0:
64,192,27841,1,2,0:0:0:0:
320,192,27935,1,8,3:0:0:0:
192,192,27935,1,2,0:0:0:0:
448,192,28122,1,2,0:0:0:0:
64,192,28122,1,8,3:0:0:0:
320,192,28216,1,2,0:0:0:0:
192,192,28216,1,8,3:0:0:0:
64,192,28310,1,8,3:0:0:0:
448,192,28310,1,2,0:0:0:0:
192,192,28497,1,8,3:0:0:0:
64,192,28497,1,2,0:0:0:0:
320,192,28591,1,8,3:0:0:0:
448,192,28591,1,2,0:0:0:0:
64,192,28685,1,2,0:0:0:0:
192,192,28685,1,8,3:0:0:0:
448,192,28872,1,2,0:0:0:0:
320,192,28872,1,8,3:0:0:0:
192,192,28966,1,8,3:0:0:0:
64,192,29060,1,4,0:0:0:0:
320,192,29060,1,8,3:0:0:0:
448,192,29060,1,0,0:0:0:0:
192,192,29153,1,8,3:0:0:0:
64,192,29247,1,8,3:0:0:0:
320,192,29341,1,8,3:0:0:0:
192,192,29435,5,8,3:0:0:0:
64,192,29435,1,2,0:0:0:0:
448,192,29435,1,4,0:0:0:0:
320,192,29528,1,8,3:0:0:0:
192,192,29622,1,8,3:0:0:0:
320,192,29716,1,8,3:0:0:0:
448,192,29810,1,4,0:0:0:0:
64,192,29810,1,2,0:0:0:0:
192,192,29810,1,8,3:0:0:0:
320,192,29903,1,8,3:0:0:0:
448,192,29997,1,8,3:0:0:0:
192,192,30091,1,8,3:0:0:0:
448,192,30185,1,8,3:0:0:0:
320,192,30185,1,4,0:0:0:0:
64,192,30185,1,2,0:0:0:0:
192,192,30278,1,8,3:0:0:0:
64,192,30372,1,8,3:0:0:0:
320,192,30466,1,8,3:0:0:0:
64,192,30560,5,2,0:0:0:0:
192,192,30560,1,4,0:0:0:0:
448,192,30560,1,0,0:0:0:0:
320,192,30747,1,2,0:0:0:0:
192,192,30841,1,2,0:0:0:0:
64,192,30935,1,2,0:0:0:0:
448,192,30935,1,0,0:0:0:0:
320,192,30935,1,8,0:0:0:0:
192,192,31122,1,2,0:0:0:0:
320,192,31216,1,2,0:0:0:0:
192,192,31310,1,2,0:0:0:0:
448,192,31310,1,0,0:0:0:0:
320,192,31497,1,2,0:0:0:0:
192,192,31591,1,2,0:0:0:0:
64,192,31685,1,2,0:0:0:0:
448,192,31685,1,8,0:0:0:0:
320,192,31685,1,0,0:0:0:0:
192,192,31872,1,2,0:0:0:0:
320,192,31966,1,2,0:0:0:0:
64,192,32060,1,2,0:0:0:0:
448,192,32060,1,0,0:0:0:0:
192,192,32247,1,2,0:0:0:0:
320,192,32341,1,2,0:0:0:0:
448,192,32435,1,2,0:0:0:0:
64,192,32435,1,0,0:0:0:0:
192,192,32435,1,8,0:0:0:0:
320,192,32622,1,2,0:0:0:0:
448,192,32716,1,2,0:0:0:0:
320,192,32810,1,2,0:0:0:0:
64,192,32810,1,0,0:0:0:0:
192,192,32810,1,4,0:0:0:0:
448,192,32997,1,2,0:0:0:0:
320,192,33091,1,2,0:0:0:0:
448,192,33185,1,4,0:0:0:0:
64,192,33185,1,8,0:0:0:0:
192,192,33185,1,0,0:0:0:0:
320,192,33372,1,2,0:0:0:0:
192,192,33466,1,2,0:0:0:0:
448,192,33560,1,2,0:0:0:0:
320,192,33560,1,0,0:0:0:0:
64,192,33560,1,4,0:0:0:0:
192,192,33747,1,2,0:0:0:0:
64,192,33841,1,2,0:0:0:0:
448,192,33935,1,2,0:0:0:0:
320,192,33935,1,0,0:0:0:0:
192,192,33935,1,8,0:0:0:0:
64,192,34122,1,2,0:0:0:0:
192,192,34216,1,2,0:0:0:0:
320,192,34310,1,2,0:0:0:0:
64,192,34310,1,0,0:0:0:0:
448,192,34497,1,2,0:0:0:0:
320,192,34591,1,2,0:0:0:0:
448,192,34685,1,2,0:0:0:0:
64,192,34685,1,8,0:0:0:0:
192,192,34685,1,0,0:0:0:0:
320,192,34872,1,2,0:0:0:0:
192,192,34966,1,2,0:0:0:0:
448,192,35060,1,2,0:0:0:0:
320,192,35060,1,0,0:0:0:0:
64,192,35247,1,2,0:0:0:0:
192,192,35341,1,2,0:0:0:0:
64,192,35435,1,2,0:0:0:0:
448,192,35435,1,0,0:0:0:0:
320,192,35435,1,8,0:0:0:0:
192,192,35622,1,2,0:0:0:0:
320,192,35716,1,2,0:0:0:0:
192,192,35810,1,2,0:0:0:0:
448,192,35810,1,0,0:0:0:0:
64,192,35810,1,4,0:0:0:0:
320,192,35997,1,2,0:0:0:0:
192,192,36091,1,2,0:0:0:0:
64,192,36185,1,4,0:0:0:0:
448,192,36185,1,8,0:0:0:0:
320,192,36185,1,0,0:0:0:0:
192,192,36278,1,2,0:0:0:0:
64,192,36372,1,2,0:0:0:0:
320,192,36466,1,2,0:0:0:0:
64,192,36560,1,2,0:0:0:0:
192,192,36560,1,0,0:0:0:0:
448,192,36560,1,4,0:0:0:0:
320,192,36747,1,2,0:0:0:0:
192,192,36841,1,2,0:0:0:0:
64,192,36935,1,8,0:0:0:0:
320,192,36935,1,0,0:0:0:0:
448,192,36935,1,2,0:0:0:0:
192,192,37122,1,2,0:0:0:0:
320,192,37216,1,2,0:0:0:0:
64,192,37310,1,0,0:0:0:0:
192,192,37310,1,2,0:0:0:0:
448,192,37497,1,2,0:0:0:0:
320,192,37591,1,2,0:0:0:0:
192,192,37685,1,0,0:0:0:0:
64,192,37685,1,8,0:0:0:0:
448,192,37685,1,2,0:0:0:0:
320,192,37872,1,2,0:0:0:0:
192,192,37966,1,2,0:0:0:0:
320,192,38060,1,0,0:0:0:0:
448,192,38060,1,2,0:0:0:0:
64,192,38247,1,2,0:0:0:0:
192,192,38341,1,2,0:0:0:0:
320,192,38435,1,8,0:0:0:0:
448,192,38435,1,0,0:0:0:0:
64,192,38435,1,2,0:0:0:0:
192,192,38622,1,2,0:0:0:0:
320,192,38716,1,2,0:0:0:0:
64,192,38810,1,4,0:0:0:0:
448,192,38810,1,0,0:0:0:0:
192,192,38810,1,2,0:0:0:0:
320,192,38997,1,2,0:0:0:0:
192,192,39091,1,2,0:0:0:0:
320,192,39185,1,0,0:0:0:0:
448,192,39185,1,8,0:0:0:0:
64,192,39185,1,4,0:0:0:0:
192,192,39372,1,2,0:0:0:0:
320,192,39466,1,2,0:0:0:0:
448,192,39560,1,4,0:0:0:0:
192,192,39560,1,0,0:0:0:0:
64,192,39560,1,2,0:0:0:0:
320,192,39747,1,2,0:0:0:0:
192,192,39841,1,2,0:0:0:0:
448,192,39935,1,2,0:0:0:0:
320,192,39935,1,0,0:0:0:0:
64,192,39935,1,8,0:0:0:0:
192,192,40122,1,2,0:0:0:0:
320,192,40216,1,2,0:0:0:0:
448,192,40310,1,2,0:0:0:0:
64,192,40310,1,0,0:0:0:0:
192,192,40497,1,2,0:0:0:0:
320,192,40591,1,2,0:0:0:0:
448,192,40685,1,2,0:0:0:0:
64,192,40685,1,8,0:0:0:0:
192,192,40685,1,0,0:0:0:0:
320,192,40872,1,2,0:0:0:0:
192,192,40966,1,2,0:0:0:0:
448,192,41060,1,2,0:0:0:0:
320,192,41060,1,0,0:0:0:0:
64,192,41060,1,4,0:0:0:0:
192,192,41247,1,0,0:0:0:0:
448,192,41247,1,2,0:0:0:0:
320,192,41341,1,0,0:0:0:0:
192,192,41435,1,2,0:0:0:0:
448,192,41435,1,0,0:0:0:0:
64,192,41435,1,4,0:0:0:0:
320,192,41622,1,0,0:0:0:0:
64,192,41622,1,2,0:0:0:0:
192,192,41716,1,0,0:0:0:0:
320,192,41810,1,4,0:0:0:0:
448,192,41810,1,2,0:0:0:0:
64,192,41810,1,0,0:0:0:0:
192,192,41997,1,8,0:0:0:0:
64,192,41997,1,0,0:0:0:0:
320,192,42091,1,8,0:0:0:0:
448,192,42091,1,0,0:0:0:0:
192,192,42185,1,4,0:0:0:0:
64,192,42185,1,0,0:0:0:0:
320,192,42278,1,8,0:0:0:0:
448,192,42278,1,0,0:0:0:0:
192,192,42372,1,8,0:0:0:0:
64,192,42372,1,0,0:0:0:0:
448,192,42466,1,0,0:0:0:0:
320,192,42466,1,8,0:0:0:0:
64,192,42560,1,2,0:0:0:0:
192,192,42560,1,0,0:0:0:0:
448,192,42560,1,4,0:0:0:0:
320,192,42747,1,2,0:0:0:0:
192,192,42747,1,0,0:0:0:0:
64,192,42841,1,0,0:0:0:0:
192,192,42935,1,0,0:0:0:0:
448,192,42935,1,2,0:0:0:0:
320,192,42935,1,8,0:0:0:0:
448,192,43122,1,0,0:0:0:0:
64,192,43122,1,2,0:0:0:0:
320,192,43216,1,0,0:0:0:0:
192,192,43310,1,2,0:0:0:0:
448,192,43310,1,8,0:0:0:0:
64,192,43310,1,0,0:0:0:0:
320,192,43497,1,2,0:0:0:0:
192,192,43497,1,0,0:0:0:0:
64,192,43591,1,0,0:0:0:0:
192,192,43685,1,0,0:0:0:0:
320,192,43685,1,8,0:0:0:0:
448,192,43685,1,2,0:0:0:0:
64,192,43872,1,0,0:0:0:0:
448,192,43872,1,2,0:0:0:0:
192,192,43966,1,0,0:0:0:0:
320,192,44060,1,2,0:0:0:0:
448,192,44060,1,8,0:0:0:0:
64,192,44060,1,0,0:0:0:0:
320,192,44247,1,2,0:0:0:0:
192,192,44247,1,0,0:0:0:0:
448,192,44341,1,0,0:0:0:0:
192,192,44435,1,0,0:0:0:0:
320,192,44435,1,8,0:0:0:0:
64,192,44435,1,2,0:0:0:0:
64,192,44622,1,0,0:0:0:0:
448,192,44622,1,2,0:0:0:0:
320,192,44716,1,0,0:0:0:0:
64,192,44810,1,0,0:0:0:0:
192,192,44810,1,8,0:0:0:0:
320,192,44903,1,8,0:0:0:0:
448,192,44903,1,0,0:0:0:0:
192,192,44997,1,8,0:0:0:0:
64,192,44997,1,0,0:0:0:0:
320,192,45091,1,8,0:0:0:0:
448,192,45091,1,0,0:0:0:0:
192,192,45185,1,2,0:0:0:0:
320,192,45185,1,8,0:0:0:0:
64,192,45185,1,0,0:0:0:0:
448,192,45372,1,2,0:0:0:0:
320,192,45466,1,2,0:0:0:0:
192,192,45560,1,4,0:0:0:0:
64,192,45560,1,0,0:0:0:0:
448,192,45560,1,2,0:0:0:0:
320,192,45935,1,2,0:0:0:0:
448,192,46310,1,8,0:0:0:0:
192,192,46310,1,0,0:0:0:0:
320,192,46310,1,2,0:0:0:0:
64,192,46685,1,2,0:0:0:0:
320,192,46872,1,0,0:0:0:0:
448,192,46872,1,2,0:0:0:0:
448,192,47060,1,2,0:0:0:0:
320,192,47060,1,0,0:0:0:0:
192,192,47247,1,8,0:0:0:0:
64,192,47247,1,0,0:0:0:0:
448,192,47247,1,2,0:0:0:0:
320,192,47435,1,2,0:0:0:0:
192,192,47622,1,2,0:0:0:0:
64,192,47622,1,0,0:0:0:0:
320,192,47810,1,2,0:0:0:0:
448,192,47810,1,8,0:0:0:0:
64,192,47810,1,0,0:0:0:0:
192,192,47997,1,0,0:0:0:0:
448,192,47997,1,2,0:0:0:0:
320,192,48185,1,2,0:0:0:0:
64,192,48185,1,0,0:0:0:0:
448,192,48278,1,2,0:0:0:0:
192,192,48372,1,2,0:0:0:0:
320,192,48466,1,2,0:0:0:0:
64,192,48560,1,0,0:0:0:0:
192,192,48560,1,2,0:0:0:0:
448,192,48560,1,4,0:0:0:0:
320,192,48653,1,0,0:0:0:0:
448,192,48747,1,0,0:0:0:0:
192,192,48841,1,0,0:0:0:0:
64,192,48935,1,8,0:0:0:0:
320,192,48935,1,0,0:0:0:0:
448,192,49028,1,0,0:0:0:0:
192,192,49122,1,0,0:0:0:0:
320,192,49216,1,0,0:0:0:0:
192,192,49310,1,4,0:0:0:0:
64,192,49310,1,8,0:0:0:0:
448,192,49310,1,0,0:0:0:0:
320,192,49403,1,0,0:0:0:0:
448,192,49497,1,0,0:0:0:0:
64,192,49591,1,0,0:0:0:0:
192,192,49685,1,8,0:0:0:0:
320,192,49685,1,0,0:0:0:0:
448,192,49778,1,0,0:0:0:0:
64,192,49872,1,0,0:0:0:0:
192,192,49966,1,0,0:0:0:0:
448,192,50060,1,4,0:0:0:0:
320,192,50060,1,8,0:0:0:0:
64,192,50060,1,0,0:0:0:0:
192,192,50153,1,0,0:0:0:0:
320,192,50247,1,0,0:0:0:0:
64,192,50341,1,0,0:0:0:0:
192,192,50435,1,8,0:0:0:0:
448,192,50435,1,0,0:0:0:0:
320,192,50528,1,0,0:0:0:0:
64,192,50622,1,0,0:0:0:0:
192,192,50716,1,0,0:0:0:0:
320,192,50810,1,4,0:0:0:0:
448,192,50810,1,8,0:0:0:0:
64,192,50810,1,0,0:0:0:0:
192,192,50903,1,0,0:0:0:0:
448,192,50997,1,8,3:0:0:0:
320,192,50997,1,0,0:0:0:0:
64,192,51091,1,8,3:0:0:0:
192,192,51091,1,0,0:0:0:0:
320,192,51185,1,8,3:0:0:0:
448,192,51185,1,0,0:0:0:0:
64,192,51278,1,8,3:0:0:0:
192,192,51278,1,0,0:0:0:0:
320,192,51372,1,8,3:0:0:0:
448,192,51372,1,0,0:0:0:0:
64,192,51466,1,8,3:0:0:0:
192,192,51466,1,0,0:0:0:0:
64,192,51560,1,4,0:0:0:0:
320,192,51560,1,8,0:0:0:0:
448,192,51560,1,0,0:0:0:0:
448,192,51935,1,2,0:0:0:0:
192,192,52122,1,2,0:0:0:0:
64,192,52122,1,0,0:0:0:0:
64,192,52310,1,0,0:0:0:0:
320,192,52310,1,2,0:0:0:0:
448,192,52310,1,8,0:0:0:0:
320,192,52685,1,2,0:0:0:0:
64,192,52872,1,0,0:0:0:0:
192,192,52872,1,2,0:0:0:0:
320,192,53060,1,2,0:0:0:0:
448,192,53060,1,0,0:0:0:0:
64,192,53247,1,0,0:0:0:0:
192,192,53247,1,2,0:0:0:0:
320,192,53247,1,8,0:0:0:0:
448,192,53435,1,2,0:0:0:0:
192,192,53622,1,2,0:0:0:0:
320,192,53622,1,0,0:0:0:0:
192,192,53810,1,2,0:0:0:0:
64,192,53810,1,8,0:0:0:0:
448,192,53810,1,0,0:0:0:0:
320,192,54185,1,2,0:0:0:0:
64,192,54372,1,8,3:0:0:0:
192,192,54466,1,8,3:0:0:0:
448,192,54560,1,2,0:0:0:0:
320,192,54560,1,4,0:0:0:0:
64,192,54560,1,0,0:0:0:0:
192,192,54935,1,2,0:0:0:0:
320,192,55122,1,2,0:0:0:0:
448,192,55122,1,0,0:0:0:0:
64,192,55310,1,0,0:0:0:0:
448,192,55310,1,4,0:0:0:0:
192,192,55310,1,8,0:0:0:0:
64,192,55685,1,2,0:0:0:0:
192,192,55872,1,2,0:0:0:0:
448,192,55872,1,0,0:0:0:0:
320,192,55966,1,2,0:0:0:0:
192,192,56060,1,2,0:0:0:0:
64,192,56060,1,0,0:0:0:0:
64,192,56247,1,0,0:0:0:0:
448,192,56247,1,8,0:0:0:0:
320,192,56247,1,2,0:0:0:0:
192,192,56435,1,2,0:0:0:0:
64,192,56622,1,2,0:0:0:0:
448,192,56622,1,0,0:0:0:0:
320,192,56685,1,0,0:0:0:0:
192,192,56747,1,0,0:0:0:0:
320,192,56810,1,8,0:0:0:0:
448,192,56810,1,2,0:0:0:0:
64,192,56810,1,4,0:0:0:0:
192,192,56997,1,2,0:0:0:0:
448,192,56997,1,0,0:0:0:0:
64,192,57185,1,4,0:0:0:0:
192,192,57185,1,2,0:0:0:0:
320,192,57185,1,8,0:0:0:0:
448,192,57372,1,2,0:0:0:0:
320,192,57466,1,2,0:0:0:0:
192,192,57560,1,4,0:0:0:0:
448,192,57560,1,2,0:0:0:0:
64,192,57560,1,2,2:0:0:0:
320,192,57747,1,2,2:0:0:0:
192,192,57935,1,2,2:0:0:0:
448,192,58122,1,2,2:0:0:0:
64,192,58310,1,2,2:0:0:0:
320,192,58497,1,2,2:0:0:0:
64,192,58685,1,2,2:0:0:0:
320,192,58872,1,2,2:0:0:0:
448,192,59060,1,2,2:0:0:0:
192,192,59247,1,2,2:0:0:0:
320,192,59435,1,2,2:0:0:0:
64,192,59622,1,2,2:0:0:0:
448,192,59810,1,2,2:0:0:0:
320,192,59997,1,0,0:0:0:0:
192,192,60091,1,0,0:0:0:0:
64,192,60185,1,0,0:0:0:0:
320,192,60185,1,8,0:0:0:0:
448,192,60185,1,2,0:0:0:0:
192,192,60372,1,2,0:0:0:0:
320,192,60466,1,2,0:0:0:0:
448,192,60560,1,4,0:0:0:0:
192,192,60560,1,2,0:0:0:0:
64,192,60560,1,0,0:0:0:0:
320,192,60747,1,2,0:0:0:0:
192,192,60841,1,2,0:0:0:0:
64,192,60935,1,0,0:0:0:0:
320,192,60935,1,2,0:0:0:0:
448,192,61028,1,2,0:0:0:0:
192,192,61122,1,2,0:0:0:0:
320,192,61216,1,2,0:0:0:0:
448,192,61310,1,4,0:0:0:0:
64,192,61310,1,0,0:0:0:0:
192,192,61310,1,2,0:0:0:0:
320,192,61497,1,2,0:0:0:0:
448,192,61591,1,2,0:0:0:0:
192,192,61685,1,2,0:0:0:0:
64,192,61685,1,0,0:0:0:0:
320,192,61778,1,2,0:0:0:0:
192,192,61872,1,2,0:0:0:0:
448,192,61966,1,2,0:0:0:0:
192,192,62060,1,2,0:0:0:0:
64,192,62060,1,0,0:0:0:0:
320,192,62060,1,4,0:0:0:0:
448,192,62247,1,0,0:0:0:0:
320,192,62341,1,0,0:0:0:0:
192,192,62435,1,2,0:0:0:0:
64,192,62435,1,0,0:0:0:0:
448,192,62435,1,8,0:0:0:0:
320,192,62622,1,0,0:0:0:0:
192,192,62716,1,0,0:0:0:0:
64,192,62810,1,8,0:0:0:0:
448,192,62810,1,0,0:0:0:0:
320,192,62903,1,0,0:0:0:0:
192,192,62997,1,0,0:0:0:0:
64,192,62997,1,8,0:0:0:0:
320,192,63091,1,0,0:0:0:0:
64,192,63185,1,8,0:0:0:0:
448,192,63185,1,0,0:0:0:0:
192,192,63278,1,0,0:0:0:0:
320,192,63372,1,0,0:0:0:0:
448,192,63372,1,8,0:0:0:0:
192,192,63466,1,0,0:0:0:0:
64,192,63560,1,4,0:0:0:0:
320,192,63560,1,2,0:0:0:0:
448,192,63560,1,0,0:0:0:0:
192,192,63653,1,0,0:0:0:0:
64,192,63747,1,8,0:0:0:0:
320,192,63747,1,0,0:0:0:0:
448,192,63841,1,0,0:0:0:0:
192,192,63935,1,0,0:0:0:0:
320,192,64028,1,0,0:0:0:0:
64,192,64122,1,8,0:0:0:0:
192,192,64122,1,0,0:0:0:0:
448,192,64216,1,0,0:0:0:0:
320,192,64310,1,2,0:0:0:0:
64,192,64310,1,4,0:0:0:0:
192,192,64310,1,0,0:0:0:0:
448,192,64403,1,0,0:0:0:0:
320,192,64497,1,8,0:0:0:0:
64,192,64497,1,0,0:0:0:0:
192,192,64591,1,0,0:0:0:0:
448,192,64685,1,0,0:0:0:0:
320,192,64778,1,0,0:0:0:0:
192,192,64872,1,8,0:0:0:0:
64,192,64872,1,0,0:0:0:0:
448,192,64966,1,0,0:0:0:0:
320,192,65060,1,4,0:0:0:0:
192,192,65060,1,2,0:0:0:0:
64,192,65060,1,0,0:0:0:0:
448,192,65153,1,0,0:0:0:0:
320,192,65247,1,8,0:0:0:0:
64,192,65247,1,0,0:0:0:0:
192,192,65341,1,0,0:0:0:0:
320,192,65435,1,0,0:0:0:0:
192,192,65528,1,0,0:0:0:0:
448,192,65622,1,8,0:0:0:0:
64,192,65622,1,0,0:0:0:0:
320,192,65716,1,0,0:0:0:0:
192,192,65810,1,2,0:0:0:0:
448,192,65810,1,4,0:0:0:0:
64,192,65810,1,0,0:0:0:0:
320,192,65903,1,0,0:0:0:0:
64,192,65997,1,8,0:0:0:0:
192,192,65997,1,0,0:0:0:0:
448,192,66091,1,0,0:0:0:0:
320,192,66185,1,2,0:0:0:0:
64,192,66185,1,4,0:0:0:0:
192,192,66185,1,0,0:0:0:0:
448,192,66278,1,0,0:0:0:0:
320,192,66372,1,8,0:0:0:0:
192,192,66372,1,0,0:0:0:0:
64,192,66466,1,0,0:0:0:0:
448,192,66560,1,0,0:0:0:0:
192,192,66560,1,2,0:0:0:0:
320,192,66560,1,4,0:0:0:0:
64,192,66653,1,0,0:0:0:0:
192,192,66747,1,0,0:0:0:0:
448,192,66747,1,8,0:0:0:0:
320,192,66841,1,0,0:0:0:0:
448,192,66935,1,0,0:0:0:0:
192,192,67028,1,0,0:0:0:0:
64,192,67122,1,0,0:0:0:0:
320,192,67122,1,8,0:0:0:0:
448,192,67216,1,0,0:0:0:0:
64,192,67310,1,0,0:0:0:0:
320,192,67310,1,4,0:0:0:0:
192,192,67310,1,2,0:0:0:0:
448,192,67403,1,0,0:0:0:0:
64,192,67497,1,0,0:0:0:0:
192,192,67497,1,8,0:0:0:0:
320,192,67591,1,0,0:0:0:0:
192,192,67685,1,0,0:0:0:0:
64,192,67778,1,0,0:0:0:0:
448,192,67872,1,0,0:0:0:0:
320,192,67872,1,8,0:0:0:0:
192,192,67966,1,0,0:0:0:0:
320,192,68060,1,4,0:0:0:0:
64,192,68060,1,2,0:0:0:0:
448,192,68060,1,0,0:0:0:0:
192,192,68153,1,0,0:0:0:0:
448,192,68247,1,8,0:0:0:0:
64,192,68247,1,0,0:0:0:0:
320,192,68341,1,0,0:0:0:0:
64,192,68435,1,0,0:0:0:0:
192,192,68528,1,0,0:0:0:0:
320,192,68622,1,8,0:0:0:0:
448,192,68622,1,0,0:0:0:0:
64,192,68716,1,0,0:0:0:0:
192,192,68810,1,2,0:0:0:0:
448,192,68810,1,4,0:0:0:0:
320,192,68810,1,0,0:0:0:0:
64,192,68903,1,0,0:0:0:0:
448,192,68997,1,8,0:0:0:0:
192,192,68997,1,0,0:0:0:0:
320,192,69091,1,0,0:0:0:0:
64,192,69185,1,2,0:0:0:0:
192,192,69185,1,4,0:0:0:0:
448,192,69185,1,0,0:0:0:0:
320,192,69278,1,0,0:0:0:0:
64,192,69372,1,8,0:0:0:0:
192,192,69372,1,0,0:0:0:0:
320,192,69466,1,8,0:0:0:0:
64,192,69560,1,0,0:0:0:0:
192,192,69560,1,2,0:0:0:0:
448,192,69560,1,4,0:0:0:0:
320,192,69653,1,0,0:0:0:0:
64,192,69747,1,0,0:0:0:0:
448,192,69747,1,8,0:0:0:0:
192,192,69841,1,0,0:0:0:0:
320,192,69935,1,0,0:0:0:0:
64,192,70028,1,0,0:0:0:0:
192,192,70122,1,0,0:0:0:0:
448,192,70122,1,8,0:0:0:0:
320,192,70216,1,0,0:0:0:0:
64,192,70310,1,0,0:0:0:0:
448,192,70310,1,4,0:0:0:0:
192,192,70310,1,2,0:0:0:0:
320,192,70403,1,0,0:0:0:0:
64,192,70497,1,0,0:0:0:0:
448,192,70497,1,8,0:0:0:0:
192,192,70591,1,0,0:0:0:0:
320,192,70685,1,0,0:0:0:0:
448,192,70778,1,0,0:0:0:0:
64,192,70872,1,0,0:0:0:0:
192,192,70872,1,8,0:0:0:0:
320,192,70966,1,0,0:0:0:0:
64,192,71060,1,4,0:0:0:0:
192,192,71060,1,2,0:0:0:0:
448,192,71060,1,0,0:0:0:0:
320,192,71153,1,0,0:0:0:0:
448,192,71247,1,8,0:0:0:0:
192,192,71247,1,0,0:0:0:0:
64,192,71341,1,0,0:0:0:0:
320,192,71435,1,0,0:0:0:0:
448,192,71528,1,0,0:0:0:0:
192,192,71622,1,8,0:0:0:0:
64,192,71622,1,0,0:0:0:0:
320,192,71716,1,0,0:0:0:0:
192,192,71810,1,2,0:0:0:0:
448,192,71810,1,4,0:0:0:0:
64,192,71810,1,0,0:0:0:0:
320,192,71903,1,0,0:0:0:0:
448,192,71997,1,8,0:0:0:0:
64,192,71997,1,0,0:0:0:0:
192,192,72091,1,0,0:0:0:0:
320,192,72185,1,4,0:0:0:0:
64,192,72185,1,8,0:0:0:0:
448,192,72185,1,2,0:0:0:0:
192,192,72278,1,8,0:0:0:0:
320,192,72372,1,8,0:0:0:0:
448,192,72372,1,0,0:0:0:0:
192,192,72466,1,8,0:0:0:0:
64,192,72466,1,0,0:0:0:0:
320,192,72560,1,4,0:0:0:0:
64,192,72560,1,2,0:0:0:0:
448,192,72560,1,8,0:0:0:0:
320,192,73497,1,2,0:0:0:0:
192,192,73591,1,2,0:0:0:0:
448,192,73685,1,2,0:0:0:0:
320,192,73778,1,2,0:0:0:0:
64,192,73872,1,2,0:0:0:0:
192,192,73966,1,2,0:0:0:0:
320,192,74060,1,4,0:0:0:0:
64,192,74060,1,0,0:0:0:0:
448,192,74060,1,2,0:0:0:0:
64,192,74247,1,0,0:0:0:0:
192,192,74247,1,8,0:0:0:0:
448,192,74247,1,2,0:0:0:0:
448,192,74435,1,0,0:0:0:0:
320,192,74435,1,2,0:0:0:0:
192,192,74528,1,0,0:0:0:0:
64,192,74622,1,0,0:0:0:0:
448,192,74622,1,2,0:0:0:0:
320,192,74622,1,8,0:0:0:0:
192,192,74810,1,0,0:0:0:0:
64,192,74810,1,2,0:0:0:0:
448,192,74997,1,8,0:0:0:0:
320,192,74997,1,2,0:0:0:0:
192,192,74997,1,0,0:0:0:0:
64,192,75185,1,2,0:0:0:0:
448,192,75185,1,0,0:0:0:0:
320,192,75278,1,0,0:0:0:0:
64,192,75372,1,0,0:0:0:0:
448,192,75372,1,2,0:0:0:0:
192,192,75372,1,8,0:0:0:0:
320,192,75466,1,0,0:0:0:0:
64,192,75560,1,0,0:0:0:0:
192,192,75560,1,2,0:0:0:0:
192,192,75747,1,0,0:0:0:0:
320,192,75747,1,8,0:0:0:0:
448,192,75747,1,2,0:0:0:0:
64,192,75935,1,0,0:0:0:0:
448,192,75935,1,2,0:0:0:0:
320,192,76028,1,0,0:0:0:0:
448,192,76122,1,0,0:0:0:0:
64,192,76122,1,2,0:0:0:0:
192,192,76122,1,8,0:0:0:0:
320,192,76310,1,0,0:0:0:0:
64,192,76310,1,2,0:0:0:0:
320,192,76497,1,8,0:0:0:0:
192,192,76497,1,2,0:0:0:0:
448,192,76497,1,0,0:0:0:0:
64,192,76685,1,2,0:0:0:0:
448,192,76685,1,0,0:0:0:0:
192,192,76778,1,0,0:0:0:0:
448,192,76872,1,0,0:0:0:0:
64,192,76872,1,2,0:0:0:0:
320,192,76872,1,8,0:0:0:0:
192,192,76966,1,0,0:0:0:0:
320,192,77060,1,0,0:0:0:0:
448,192,77060,1,2,0:0:0:0:
64,192,77247,1,2,0:0:0:0:
192,192,77247,1,8,0:0:0:0:
320,192,77247,1,0,0:0:0:0:
192,192,77435,1,2,0:0:0:0:
448,192,77435,1,0,0:0:0:0:
320,192,77528,1,0,0:0:0:0:
192,192,77622,1,8,0:0:0:0:
64,192,77622,1,2,0:0:0:0:
448,192,77622,1,0,0:0:0:0:
64,192,77810,1,2,0:0:0:0:
320,192,77810,1,0,0:0:0:0:
192,192,77903,1,0,0:0:0:0:
448,192,77997,1,0,0:0:0:0:
64,192,77997,1,2,0:0:0:0:
320,192,77997,1,8,0:0:0:0:
448,192,78185,1,0,0:0:0:0:
192,192,78185,1,2,0:0:0:0:
320,192,78278,1,0,0:0:0:0:
192,192,78372,1,8,0:0:0:0:
64,192,78372,1,2,0:0:0:0:
448,192,78372,1,0,0:0:0:0:
320,192,78466,1,0,0:0:0:0:
64,192,78560,1,0,0:0:0:0:
192,192,78653,1,0,0:0:0:0:
64,192,78747,1,2,0:0:0:0:
448,192,78747,1,0,0:0:0:0:
320,192,78747,1,8,0:0:0:0:
192,192,78841,1,0,0:0:0:0:
448,192,78935,1,0,0:0:0:0:
320,192,79028,1,0,0:0:0:0:
192,192,79122,1,8,0:0:0:0:
448,192,79122,1,0,0:0:0:0:
64,192,79122,1,2,0:0:0:0:
320,192,79216,1,0,0:0:0:0:
64,192,79310,1,0,0:0:0:0:
192,192,79403,1,0,0:0:0:0:
64,192,79497,1,2,0:0:0:0:
448,192,79497,1,0,0:0:0:0:
320,192,79497,1,8,0:0:0:0:
192,192,79591,1,0,0:0:0:0:
320,192,79685,1,8,0:0:0:0:
448,192,79685,1,0,0:0:0:0:
192,192,79778,1,8,0:0:0:0:
64,192,79778,1,0,0:0:0:0:
320,192,79872,1,8,0:0:0:0:
448,192,79872,1,0,0:0:0:0:
192,192,79966,1,8,0:0:0:0:
64,192,79966,1,0,0:0:0:0:
320,192,80060,1,4,0:0:0:0:
448,192,80060,1,0,0:0:0:0:
192,192,80153,1,0,0:0:0:0:
320,192,80247,1,0,0:0:0:0:
64,192,80247,1,8,0:0:0:0:
448,192,80341,1,0,0:0:0:0:
192,192,80435,1,2,0:0:0:0:
64,192,80435,1,0,0:0:0:0:
320,192,80528,1,0,0:0:0:0:
64,192,80622,1,8,0:0:0:0:
448,192,80622,1,0,0:0:0:0:
192,192,80716,1,0,0:0:0:0:
320,192,80810,1,0,0:0:0:0:
448,192,80810,1,2,0:0:0:0:
192,192,80903,1,0,0:0:0:0:
64,192,80997,1,8,0:0:0:0:
320,192,80997,1,0,0:0:0:0:
448,192,81091,1,0,0:0:0:0:
192,192,81185,1,8,0:0:0:0:
64,192,81185,1,0,0:0:0:0:
320,192,81278,1,8,0:0:0:0:
448,192,81278,1,0,0:0:0:0:
192,192,81372,1,8,0:0:0:0:
64,192,81372,1,0,0:0:0:0:
320,192,81466,1,8,0:0:0:0:
448,192,81466,1,0,0:0:0:0:
192,192,81560,1,2,0:0:0:0:
64,192,81560,1,0,0:0:0:0:
320,192,81653,1,0,0:0:0:0:
192,192,81747,1,0,0:0:0:0:
448,192,81747,1,8,0:0:0:0:
64,192,81841,1,0,0:0:0:0:
320,192,81935,1,2,0:0:0:0:
448,192,81935,1,0,0:0:0:0:
192,192,82028,1,0,0:0:0:0:
448,192,82122,1,8,0:0:0:0:
64,192,82122,1,0,0:0:0:0:
320,192,82216,1,0,0:0:0:0:
192,192,82310,1,0,0:0:0:0:
64,192,82310,1,2,0:0:0:0:
320,192,82403,1,0,0:0:0:0:
448,192,82497,1,8,0:0:0:0:
192,192,82497,1,0,0:0:0:0:
64,192,82591,1,0,0:0:0:0:
448,192,82685,1,8,0:0:0:0:
320,192,82685,1,0,0:0:0:0:
192,192,82778,1,8,0:0:0:0:
64,192,82778,1,0,0:0:0:0:
320,192,82872,1,8,0:0:0:0:
448,192,82872,1,0,0:0:0:0:
192,192,82966,1,8,0:0:0:0:
64,192,82966,1,0,0:0:0:0:
320,192,83060,1,2,0:0:0:0:
448,192,83060,1,0,0:0:0:0:
192,192,83153,1,0,0:0:0:0:
448,192,83247,1,8,0:0:0:0:
64,192,83247,1,0,0:0:0:0:
320,192,83341,1,0,0:0:0:0:
64,192,83435,1,0,0:0:0:0:
192,192,83435,1,2,0:0:0:0:
448,192,83528,1,0,0:0:0:0:
192,192,83622,1,0,0:0:0:0:
320,192,83622,1,8,0:0:0:0:
64,192,83716,1,0,0:0:0:0:
448,192,83810,1,2,0:0:0:0:
320,192,83810,1,0,0:0:0:0:
192,192,83903,1,0,0:0:0:0:
64,192,83997,1,0,0:0:0:0:
448,192,83997,1,8,0:0:0:0:
320,192,84091,1,0,0:0:0:0:
64,192,84185,1,0,0:0:0:0:
192,192,84185,1,8,0:0:0:0:
448,192,84278,1,0,0:0:0:0:
320,192,84278,1,8,0:0:0:0:
64,192,84372,1,0,0:0:0:0:
192,192,84372,1,8,0:0:0:0:
448,192,84466,1,0,0:0:0:0:
320,192,84466,1,8,0:0:0:0:
64,192,84560,1,0,0:0:0:0:
192,192,84560,1,2,0:0:0:0:
320,192,84653,1,0,0:0:0:0:
192,192,84747,1,0,0:0:0:0:
448,192,84747,1,8,0:0:0:0:
64,192,84841,1,0,0:0:0:0:
320,192,84935,1,2,0:0:0:0:
448,192,84935,1,0,0:0:0:0:
192,192,85028,1,0,0:0:0:0:
448,192,85122,1,8,0:0:0:0:
64,192,85122,1,0,0:0:0:0:
320,192,85216,1,0,0:0:0:0:
192,192,85310,1,0,0:0:0:0:
64,192,85310,1,2,0:0:0:0:
320,192,85403,1,0,0:0:0:0:
448,192,85497,1,8,0:0:0:0:
192,192,85497,1,0,0:0:0:0:
64,192,85591,1,0,0:0:0:0:
320,192,85685,1,8,0:0:0:0:
448,192,85685,1,0,0:0:0:0:
192,192,85778,1,8,0:0:0:0:
64,192,85778,1,0,0:0:0:0:
320,192,85872,1,8,0:0:0:0:
448,192,85872,1,0,0:0:0:0:
192,192,85966,1,8,0:0:0:0:
64,192,85966,1,0,0:0:0:0:
320,192,86060,1,2,0:0:0:0:
64,192,86060,1,4,0:0:0:0:
448,192,86060,128,0,86810:0:0:0:0:
