osu file format v14

[General]
AudioFilename: audio.mp3
AudioLeadIn: 0
PreviewTime: 63185
Countdown: 0
SampleSet: Normal
StackLeniency: 0.7
Mode: 1
LetterboxInBreaks: 0
WidescreenStoryboard: 0

[Editor]
Bookmarks: 6560,18560,30560,42560,51560
DistanceSpacing: 1
BeatDivisor: 2
GridSize: 4
TimelineZoom: 1.299999

[Metadata]
Title:Shinzou o Sasageyo! [TV Size]
TitleUnicode:心臓を捧げよ! [TV Size]
Artist:Linked Horizon
ArtistUnicode:Linked Horizon
Creator:puxtu
Version:Kantan
Source:進撃の巨人
Tags:Chromoxx Opfert eure Herzen! Attack on Titan shingeki no kyojin season aot snk 2 two dedicate all your hearts 澤野 弘之 hiroyuki sawano revo 諌山 創 Hajime Isayama 進撃の軌跡 Shingeki no Kiseki 鎌仲泰郎Yasuo Kamanaka Sound Opening Theme PCCA-04540 PCCA-04539
BeatmapID:1292934
BeatmapSetID:595844

[Difficulty]
HPDrainRate:9
CircleSize:4
OverallDifficulty:3
ApproachRate:5
SliderMultiplier:1.4
SliderTickRate:1

[Events]
//Background and Video events
0,0,"35783775_p0.jpg",0,0
//Break Periods
//Storyboard Layer 0 (Background)
//Storyboard Layer 1 (Fail)
//Storyboard Layer 2 (Pass)
//Storyboard Layer 3 (Foreground)
//Storyboard Sound Samples

[TimingPoints]
560,375,4,1,0,50,1,0
3560,-100,4,1,0,90,0,0
6747,-100,4,1,0,60,0,0
18560,-100,4,1,0,80,0,0
30560,-100,4,1,0,70,0,0
42560,-100,4,1,0,80,0,0
45560,-100,4,1,0,60,0,0
48560,-100,4,1,0,80,0,0
51747,-100,4,1,0,70,0,0
60560,-100,4,1,0,80,0,0
63560,-100,4,1,0,90,0,1
72560,-100,4,1,0,90,0,0
72747,-100,4,1,0,80,0,0
74060,-100,4,1,0,90,0,0
80060,-100,4,1,0,90,0,1
86060,-100,4,1,0,90,0,0

[HitObjects]
256,192,560,5,0,0:0:0:0:
256,192,1122,1,8,0:0:0:0:
256,192,2060,1,0,0:0:0:0:
256,192,2622,1,8,0:0:0:0:
244,192,3560,1,4,0:0:0:0:
216,200,4122,1,8,0:0:0:0:
216,200,4497,1,0,0:0:0:0:
216,200,4872,1,8,0:0:0:0:
216,200,5622,1,0,0:0:0:0:
216,200,5997,1,0,0:0:0:0:
304,168,6560,1,4,0:0:0:0:
248,152,8060,1,0,0:0:0:0:
264,168,8810,1,0,0:0:0:0:
264,168,9560,1,8,0:0:0:0:
296,244,11060,1,0,0:0:0:0:
296,244,11810,1,8,0:0:0:0:
296,244,12560,1,0,0:0:0:0:
256,264,14060,1,8,0:0:0:0:
256,264,14810,1,0,0:0:0:0:
256,264,15560,1,8,0:0:0:0:
256,264,16310,1,8,0:0:0:0:
256,252,17060,1,0,0:0:0:0:
296,196,18560,1,4,0:0:0:0:
296,196,19310,1,8,0:0:0:0:
296,196,20060,1,0,0:0:0:0:
296,196,20435,1,0,0:0:0:0:
296,196,20810,1,8,0:0:0:0:
296,196,21560,1,0,0:0:0:0:
232,176,22310,1,0,0:0:0:0:
232,176,23060,1,8,0:0:0:0:
164,168,23435,1,8,0:0:0:0:
164,168,23810,1,0,0:0:0:0:
176,164,24560,1,8,0:0:0:0:
128,152,25310,1,0,0:0:0:0:
232,176,26060,1,8,0:0:0:0:
152,248,26435,1,0,0:0:0:0:
152,248,26810,1,8,0:0:0:0:
220,164,27560,1,4,0:0:0:0:
220,164,28310,1,4,0:0:0:0:
220,164,29060,1,12,0:0:0:0:
244,240,30560,1,0,0:0:0:0:
244,240,31310,1,8,0:0:0:0:
244,240,32060,1,0,0:0:0:0:
272,288,33560,1,8,0:0:0:0:
272,280,34310,1,0,0:0:0:0:
272,272,35060,1,8,0:0:0:0:
228,252,36560,1,0,0:0:0:0:
228,252,37310,1,0,0:0:0:0:
232,244,38060,1,8,0:0:0:0:
224,232,38810,1,8,0:0:0:0:
224,232,39560,1,0,0:0:0:0:
224,220,41060,1,12,0:0:0:0:
220,216,42560,1,0,0:0:0:0:
212,212,43310,1,8,0:0:0:0:
228,200,44060,1,0,0:0:0:0:
228,200,44435,1,0,0:0:0:0:
228,200,44810,1,8,0:0:0:0:
228,200,45560,1,0,0:0:0:0:
228,200,47060,1,8,0:0:0:0:
312,176,48560,1,4,0:0:0:0:
312,176,49310,1,4,0:0:0:0:
312,176,50060,1,12,0:0:0:0:
300,240,51560,1,0,0:0:0:0:
196,188,53060,1,8,0:0:0:0:
320,236,54560,1,0,0:0:0:0:
320,212,55310,1,0,0:0:0:0:
320,212,56060,1,8,0:0:0:0:
288,224,57560,1,0,0:0:0:0:
264,196,60560,1,4,0:0:0:0:
264,196,61310,1,4,0:0:0:0:
264,196,62060,1,12,0:0:0:0:
264,196,63560,1,0,0:0:0:0:
264,196,64310,1,8,0:0:0:0:
264,196,65060,1,0,0:0:0:0:
264,196,65435,1,0,0:0:0:0:
264,196,65810,1,8,0:0:0:0:
264,196,66560,1,0,0:0:0:0:
264,196,67310,1,0,0:0:0:0:
264,188,68060,1,8,0:0:0:0:
264,188,68435,1,0,0:0:0:0:
264,188,68810,1,8,0:0:0:0:
264,188,69560,1,0,0:0:0:0:
264,188,70310,1,0,0:0:0:0:
264,188,71060,1,8,0:0:0:0:
264,188,71810,1,8,0:0:0:0:
264,188,72185,1,8,0:0:0:0:
264,188,72560,1,0,0:0:0:0:
224,216,74060,1,4,0:0:0:0:
224,208,74810,1,8,0:0:0:0:
224,208,75560,1,0,0:0:0:0:
300,200,75935,1,0,0:0:0:0:
300,200,76310,1,8,0:0:0:0:
292,192,77060,1,0,0:0:0:0:
280,196,77622,1,8,0:0:0:0:
280,196,77997,1,0,0:0:0:0:
240,172,78372,1,8,0:0:0:0:
264,172,79122,1,0,0:0:0:0:
264,172,79497,1,0,0:0:0:0:
256,168,80060,1,4,0:0:0:0:
280,152,81560,1,8,0:0:0:0:
280,152,82310,1,8,0:0:0:0:
280,152,83060,1,0,0:0:0:0:
280,152,83622,1,8,0:0:0:0:
280,152,83997,1,0,0:0:0:0:
280,152,84372,1,8,0:0:0:0:
208,124,84747,1,0,0:0:0:0:
208,124,85122,1,8,0:0:0:0:
272,184,86060,1,4,0:0:0:0:
