osu file format v14

[General]
AudioFilename: audio.mp3
AudioLeadIn: 0
PreviewTime: 63278
Countdown: 0
SampleSet: None
StackLeniency: 0.5
Mode: 0
LetterboxInBreaks: 0
WidescreenStoryboard: 0

[Editor]
DistanceSpacing: 1
BeatDivisor: 4
GridSize: 32
TimelineZoom: 1.8

[Metadata]
Title:Shinzou o Sasageyo! [TV Size]
TitleUnicode:心臓を捧げよ! [TV Size]
Artist:Linked Horizon
ArtistUnicode:Linked Horizon
Creator:Monstrata
Version:Titan
Source:進撃の巨人
Tags:revo Attack on Titan shingeki no kyojin season 2 two dedicate all your hearts heart snk aot Haruto haruto_aizawa armin arlert levi erin jaeger mikasa ackerman survey corps opening one theme song sound
BeatmapID:1255789
BeatmapSetID:593620

[Difficulty]
HPDrainRate:6
CircleSize:4
OverallDifficulty:8
ApproachRate:9.3
SliderMultiplier:3.2
SliderTickRate:1

[Events]
//Background and Video events
0,0,"sasageyo.jpg",0,0
Video,-150,"sasageyo.flv"
//Break Periods
//Storyboard Layer 0 (Background)
//Storyboard Layer 1 (Fail)
//Storyboard Layer 2 (Pass)
//Storyboard Layer 3 (Foreground)
//Storyboard Sound Samples

[TimingPoints]
560,375,4,2,2,50,1,0
560,-200,4,2,2,50,0,0
3560,-133.333333333333,4,3,2,65,0,0
6560,-200,4,3,3,55,0,0
17435,-200,4,3,2,55,0,0
17810,-200,4,3,2,50,0,0
18185,-200,4,3,2,60,0,0
18560,-166.666666666667,4,3,2,50,0,0
18747,-166.666666666667,4,3,3,60,0,0
29060,-133.333333333333,4,3,2,70,0,0
29341,-133.333333333333,4,3,2,5,0,0
29435,-133.333333333333,4,3,2,70,0,0
29716,-133.333333333333,4,3,2,5,0,0
29810,-133.333333333333,4,3,2,70,0,0
30560,-200,4,3,2,55,0,0
32810,-166.666666666667,4,3,2,60,0,0
33091,-166.666666666667,4,3,2,5,0,0
33185,-166.666666666667,4,3,2,60,0,0
33466,-166.666666666667,4,3,2,5,0,0
33560,-200,4,3,2,55,0,0
35810,-153.846153846154,4,3,2,60,0,0
36560,-133.333333333333,4,3,2,60,0,0
39091,-133.333333333333,4,3,2,5,0,0
39185,-133.333333333333,4,3,2,60,0,0
39466,-133.333333333333,4,3,2,5,0,0
39560,-133.333333333333,4,3,2,60,0,0
41341,-133.333333333333,4,3,2,5,0,0
41435,-138.888888888889,4,3,2,65,0,0
41716,-138.888888888889,4,3,2,5,0,0
41810,-133.333333333333,4,3,2,70,0,0
42185,-117.647058823529,4,3,2,75,0,0
42560,-117.647058823529,4,3,2,70,0,0
45466,-117.647058823529,4,3,2,5,0,0
45560,-200,4,3,2,50,0,0
48091,-200,4,3,2,5,0,0
48185,-166.666666666667,4,3,2,60,0,0
48560,-142.857142857143,4,3,2,70,0,0
50060,-125,4,3,2,75,0,0
51560,-200,4,3,2,55,0,0
54372,-200,4,3,3,55,0,0
54560,-200,4,3,2,55,0,0
57560,-300,4,3,2,45,0,0
60185,-200,4,3,2,55,0,0
60560,-133.333333333333,4,3,2,65,0,0
62060,-117.647058823529,4,3,2,70,0,0
62435,-111.111111111111,4,3,2,70,0,0
62810,-105.263157894737,4,3,2,75,0,0
63560,-94.1176470588235,4,1,2,70,0,1
72560,-100,4,3,2,65,0,0
73778,-100,4,3,3,65,0,0
73966,-100,4,3,2,65,0,0
74060,-133.333333333333,4,3,2,70,0,1
74247,-133.333333333333,4,3,3,70,0,1
78372,-100,4,3,2,75,0,1
78653,-100,4,3,3,75,0,1
78747,-100,4,3,2,70,0,1
79028,-100,4,3,3,70,0,1
79122,-100,4,3,2,70,0,1
79403,-100,4,3,3,70,0,1
79497,-100,4,3,2,70,0,1
80060,-94.1176470588235,4,1,2,75,0,1
83528,-94.1176470588235,4,3,3,80,0,1
83622,-94.1176470588235,4,1,2,70,0,1
86060,-100,4,3,2,80,0,0

[Colours]
Combo1 : 222,184,135
Combo2 : 255,128,0
Combo3 : 0,128,192
Combo4 : 255,255,128

[HitObjects]
281,175,560,5,2,0:2:0:0:
359,156,747,2,0,P|358:200|333:238,1,80,0|0,0:0|0:0,0:0:0:0:
226,122,1122,2,0,P|263:144|284:185,1,80,2|0,0:0|0:0,0:0:0:0:
130,219,1497,2,0,P|164:200|203:198,1,80,2|0,0:0|0:0,0:0:0:0:
144,124,1872,1,2,0:0:0:0:
32,235,2060,5,2,0:1:0:0:
184,276,2247,2,0,P|223:274|257:254,1,80,2|0,0:0|0:0,0:0:0:0:
224,124,2622,2,0,P|205:158|205:198,1,80,2|0,0:0|0:0,0:0:0:0:
334,232,2997,2,0,P|312:198|278:178,1,80,2|0,0:1|0:0,0:0:0:0:
126,220,3372,1,2,0:0:0:0:
315,308,3560,5,4,0:2:0:0:
297,102,3747,2,0,L|178:119,1,120.000004577637,8|0,0:0|1:0,0:0:0:0:
333,19,4122,2,0,L|485:41,1,120.000004577637,4|0,0:2|0:0,0:0:0:0:
391,166,4403,1,8,0:0:0:0:
391,166,4497,2,0,L|382:106,1,60.0000022888184,4|0,1:2|0:0,0:0:0:0:
471,209,4685,1,4,2:3:0:0:
471,209,4778,1,8,3:3:0:0:
471,209,4872,2,0,L|462:268,1,60.0000022888184,4|0,0:2|0:0,0:0:0:0:
450,357,5060,6,0,L|383:339,1,60.0000022888184,0|8,2:3|0:0,0:0:0:0:
295,302,5247,2,0,L|304:362,1,60.0000022888184,4|0,0:2|0:0,0:0:0:0:
382,225,5435,2,0,L|390:165,1,60.0000022888184,4|0,2:3|0:0,0:0:0:0:
304,88,5622,2,0,L|296:148,1,60.0000022888184,4|0,0:2|0:0,0:0:0:0:
471,174,5810,5,0,1:0:0:0:
486,162,5903,1,8,0:0:0:0:
497,146,5997,1,4,0:2:0:0:
505,130,6091,1,8,0:0:0:0:
509,111,6185,1,0,0:0:0:0:
507,92,6278,1,0,1:0:0:0:
500,74,6372,1,4,0:3:0:0:
489,60,6466,1,8,0:0:0:0:
474,47,6560,5,4,0:1:0:0:
394,182,6747,2,0,P|432:187|469:174,1,80,2|2,0:1|0:0,0:0:0:0:
319,148,7122,2,0,P|313:187|325:224,1,80,2|2,0:2|0:0,0:0:0:0:
197,270,7497,2,0,P|203:231|191:194,1,80,2|2,0:2|0:0,0:0:0:0:
52,325,7872,1,2,0:0:0:0:
52,325,7966,1,2,0:0:0:0:
52,325,8060,6,0,L|132:321,1,80,10|0,0:0|0:0,0:0:0:0:
122,241,8435,1,2,0:0:0:0:
74,176,8622,2,0,P|48:206|42:245,1,80,2|2,0:2|0:0,0:0:0:0:
202,237,8997,1,6,0:0:0:0:
114,101,9185,1,10,0:0:0:0:
114,101,9278,1,10,0:0:0:0:
114,101,9372,1,2,0:0:0:0:
122,241,9560,5,6,0:0:0:0:
282,233,9747,2,0,L|299:314,1,80,2|2,0:2|0:0,0:0:0:0:
239,166,10122,2,0,L|256:85,1,80,2|2,0:2|0:0,0:0:0:0:
394,174,10497,2,0,L|377:252,1,80,2|2,0:2|0:0,0:0:0:0:
334,121,10872,1,2,0:0:0:0:
334,121,10966,1,2,0:0:0:0:
334,120,11060,6,0,P|367:99|406:95,1,80,6|2,0:0|0:2,0:0:0:0:
469,144,11435,1,2,0:0:0:0:
377,253,11622,2,0,L|394:175,1,80,2|2,0:2|0:0,0:0:0:0:
436,306,11997,1,10,0:0:0:0:
264,307,12185,2,0,L|154:308,1,80,4|2,0:2|0:0,0:0:0:0:
146,374,12466,1,2,0:0:0:0:
146,374,12560,6,0,P|174:346|184:308,1,80,4|0,0:2|0:0,0:0:0:0:
144,238,12935,1,2,0:0:0:0:
27,294,13122,2,0,B|51:308|51:308|104:308,1,80,2|10,0:2|0:0,0:0:0:0:
259,180,13497,2,0,B|235:166|235:166|182:166,1,80,2|2,0:2|0:0,0:0:0:0:
341,307,13872,1,2,0:0:0:0:
341,307,13966,1,2,0:0:0:0:
341,307,14060,6,0,B|370:319|370:319|420:308,1,80,6|2,0:0|0:0,0:0:0:0:
461,238,14435,1,2,0:0:0:0:
392,119,14622,2,0,B|380:148|380:148|391:198,1,80,2|2,0:2|0:1,0:0:0:0:
461,79,14997,1,10,0:0:0:0:
323,0,15185,2,0,B|311:29|311:29|322:79,1,80,2|2,0:0|0:1,0:0:0:0:
392,119,15466,1,2,0:0:0:0:
392,119,15560,5,10,0:0:0:0:
479,39,15747,2,0,L|400:39,1,80,2|2,0:2|0:0,0:0:0:0:
323,159,16122,1,10,0:0:0:0:
323,159,16216,1,10,0:0:0:0:
323,159,16310,2,0,L|402:159,1,80,2|0,0:1|0:0,0:0:0:0:
256,42,16685,1,2,3:0:0:0:
189,159,16872,1,2,0:0:0:0:
191,178,16965,1,2,0:0:0:0:
193,197,17059,5,4,0:2:0:0:
323,80,17247,1,0,3:0:0:0:
121,119,17435,1,8,0:2:0:0:
323,159,17622,1,0,0:0:0:0:
121,41,17810,1,10,1:2:0:0:
102,43,17903,1,8,0:2:0:0:
83,51,17997,1,8,0:2:0:0:
67,63,18091,1,0,0:2:0:0:
55,78,18185,1,12,0:2:0:0:
47,96,18278,1,0,1:0:0:0:
43,116,18372,1,8,0:0:0:0:
45,136,18466,1,8,0:0:0:0:
52,155,18560,5,4,0:1:0:0:
243,142,18747,2,0,L|339:136,1,95.9999970703126,2|2,0:1|0:0,0:0:0:0:
185,63,19122,2,0,P|155:101|147:148,1,95.9999970703126,2|2,0:2|0:0,0:0:0:0:
253,306,19497,1,2,0:2:0:0:
243,142,19685,1,2,0:0:0:0:
156,311,19872,5,2,0:2:0:0:
307,384,20060,1,2,0:2:0:0:
200,227,20247,2,0,P|138:218|88:244,1,95.9999970703126,2|2,0:2|0:0,0:0:0:0:
350,301,20622,2,0,P|412:310|462:284,1,95.9999970703126,2|2,0:2|0:0,0:0:0:0:
243,142,20997,1,0,0:0:0:0:
307,384,21185,1,12,0:2:0:0:
392,215,21372,1,2,0:0:0:0:
392,215,21466,1,2,0:0:0:0:
392,215,21560,5,12,0:2:0:0:
253,306,21747,2,0,L|157:311,1,95.9999970703126,2|2,0:2|0:0,0:0:0:0:
243,142,22122,2,0,L|338:147,1,95.9999970703126,2|2,0:2|0:0,0:0:0:0:
200,56,22497,1,0,0:0:0:0:
286,228,22685,1,2,0:2:0:0:
296,61,22872,5,0,0:0:0:0:
190,223,23060,1,2,0:0:0:0:
381,233,23247,2,0,P|372:187|342:150,1,95.9999970703126,2|2,0:2|0:0,0:0:0:0:
94,217,23622,2,0,P|103:263|133:300,1,95.9999970703126,2|2,0:2|0:0,0:0:0:0:
286,228,23997,1,2,0:0:0:0:
185,165,24185,1,4,0:2:0:0:
186,179,24278,1,0,1:0:0:0:
187,194,24372,1,0,1:0:0:0:
188,208,24466,1,0,1:0:0:0:
190,223,24560,5,12,0:2:0:0:
296,60,24747,2,0,P|343:53|388:66,1,95.9999970703126,2|2,0:2|0:0,0:0:0:0:
381,234,25122,2,0,P|333:241|288:228,1,95.9999970703126,2|2,0:1|0:0,0:0:0:0:
434,153,25497,1,2,0:2:0:0:
423,320,25685,1,2,0:0:0:0:
422,334,25778,1,0,0:0:0:0:
421,349,25872,1,0,1:0:0:0:
420,363,25966,1,0,1:0:0:0:
418,378,26060,5,12,0:2:0:0:
338,147,26247,1,8,0:0:0:0:
230,307,26435,1,2,0:0:0:0:
477,239,26622,2,0,P|523:194|530:147,1,95.9999970703126,2|2,0:1|0:0,0:0:0:0:
391,66,26997,1,2,0:2:0:0:
423,320,27185,1,2,0:0:0:0:
434,153,27372,1,2,0:0:0:0:
434,153,27466,1,2,0:0:0:0:
434,153,27560,5,4,0:2:0:0:
230,307,27747,1,8,0:0:0:0:
477,239,27935,1,2,0:0:0:0:
295,60,28122,1,2,0:1:0:0:
327,314,28310,1,10,0:2:0:0:
391,66,28497,1,0,0:0:0:0:
188,220,28685,1,2,0:0:0:0:
477,239,28872,1,8,0:0:0:0:
202,40,29060,6,0,L|188:220,1,180.000006866455,4|0,0:2|0:0,0:0:0:0:
118,166,29435,2,0,P|195:132|271:194,1,180.000006866455,4|0,1:3|0:0,0:0:0:0:
204,328,29810,2,0,P|175:277|188:220,1,120.000004577637,10|2,0:2|0:1,0:0:0:0:
259,264,30091,1,8,0:2:0:0:
259,264,30185,2,0,L|412:264,1,120.000004577637,4|0,0:2|2:0,0:0:0:0:
272,95,30560,5,4,0:1:0:0:
188,219,30747,1,0,0:0:0:0:
199,46,30935,1,8,0:0:0:0:
266,182,31122,1,0,0:0:0:0:
277,7,31310,1,0,0:0:0:0:
193,133,31497,1,2,0:0:0:0:
345,143,31685,2,0,P|359:107|354:67,1,80,8|0,0:0|0:0,0:0:0:0:
119,84,32060,6,0,P|104:120|109:160,1,80,2|0,0:2|0:0,0:0:0:0:
266,182,32435,1,8,0:0:0:0:
193,133,32622,1,2,0:0:0:0:
138,305,32810,6,0,P|210:316|271:252,1,143.999995605469,4|0,0:2|0:0,0:0:0:0:
299,152,33185,2,0,P|253:209|278:294,1,143.999995605469,12|0,0:2|0:0,0:0:0:0:
339,230,33560,5,4,0:2:0:0:
377,112,33747,1,0,0:0:0:0:
299,152,33935,1,8,0:0:0:0:
417,190,34122,1,2,0:0:0:0:
303,64,34310,1,2,0:2:0:0:
250,225,34497,1,2,0:0:0:0:
377,112,34685,1,8,0:0:0:0:
211,148,34872,1,2,0:0:0:0:
412,277,35060,5,4,0:3:0:0:
303,64,35247,1,2,0:0:0:0:
334,317,35435,1,8,0:0:0:0:
464,116,35622,1,2,0:0:0:0:
464,116,35716,1,2,0:0:0:0:
464,116,35810,6,0,P|467:185|403:236,1,155.999992858887,4|0,0:2|0:0,0:0:0:0:
295,136,36185,5,12,0:0:0:0:
320,127,36278,1,2,0:1:0:0:
345,128,36372,1,2,0:2:0:0:
370,137,36466,1,2,0:2:0:0:
389,153,36560,5,4,0:2:0:0:
233,208,36747,1,2,0:0:0:0:
263,44,36935,1,8,0:0:0:0:
326,226,37122,1,2,0:0:0:0:
201,117,37309,1,2,0:2:0:0:
265,299,37497,1,2,0:0:0:0:
295,136,37685,1,8,0:0:0:0:
171,281,37872,1,2,0:0:0:0:
263,44,38060,5,4,0:3:0:0:
265,299,38247,1,2,0:0:0:0:
107,98,38435,1,8,0:0:0:0:
357,62,38622,1,2,0:0:0:0:
357,62,38716,1,2,0:0:0:0:
357,62,38810,6,0,B|483:36|483:36|443:94,1,180.000006866455,4|0,0:2|0:0,0:0:0:0:
387,151,39185,2,0,B|261:125|261:125|301:183,1,180.000006866455,12|0,0:2|0:0,0:0:0:0:
350,234,39560,5,4,0:2:0:0:
357,62,39747,1,2,0:0:0:0:
261,252,39935,1,8,0:0:0:0:
439,216,40122,1,2,0:0:0:0:
200,183,40310,1,2,0:2:0:0:
322,321,40497,1,2,0:0:0:0:
231,97,40685,1,8,0:0:0:0:
82,287,40872,1,2,0:1:0:0:
413,301,41060,6,0,B|441:243|441:243|394:109,1,180.000006866455,12|0,1:2|0:0,0:0:0:0:
350,236,41435,6,0,L|529:237,1,172.80000421875,8|0,1:2|0:0,0:0:0:0:
483,124,41810,6,0,L|522:237,1,120.000004577637,12|2,1:2|0:1,0:0:0:0:
507,353,42091,1,2,0:1:0:0:
507,353,42185,6,0,B|474:313|474:313|310:311,1,204.000003890991,12|0,0:0|0:0,0:0:0:0:
266,371,42560,6,0,L|226:273,1,68.0000012969971,12|0,0:2|0:0,0:0:0:0:
325,231,42747,2,0,L|339:126,1,68.0000012969971,2|0,0:1|0:0,0:0:0:0:
255,163,42935,2,0,L|246:231,1,68.0000012969971,10|0,0:2|0:0,0:0:0:0:
175,189,43122,2,0,L|107:198,1,68.0000012969971,2|0,0:1|0:0,0:0:0:0:
81,79,43310,6,0,P|119:133|107:198,1,136.000002593994,8|0,0:0|0:0,0:0:0:0:
25,287,43591,1,0,0:0:0:0:
25,287,43685,2,0,L|199:263,1,136.000002593994,12|0,0:2|0:0,0:0:0:0:
308,201,43966,1,4,0:3:0:0:
308,200,44060,6,0,L|241:192,1,68.0000012969971,4|0,0:2|0:0,0:0:0:0:
255,334,44247,2,0,L|322:326,1,68.0000012969971,2|0,0:1|0:0,0:0:0:0:
439,266,44435,2,0,L|372:258,1,68.0000012969971,10|0,0:0|0:0,0:0:0:0:
392,366,44622,2,0,L|460:358,1,68.0000012969971,4|0,0:0|0:0,0:0:0:0:
476,190,44810,5,8,0:0:0:0:
476,190,44903,2,0,L|408:182,1,68.0000012969971,8|0,0:0|0:0,0:0:0:0:
439,266,45091,1,2,0:0:0:0:
439,266,45185,2,0,P|522:262|448:201,1,204.000003890991,12|0,0:2|0:0,0:0:0:0:
315,174,45560,6,0,P|332:209|333:249,1,80,4|0,0:1|0:0,0:0:0:0:
273,306,45935,2,0,P|255:270|254:230,1,80,2|0,0:0|0:0,0:0:0:0:
334,99,46310,2,0,P|333:138|315:174,1,80,8|0,0:0|0:0,0:0:0:0:
254,118,46685,2,0,P|254:78|272:42,1,80,2|0,0:1|0:0,0:0:0:0:
464,56,47060,6,0,P|410:111|335:99,1,160,4|0,0:0|0:0,0:0:0:0:
385,32,47622,1,2,0:0:0:0:
435,190,47810,2,0,L|423:320,1,120,12|0,0:2|0:0,0:0:0:0:
334,294,48185,6,0,P|381:288|423:309,1,95.9999970703126,2|8,0:1|0:0,0:0:0:0:
368,370,48466,1,8,0:0:0:0:
368,370,48560,6,0,P|295:309|159:384,1,223.999993164063,12|4,0:2|0:0,0:0:0:0:
82,243,49122,1,0,1:0:0:0:
82,243,49216,1,0,1:0:0:0:
82,243,49310,2,0,P|137:253|188:232,1,111.999996582031,10|0,0:0|0:0,0:0:0:0:
115,58,49685,2,0,P|105:113|127:164,1,111.999996582031,8|0,0:0|0:0,0:0:0:0:
320,86,50060,6,0,L|193:101,1,128,12|0,1:2|0:0,0:0:0:0:
187,232,50341,1,0,0:0:0:0:
187,232,50435,2,0,L|314:247,1,128,8|0,1:3|0:0,0:0:0:0:
383,78,50716,1,0,0:0:0:0:
383,78,50810,2,0,L|293:88,1,64,4|0,1:2|1:0,0:0:0:0:
314,247,50997,2,0,L|377:239,1,64,8|0,1:3|1:0,0:0:0:0:
193,101,51185,2,0,L|103:111,1,64,2|0,1:0|1:0,0:0:0:0:
123,240,51372,2,0,L|186:232,1,64,8|0,1:3|1:3,0:0:0:0:
29,45,51560,6,0,L|43:204,1,160,4|0,0:1|0:0,0:0:0:0:
52,291,52122,1,2,0:0:0:0:
264,294,52310,2,0,P|316:237|308:160,1,160,8|2,0:0|0:1,0:0:0:0:
234,128,52872,1,2,0:0:0:0:
90,183,53060,6,0,P|154:227|229:209,1,160,2|0,0:2|0:0,0:0:0:0:
308,161,53622,1,2,0:0:0:0:
240,49,53810,2,0,L|230:208,1,160,12|2,0:0|0:1,0:0:0:0:
312,238,54372,1,2,0:0:0:0:
312,238,54466,1,8,0:0:0:0:
312,238,54560,6,0,P|358:174|302:165,1,160,4|0,0:2|0:0,0:0:0:0:
230,208,55122,1,2,0:0:0:0:
243,294,55310,2,0,P|316:266|391:288,1,160,8|2,0:0|0:1,0:0:0:0:
319,354,55872,1,2,0:0:0:0:
175,363,56060,5,0,0:0:0:0:
145,205,56247,2,0,L|161:293,1,80,8|2,0:0|0:1,0:0:0:0:
77,274,56622,1,2,0:0:0:0:
243,294,56810,2,0,L|227:212,1,80,12|0,0:0|0:0,0:0:0:0:
213,136,57185,1,12,0:2:0:0:
145,205,57372,1,2,0:2:0:0:
311,225,57560,6,0,L|289:109,1,106.666666666667,4|0,0:1|0:0,0:0:0:0:
213,136,58122,1,2,0:2:0:0:
213,136,58310,2,0,L|146:136,1,53.3333333333333,0|0,0:0|0:0,0:0:0:0:
237,246,58685,2,0,L|290:246,1,53.3333333333333,0|2,0:0|0:2,0:0:0:0:
349,165,59060,5,2,0:0:0:0:
281,100,59247,1,0,0:0:0:0:
319,18,59435,1,0,0:0:0:0:
410,29,59622,1,0,0:0:0:0:
425,118,59810,2,0,L|438:191,1,53.3333333333333,2|0,0:2|0:0,0:0:0:0:
430,199,60091,1,0,1:0:0:0:
430,199,60185,6,0,L|445:284,1,80,8|2,0:0|2:0,0:0:0:0:
439,305,60466,1,2,0:1:0:0:
439,305,60560,6,0,P|388:275|330:288,1,120.000004577637,12|0,0:2|0:0,0:0:0:0:
223,272,60841,1,0,0:0:0:0:
223,272,60935,2,0,P|273:301|331:288,1,120.000004577637,2|0,0:1|1:0,0:0:0:0:
275,160,61216,1,2,0:1:0:0:
275,160,61310,6,0,L|286:220,1,60.0000022888184,12|0,0:2|0:0,0:0:0:0:
198,138,61497,2,0,L|187:197,1,60.0000022888184,0|0,1:0|0:0,0:0:0:0:
311,88,61685,2,0,L|360:122,1,60.0000022888184,8|0,1:3|0:0,0:0:0:0:
162,66,61872,2,0,L|112:100,1,60.0000022888184,2|0,0:1|0:0,0:0:0:0:
251,26,62060,6,0,L|279:184,1,136.000002593994,12|0,0:2|0:0,0:0:0:0:
335,263,62341,1,0,0:0:0:0:
335,263,62435,6,0,L|360:122,1,143.999995605469,12|0,0:2|0:0,0:0:0:0:
189,197,62716,1,0,0:0:0:0:
189,197,62810,6,0,P|158:264|189:330,1,151.999995941162,12|0,0:2|0:0,0:0:0:0:
322,330,63091,1,0,0:0:0:0:
322,330,63185,6,0,P|353:264|322:197,1,151.999995941162,12|2,0:2|0:1,0:0:0:0:
183,112,63466,1,8,0:0:0:0:
183,112,63560,6,0,L|189:196,1,85.0000016212464,4|0,0:1|0:0,0:0:0:0:
135,263,63747,1,2,0:1:0:0:
189,330,63841,1,0,0:0:0:0:
273,322,63935,2,0,P|297:288|299:226,1,85.0000016212464,2|0,0:2|0:0,0:0:0:0:
297,91,64122,2,0,P|272:126|267:168,1,85.0000016212464,8|0,0:3|0:0,0:0:0:0:
397,227,64310,6,0,P|381:187|352:158,1,85.0000016212464,2|0,0:0|0:0,0:0:0:0:
273,322,64497,2,0,L|383:332,1,85.0000016212464,10|0,0:3|0:0,0:0:0:0:
267,168,64685,2,0,L|164:203,1,85.0000016212464,0|0,0:0|3:0,0:0:0:0:
189,330,64872,1,8,0:3:0:0:
108,357,64966,1,0,0:0:0:0:
57,288,65060,6,0,L|77:184,1,85.0000016212464,12|0,0:2|0:0,0:0:0:0:
187,53,65247,1,8,0:3:0:0:
234,125,65341,1,0,0:0:0:0:
186,195,65435,2,0,L|104:170,1,85.0000016212464,0|0,0:0|3:0,0:0:0:0:
272,48,65622,2,0,L|363:20,1,85.0000016212464,8|0,0:3|0:0,0:0:0:0:
355,230,65810,6,0,L|273:206,1,85.0000016212464,10|0,0:2|0:0,0:0:0:0:
321,121,65997,2,0,L|412:93,1,85.0000016212464,8|0,0:3|0:0,0:0:0:0:
404,316,66185,5,4,0:2:0:0:
339,384,66279,1,0,3:0:0:0:
252,345,66372,1,8,0:3:0:0:
261,250,66466,1,0,0:0:0:0:
355,230,66560,6,0,P|394:143|345:80,1,170.000003242493,4|2,0:2|0:0,0:0:0:0:
272,79,66841,1,0,0:0:0:0:
230,156,66935,2,0,P|271:166|313:158,1,85.0000016212464,0|0,3:0|3:0,0:0:0:0:
315,2,67122,2,0,P|274:-7|232:0,1,85.0000016212464,8|0,0:3|0:0,0:0:0:0:
186,251,67310,6,0,L|354:229,1,170.000003242493,12|2,0:2|0:0,0:0:0:0:
419,35,67591,1,0,0:0:0:0:
419,35,67685,2,0,P|381:52|357:86,1,85.0000016212464,0|0,3:0|3:0,0:0:0:0:
439,248,67872,2,0,P|476:230|501:196,1,85.0000016212464,8|0,0:3|0:0,0:0:0:0:
489,56,68060,6,0,P|404:86|380:166,1,170.000003242493,12|8,0:2|0:3,0:0:0:0:
378,304,68341,1,0,0:0:0:0:
378,304,68435,2,0,P|411:324|456:326,1,85.0000016212464,0|0,3:0|3:0,0:0:0:0:
340,229,68622,2,0,P|314:249|296:321,1,85.0000016212464,8|0,0:3|0:0,0:0:0:0:
197,383,68810,6,0,L|308:374,1,85.0000016212464,12|0,0:2|0:0,0:0:0:0:
303,158,68997,2,0,L|192:149,1,85.0000016212464
131,259,69185,2,0,L|216:268,1,85.0000016212464,12|0,0:2|0:0,0:0:0:0:
146,100,69372,2,0,L|61:108,1,85.0000016212464,8|8,0:3|0:3,0:0:0:0:
41,343,69560,6,0,L|126:340,1,85.0000016212464,12|0,0:2|0:0,0:0:0:0:
362,277,69747,1,2,0:0:0:0:
405,203,69841,1,0,0:0:0:0:
357,130,69935,2,0,P|328:121|269:137,1,85.0000016212464,0|0,3:0|3:0,0:0:0:0:
281,280,70122,2,0,P|310:289|369:273,1,85.0000016212464,8|0,0:3|0:0,0:0:0:0:
296,49,70310,6,0,L|275:134,1,85.0000016212464,12|0,0:2|0:0,0:0:0:0:
145,66,70497,2,0,L|190:139,1,85.0000016212464,10|0,0:3|0:0,0:0:0:0:
64,193,70685,2,0,L|149:213,1,85.0000016212464,0|0,3:0|3:0,0:0:0:0:
143,363,70872,2,0,L|228:343,1,85.0000016212464,8|2,0:3|0:3,0:0:0:0:
363,260,71060,6,0,P|360:305|325:350,1,85.0000016212464,12|0,0:2|0:0,0:0:0:0:
305,198,71247,1,10,0:3:0:0:
387,179,71341,1,0,0:0:0:0:
445,240,71435,2,0,P|481:261|523:263,1,85.0000016212464,0|0,3:0|3:0,0:0:0:0:
489,74,71622,2,0,P|446:75|410:97,1,85.0000016212464,8|0,0:3|0:0,0:0:0:0:
132,254,71810,6,0,L|223:275,1,85.0000016212464,12|0,0:2|0:0,0:0:0:0:
301,55,71997,2,0,L|218:74,1,85.0000016212464,2|0,0:0|3:0,0:0:0:0:
312,306,72185,1,8,0:3:0:0:
367,224,72278,1,10,0:3:0:0:
310,144,72372,1,12,0:3:0:0:
215,176,72466,1,8,0:2:0:0:
215,274,72560,5,14,0:2:0:0:
149,324,73310,5,2,0:2:0:0:
228,347,73497,1,2,3:0:0:0:
247,304,73590,1,2,3:1:0:0:
279,271,73684,1,6,0:0:0:0:
322,251,73778,1,8,1:3:0:0:
368,246,73872,1,8,1:3:0:0:
413,257,73965,1,2,1:0:0:0:
451,284,74059,5,4,0:1:0:0:
431,28,74247,2,0,L|415:150,1,120.000004577637,2|2,0:2|0:0,0:0:0:0:
260,272,74622,2,0,L|244:150,1,120.000004577637,2|2,0:2|0:0,0:0:0:0:
141,287,74997,1,2,0:2:0:0:
348,189,75185,1,2,0:0:0:0:
348,189,75278,1,0,0:0:0:0:
348,189,75372,1,8,0:0:0:0:
159,58,75560,5,4,0:2:0:0:
22,302,75747,2,0,L|144:286,1,120.000004577637,2|2,0:2|0:0,0:0:0:0:
277,42,76122,2,0,L|399:58,1,120.000004577637,10|2,0:2|0:0,0:0:0:0:
395,326,76497,1,8,0:2:0:0:
348,189,76685,1,2,0:0:0:0:
348,189,76778,1,0,0:0:0:0:
348,189,76872,1,10,0:2:0:0:
253,299,77060,5,2,0:0:0:0:
489,215,77247,2,0,L|473:93,1,120.000004577637,10|2,0:2|0:0,0:0:0:0:
191,44,77622,2,0,L|207:163,1,120.000004577637,10|2,0:2|0:0,0:0:0:0:
348,189,77997,1,10,0:2:0:0:
456,67,78185,1,0,1:0:0:0:
456,67,78278,1,0,0:0:0:0:
456,67,78372,6,0,P|390:27|321:59,1,160,14|0,0:2|0:0,0:0:0:0:
390,113,78653,1,2,0:0:0:0:
390,113,78747,6,0,P|458:80|532:134,1,160,12|0,0:2|0:0,0:0:0:0:
459,167,79028,1,2,0:0:0:0:
459,167,79122,6,0,P|393:127|323:159,1,160,12|0,0:2|0:0,0:0:0:0:
392,213,79403,1,2,0:0:0:0:
392,213,79497,6,0,P|460:180|534:233,1,160,12|0,0:2|1:0,0:0:0:0:
451,339,79778,1,8,0:3:0:0:
451,339,79872,2,0,L|460:209,1,80,12|8,0:2|1:2,0:0:0:0:
251,175,80060,6,0,L|260:305,1,85.0000016212464,6|0,0:1|0:0,0:0:0:0:
392,213,80247,2,0,L|386:128,1,85.0000016212464,10|0,0:2|0:0,0:0:0:0:
183,134,80435,2,0,P|170:174|181:214,1,85.0000016212464,0|0,0:0|0:0,0:0:0:0:
400,355,80622,6,0,P|435:282|392:213,1,170.000003242493,12|0,0:2|0:0,0:0:0:0:
311,196,80903,1,0,3:0:0:0:
256,259,80997,2,0,P|228:266|171:248,1,85.0000016212464,10|0,0:2|0:0,0:0:0:0:
143,331,81185,2,0,P|118:316|90:263,1,85.0000016212464,8|0,0:3|0:0,0:0:0:0:
0,375,81372,2,0,L|16:292,1,85.0000016212464,10|0,0:2|0:0,0:0:0:0:
69,169,81560,6,0,L|153:174,1,85.0000016212464,8|0,0:3|0:0,0:0:0:0:
298,114,81747,2,0,P|310:74|297:34,1,85.0000016212464,10|0,0:2|0:0,0:0:0:0:
214,34,81935,2,0,P|200:73|213:113,1,85.0000016212464,2|0,0:3|0:0,0:0:0:0:
358,175,82122,6,0,P|428:178|477:72,1,170.000003242493,12|0,1:2|0:0,0:0:0:0:
470,17,82403,1,0,3:0:0:0:
389,13,82497,2,0,L|397:116,1,85.0000016212464,10|0,0:2|0:0,0:0:0:0:
488,187,82685,2,0,L|481:102,1,85.0000016212464,8|0,0:3|0:0,0:0:0:0:
310,104,82872,2,0,P|272:163|295:224,1,85.0000016212464,10|0,0:2|0:0,0:0:0:0:
321,246,83060,6,0,P|358:186|336:126,1,85.0000016212464,2|0,0:0|0:0,0:0:0:0:
233,69,83247,2,0,P|163:66|121:116,1,85.0000016212464,10|0,0:2|0:0,0:0:0:0:
161,251,83435,2,0,P|231:254|272:203,1,85.0000016212464,2|8,0:3|1:3,0:0:0:0:
298,21,83622,6,0,P|215:18|152:72,1,170.000003242493,12|0,0:2|0:0,0:0:0:0:
213,362,83997,2,0,P|296:365|360:312,1,170.000003242493,10|8,0:2|0:3,0:0:0:0:
77,138,84372,6,0,B|46:191|46:191|57:299,1,170.000003242493,14|0,0:2|0:0,0:0:0:0:
455,299,84747,2,0,B|466:191|466:191|435:138,1,170.000003242493,10|0,0:2|0:0,0:0:0:0:
151,45,85122,2,0,L|166:233,1,170.000003242493,14|0,0:2|0:0,0:0:0:0:
347,214,85497,2,0,L|361:45,1,170.000003242493,10|0,0:3|0:0,0:0:0:0:
77,138,85872,5,8,0:3:0:0:
435,138,86060,1,12,1:2:0:0:
