osu file format v14

[General]
AudioFilename: audio.mp3
AudioLeadIn: 0
PreviewTime: 63278
Countdown: 0
SampleSet: Normal
StackLeniency: 0.5
Mode: 0
LetterboxInBreaks: 0
WidescreenStoryboard: 1

[Editor]
DistanceSpacing: 2.4
BeatDivisor: 4
GridSize: 32
TimelineZoom: 1.8

[Metadata]
Title:Shinzou o Sasageyo! [TV Size]
TitleUnicode:心臓を捧げよ! [TV Size]
Artist:Linked Horizon
ArtistUnicode:Linked Horizon
Creator:Monstrata
Version:Hard
Source:進撃の巨人
Tags:revo Attack on Titan shingeki no kyojin season 2 two dedicate all your hearts heart snk aot Haruto haruto_aizawa armin arlert levi erin jaeger mikasa ackerman survey corps opening one theme song sound
BeatmapID:1256295
BeatmapSetID:593620

[Difficulty]
HPDrainRate:4
CircleSize:4
OverallDifficulty:6
ApproachRate:7.5
SliderMultiplier:1.3
SliderTickRate:1

[Events]
//Background and Video events
0,0,"sasageyo.jpg",0,0
Video,-150,"sasageyo.flv"
//Break Periods
//Storyboard Layer 0 (Background)
//Storyboard Layer 1 (Fail)
//Storyboard Layer 2 (Pass)
//Storyboard Layer 3 (Foreground)
//Storyboard Sound Samples

[TimingPoints]
560,375,4,2,2,50,1,0
560,-200,4,2,2,50,0,0
3560,-100,4,3,2,65,0,0
6560,-133.333333333333,4,3,3,55,0,0
17435,-133.333333333333,4,3,2,55,0,0
17810,-133.333333333333,4,3,2,50,0,0
18185,-133.333333333333,4,3,2,60,0,0
18560,-100,4,3,2,50,0,0
18747,-100,4,3,3,60,0,0
29060,-100,4,3,2,70,0,0
29341,-100,4,3,2,5,0,0
29435,-100,4,3,2,70,0,0
29716,-100,4,3,2,5,0,0
29810,-100,4,3,2,70,0,0
30560,-133.333333333333,4,3,2,55,0,0
32810,-133.333333333333,4,3,2,60,0,0
33091,-133.333333333333,4,3,2,5,0,0
33185,-133.333333333333,4,3,2,60,0,0
33466,-133.333333333333,4,3,2,5,0,0
33560,-133.333333333333,4,3,2,55,0,0
35810,-133.333333333333,4,3,2,60,0,0
36560,-100,4,3,2,60,0,0
39091,-100,4,3,2,5,0,0
39185,-100,4,3,2,60,0,0
39466,-100,4,3,2,5,0,0
39560,-100,4,3,2,60,0,0
41435,-100,4,3,2,65,0,0
41716,-100,4,3,2,5,0,0
41810,-100,4,3,2,70,0,0
42185,-100,4,3,2,75,0,0
42560,-100,4,3,2,70,0,0
45466,-100,4,3,2,5,0,0
45560,-133.333333333333,4,3,2,50,0,0
48091,-133.333333333333,4,3,2,5,0,0
48185,-133.333333333333,4,3,2,60,0,0
48560,-100,4,3,2,70,0,0
50060,-100,4,3,2,75,0,0
51560,-133.333333333333,4,3,2,55,0,0
54372,-133.333333333333,4,3,3,55,0,0
54560,-133.333333333333,4,3,2,55,0,0
57560,-200,4,3,2,45,0,0
60185,-200,4,3,2,55,0,0
60560,-133.333333333333,4,3,2,65,0,0
62060,-117.647058823529,4,3,2,70,0,0
62435,-111.111111111111,4,3,2,70,0,0
62810,-105.263157894737,4,3,2,75,0,0
63560,-94.1176470588235,4,1,2,70,0,1
72560,-100,4,3,2,65,0,0
73778,-100,4,3,3,65,0,0
73966,-100,4,3,2,65,0,0
74060,-133.333333333333,4,3,2,70,0,1
74247,-100,4,3,3,70,0,1
78372,-100,4,3,2,75,0,1
78653,-100,4,3,3,75,0,1
78747,-100,4,3,2,70,0,1
79028,-100,4,3,3,70,0,1
79122,-100,4,3,2,70,0,1
79403,-100,4,3,3,70,0,1
79497,-100,4,3,2,70,0,1
80060,-94.1176470588235,4,1,2,75,0,1
83528,-94.1176470588235,4,3,3,80,0,1
83622,-94.1176470588235,4,1,2,70,0,1
86060,-100,4,3,2,80,0,0

[Colours]
Combo1 : 222,184,135
Combo2 : 255,128,0
Combo3 : 0,128,192
Combo4 : 255,255,128

[HitObjects]
104,215,560,5,2,0:2:0:0:
170,255,747,2,0,L|210:251,1,32.5,0|0,0:0|0:0,0:0:0:0:
178,177,1122,2,0,L|218:173,1,32.5,2|0,0:0|0:0,0:0:0:0:
186,99,1497,2,0,L|226:95,1,32.5,2|0,0:0|0:0,0:0:0:0:
281,141,1872,1,2,0:0:0:0:
354,114,2060,5,2,0:1:0:0:
342,190,2247,2,0,L|348:234,1,32.5,2|0,0:0|0:0,0:0:0:0:
268,221,2622,2,0,L|274:265,1,32.5,2|0,0:0|0:0,0:0:0:0:
194,252,2997,2,0,L|200:296,1,32.5,2|0,0:1|0:0,0:0:0:0:
210,361,3372,1,2,0:0:0:0:
120,283,3560,5,4,0:2:0:0:
196,171,3747,2,0,P|170:139|130:128,1,65,8|0,0:0|1:0,0:0:0:0:
109,9,4122,2,0,P|95:38|96:70,1,65,4|0,0:2|0:0,0:0:0:0:
173,56,4497,2,0,L|262:55,1,65,4|4,1:2|2:3,0:0:0:0:
376,31,4872,6,0,L|312:32,1,65,4|0,0:2|2:3,0:0:0:0:
299,109,5247,2,0,L|344:185,1,65,4|4,0:2|2:3,0:0:0:0:
398,271,5622,2,0,L|398:206,1,65,4|0,0:2|1:0,0:0:0:0:
325,240,5997,1,4,0:2:0:0:
255,274,6185,2,0,L|256:307,2,32.5,0|0|4,0:0|1:0|0:3,0:0:0:0:
187,345,6560,5,4,0:1:0:0:
114,317,6747,2,0,P|106:293|105:269,1,48.750001859665,2|2,0:1|0:0,0:0:0:0:
67,201,7122,2,0,P|90:193|114:192,1,48.750001859665,2|2,0:2|0:0,0:0:0:0:
183,153,7497,2,0,P|190:176|191:200,1,48.750001859665,2|2,0:2|0:0,0:0:0:0:
256,244,7872,6,0,L|256:283,2,24.3750009298325,2|2|10,0:0|0:0|0:0,0:0:0:0:
320,200,8247,2,0,L|376:196,1,48.750001859665,0|2,0:0|0:0,0:0:0:0:
382,119,8622,2,0,L|333:122,1,48.750001859665,2|2,0:2|0:0,0:0:0:0:
285,61,8997,1,6,0:0:0:0:
354,24,9185,2,0,L|356:63,2,24.3750009298325,10|10|2,0:0|0:0|0:0,0:0:0:0:
431,34,9560,5,6,0:0:0:0:
459,106,9747,2,0,L|526:116,1,48.750001859665,2|2,0:2|0:0,0:0:0:0:
507,191,10122,2,0,L|458:198,1,48.750001859665,2|2,0:2|0:0,0:0:0:0:
459,276,10497,2,0,L|507:283,1,48.750001859665,2|2,0:2|0:0,0:0:0:0:
497,360,10872,6,0,L|496:404,2,24.3750009298325,2|2|6,0:0|0:0|0:0,0:0:0:0:
420,343,11247,2,0,L|371:335,1,48.750001859665,0|2,0:0|0:0,0:0:0:0:
293,321,11622,2,0,P|291:345|297:368,1,48.750001859665,2|2,0:2|0:0,0:0:0:0:
224,384,11997,1,10,0:0:0:0:
169,328,12185,2,0,L|129:322,2,24.3750009298325,4|0|2,0:2|0:0|0:0,0:0:0:0:
226,274,12560,5,4,0:2:0:0:
282,219,12747,2,0,P|287:196|282:172,1,48.750001859665,0|2,0:0|0:0,0:0:0:0:
268,95,13122,2,0,L|266:59,2,24.3750009298325,2|0|10,0:2|0:0|0:0,0:0:0:0:
207,149,13497,2,0,P|203:173|208:197,1,48.750001859665,2|2,0:2|0:0,0:0:0:0:
226,274,13872,6,0,L|228:310,2,24.3750009298325,2|2|6,0:0|0:0|0:0,0:0:0:0:
298,244,14247,2,0,L|357:244,1,48.750001859665,2|2,0:0|0:0,0:0:0:0:
362,167,14622,2,0,L|320:167,2,24.3750009298325,2|0|2,0:2|0:0|0:1,0:0:0:0:
419,219,14997,1,10,0:0:0:0:
477,270,15185,2,0,P|492:238|495:213,1,48.750001859665,2|2,0:0|0:1,0:0:0:0:
464,149,15560,6,0,P|458:124|458:100,1,48.750001859665,10|2,0:0|0:2,0:0:0:0:
443,22,15935,2,0,P|418:26|395:26,1,48.750001859665,2|10,0:0|0:0,0:0:0:0:
318,41,16310,2,0,P|323:64|323:87,1,48.750001859665,2|0,0:1|0:0,0:0:0:0:
337,167,16685,2,0,P|360:160|384:161,1,48.750001859665,2|2,3:0|0:0,0:0:0:0:
465,172,17060,5,4,0:2:0:0:
431,242,17247,1,0,3:0:0:0:
478,383,17435,1,8,0:2:0:0:
436,319,17622,1,0,0:0:0:0:
317,286,17810,2,0,L|366:284,1,48.750001859665,10|8,1:2|0:2,0:0:0:0:
465,171,18185,2,0,P|465:148|459:123,1,48.750001859665,12|8,0:2|0:0,0:0:0:0:
380,157,18560,5,4,0:1:0:0:
309,190,18747,2,0,L|225:189,1,65,2|2,0:1|0:0,0:0:0:0:
166,211,19122,2,0,L|167:127,1,65,2|2,0:2|0:0,0:0:0:0:
235,109,19497,2,0,L|236:25,1,65,2|2,0:2|0:0,0:0:0:0:
161,69,19872,1,2,0:2:0:0:
86,93,20060,5,2,0:2:0:0:
32,147,20247,2,0,P|63:166|107:167,1,65,0|2,0:0|0:0,0:0:0:0:
144,226,20622,2,0,P|110:243|88:281,1,65,2|2,0:2|0:0,0:0:0:0:
163,303,20997,1,0,0:0:0:0:
221,207,21185,1,12,0:2:0:0:
240,284,21372,1,2,0:0:0:0:
144,226,21560,5,12,0:2:0:0:
164,150,21747,2,0,L|181:79,1,65,2|2,0:2|0:0,0:0:0:0:
243,131,22122,2,0,L|312:110,1,65,2|2,0:2|0:0,0:0:0:0:
298,189,22497,2,0,L|350:239,1,65,0|2,0:0|0:2,0:0:0:0:
325,307,22872,1,0,0:0:0:0:
400,288,23060,5,2,0:0:0:0:
420,212,23247,2,0,P|406:184|381:164,1,65,2|2,0:2|0:0,0:0:0:0:
325,109,23622,2,0,P|307:135|302:167,1,65,2|2,0:2|0:0,0:0:0:0:
345,233,23997,1,2,0:0:0:0:
295,292,24185,2,0,L|296:346,2,32.5,4|0|0,0:2|1:0|1:0,0:0:0:0:
224,263,24560,5,12,0:2:0:0:
229,186,24747,2,0,L|233:101,1,65,2|2,0:2|0:0,0:0:0:0:
176,66,25122,2,0,P|202:48|234:43,1,65,2|2,0:1|0:0,0:0:0:0:
300,85,25497,2,0,P|326:103|358:108,1,65,2|2,0:2|0:0,0:0:0:0:
353,30,25872,2,0,L|348:-15,2,32.5,0|0|12,1:0|1:0|0:2,0:0:0:0:
423,63,26247,6,0,P|436:103|425:144,1,65,8|2,0:0|0:0,0:0:0:0:
379,181,26622,2,0,L|374:226,2,32.5,2|0|2,0:1|0:0|0:0,0:0:0:0:
312,139,26997,1,2,0:2:0:0:
246,181,27185,2,0,L|254:255,1,65,2|2,0:0|0:0,0:0:0:0:
264,323,27560,6,0,P|307:304|329:271,1,65,4|8,0:2|0:0,0:0:0:0:
326,213,27935,1,2,0:0:0:0:
401,195,28122,1,2,0:1:0:0:
441,260,28310,2,0,L|433:349,1,65,10|0,0:2|0:0,0:0:0:0:
507,355,28685,2,0,L|512:290,1,65,2|8,0:0|0:0,0:0:0:0:
435,195,29060,6,0,L|440:259,1,65,4|0,0:2|0:0,0:0:0:0:
297,269,29435,2,0,L|362:265,1,65,4|0,1:3|0:0,0:0:0:0:
351,120,29810,2,0,L|357:186,1,65,10|2,0:2|0:1,0:0:0:0:
214,198,30185,2,0,L|279:193,1,65,4|0,0:2|2:0,0:0:0:0:
179,122,30560,6,0,L|124:114,1,48.750001859665,4|0,0:1|0:0,0:0:0:0:
53,104,30935,1,8,0:0:0:0:
4,165,31122,1,0,0:0:0:0:
32,236,31310,2,0,P|52:223|67:205,1,48.750001859665,0|2,0:0|0:0,0:0:0:0:
145,194,31685,2,0,P|158:214|176:229,1,48.750001859665,8|0,0:0|0:0,0:0:0:0:
314,242,32060,6,0,P|267:250|231:286,1,97.50000371933,2|8,0:2|0:0,0:0:0:0:
302,319,32622,1,2,0:0:0:0:
375,293,32810,2,0,L|442:290,1,48.750001859665,4|0,0:2|0:0,0:0:0:0:
393,218,33185,2,0,L|433:191,1,48.750001859665,12|0,0:2|0:0,0:0:0:0:
329,168,33560,5,4,0:2:0:0:
387,117,33747,1,0,0:0:0:0:
314,90,33935,2,0,L|311:41,1,48.750001859665,8|2,0:0|0:0,0:0:0:0:
241,7,34310,1,2,0:2:0:0:
172,43,34497,1,2,0:0:0:0:
168,120,34685,2,0,P|192:118|214:108,1,48.750001859665,8|2,0:0|0:0,0:0:0:0:
104,79,35060,5,4,0:3:0:0:
100,156,35247,1,2,0:0:0:0:
164,197,35435,1,8,0:0:0:0:
168,120,35622,1,2,0:0:0:0:
36,115,35810,2,0,P|25:153|30:184,1,48.750001859665,4|0,0:2|0:0,0:0:0:0:
104,79,36185,2,0,P|115:41|110:10,1,48.750001859665,12|2,0:2|0:2,0:0:0:0:
100,156,36560,6,0,L|176:160,1,65,4|2,0:2|0:0,0:0:0:0:
207,225,36935,2,0,L|283:221,1,65,8|2,0:0|0:0,0:0:0:0:
337,178,37310,1,2,0:2:0:0:
396,227,37497,1,2,0:0:0:0:
461,182,37685,2,0,P|471:152|469:120,1,65,8|2,0:0|0:0,0:0:0:0:
510,53,38060,6,0,P|479:42|447:44,1,65,4|2,0:3|0:0,0:0:0:0:
376,77,38435,2,0,L|399:162,1,65,8|2,0:0|0:0,0:0:0:0:
308,241,38810,2,0,L|325:179,1,65,4|0,0:2|0:0,0:0:0:0:
448,198,39185,2,0,L|431:260,1,65,12|0,0:2|0:0,0:0:0:0:
366,305,39560,6,0,P|339:321|307:326,1,65,4|2,0:2|0:0,0:0:0:0:
248,262,39935,2,0,P|276:245|308:241,1,65,8|2,0:0|0:0,0:0:0:0:
372,197,40310,1,2,0:2:0:0:
301,164,40497,1,2,0:0:0:0:
294,86,40685,2,0,L|285:-4,1,65,8|2,0:0|0:1,0:0:0:0:
236,208,41060,6,0,L|227:298,1,65,12|0,1:2|0:0,0:0:0:0:
303,298,41435,2,0,L|309:233,1,65,8|0,1:2|0:0,0:0:0:0:
169,118,41810,2,0,L|160:208,1,65,12|2,1:2|0:1,0:0:0:0:
236,208,42185,2,0,L|242:143,1,65,12|0,0:0|0:0,0:0:0:0:
154,41,42560,5,12,0:2:0:0:
94,92,42747,1,2,0:1:0:0:
19,64,42935,2,0,P|35:37|62:19,1,65,10|2,0:2|0:1,0:0:0:0:
169,118,43310,5,8,0:0:0:0:
243,91,43497,1,0,0:0:0:0:
255,13,43685,2,0,P|222:13|194:27,1,65,12|0,0:2|0:0,0:0:0:0:
231,169,44060,6,0,P|263:168|291:154,1,65,4|2,0:2|0:1,0:0:0:0:
365,59,44435,2,0,L|364:124,1,65,10|4,0:0|0:0,0:0:0:0:
441,40,44810,2,0,L|440:105,1,65,8|0,0:0|0:0,0:0:0:0:
301,8,45185,2,0,P|284:35|283:68,1,65,12|0,0:2|0:0,0:0:0:0:
212,110,45560,6,0,P|259:116|294:150,1,97.50000371933,4|2,0:1|0:0,0:0:0:0:
223,193,46122,1,0,0:0:0:0:
151,236,46310,2,0,P|186:270|234:276,1,97.50000371933,8|2,0:0|0:1,0:0:0:0:
305,235,46872,1,0,0:0:0:0:
376,194,47060,6,0,P|424:200|459:234,1,97.50000371933,4|0,0:0|0:0,0:0:0:0:
386,276,47622,1,2,0:0:0:0:
315,319,47810,2,0,P|349:352|397:358,1,97.50000371933,12|2,0:2|0:1,0:0:0:0:
468,318,48372,1,8,0:0:0:0:
380,229,48560,6,0,L|397:358,1,130,12|4,0:2|0:0,0:0:0:0:
468,318,49122,1,0,1:0:0:0:
428,160,49310,2,0,P|366:144|312:177,1,130,10|8,0:0|0:0,0:0:0:0:
380,229,49872,1,0,0:0:0:0:
509,140,50060,6,0,L|501:67,1,65,12|0,1:2|0:0,0:0:0:0:
421,9,50435,2,0,L|428:73,1,65,8|0,1:3|0:0,0:0:0:0:
347,180,50810,2,0,L|355:116,1,65,4|8,1:2|1:3,0:0:0:0:
439,283,51185,1,2,1:0:0:0:
427,205,51372,1,8,1:3:0:0:
365,324,51560,6,0,P|311:330|261:294,1,97.50000371933,4|0,0:1|0:0,0:0:0:0:
231,244,52122,1,2,0:0:0:0:
296,200,52310,2,0,P|316:156|309:109,1,97.50000371933,8|2,0:0|0:1,0:0:0:0:
256,53,52872,1,2,0:0:0:0:
202,109,53060,6,0,P|195:156|216:200,1,97.50000371933,2|0,0:2|0:0,0:0:0:0:
281,244,53622,1,2,0:0:0:0:
237,310,53810,2,0,P|194:331|147:324,1,97.50000371933,12|2,0:0|0:1,0:0:0:0:
83,278,54372,1,2,0:0:0:0:
127,214,54560,6,0,L|131:107,1,97.50000371933,4|0,0:2|0:0,0:0:0:0:
192,68,55122,1,2,0:0:0:0:
253,116,55310,2,0,L|257:214,1,97.50000371933,8|2,0:0|0:1,0:0:0:0:
318,263,55872,1,2,0:0:0:0:
379,213,56060,6,0,P|422:192|469:199,1,97.50000371933,0|2,0:0|0:1,0:0:0:0:
499,271,56622,1,2,0:0:0:0:
434,314,56810,2,0,L|378:290,1,48.750001859665,12|0,0:0|0:0,0:0:0:0:
318,263,57185,2,0,L|264:282,1,48.750001859665,12|2,0:2|0:2,0:0:0:0:
202,306,57560,6,0,P|203:249|232:216,1,97.5,4|2,0:1|0:2,0:0:0:0:
296,190,58310,2,0,P|272:158|209:148,1,97.5,0|2,0:0|0:2,0:0:0:0:
154,186,59060,2,0,P|142:140|167:89,1,97.5,2|0,0:0|0:0,0:0:0:0:
225,58,59810,2,0,P|256:50|287:57,1,65,2|8,0:2|0:0,0:0:0:0:
351,95,60372,1,2,2:0:0:0:
297,147,60560,6,0,P|277:103|287:57,1,97.50000371933,12|2,0:2|0:1,0:0:0:0:
351,95,61122,1,0,1:0:0:0:
314,221,61310,6,0,P|266:216|230:184,1,97.50000371933,12|8,0:2|1:3,0:0:0:0:
297,147,61872,1,2,0:1:0:0:
387,243,62060,6,0,P|359:281|293:293,1,110.50000210762,12|12,0:2|0:2,0:0:0:0:
314,221,62622,1,0,0:0:0:0:
443,191,62810,6,0,P|462:234|433:307,1,123.499996702194,12|12,0:2|0:2,0:0:0:0:
387,243,63372,1,2,0:1:0:0:
426,117,63560,6,0,L|501:104,1,69.0625013172627,4|2,0:1|0:1,0:0:0:0:
446,28,63935,2,0,L|371:15,1,69.0625013172627,2|8,0:2|0:3,0:0:0:0:
320,85,64310,1,2,0:0:0:0:
230,68,64497,1,10,0:3:0:0:
186,148,64685,1,0,0:0:0:0:
248,214,64872,1,8,0:3:0:0:
330,174,65060,6,0,P|340:208|336:242,1,69.0625013172627,12|8,0:2|0:3,0:0:0:0:
254,280,65435,2,0,P|244:246|248:212,1,69.0625013172627,0|8,0:0|0:3,0:0:0:0:
320,85,65810,1,10,0:2:0:0:
402,119,65997,1,8,0:3:0:0:
411,206,66185,2,0,L|423:293,1,69.0625013172627,4|8,0:2|0:3,0:0:0:0:
302,307,66560,6,0,P|355:265|421:275,1,138.125002634525,4|0,0:2|3:0,0:0:0:0:
378,353,67122,1,8,0:3:0:0:
225,350,67310,2,0,P|216:283|257:230,1,138.125002634525,12|0,0:2|3:0,0:0:0:0:
302,307,67872,1,8,0:3:0:0:
124,327,68060,6,0,L|98:178,1,138.125002634525,12|0,0:2|3:0,0:0:0:0:
149,115,68622,1,8,0:3:0:0:
256,201,68810,2,0,L|188:195,1,69.0625013172627,12|0,0:2|0:0,0:0:0:0:
283,115,69185,2,0,L|351:108,1,69.0625013172627,12|8,0:2|0:3,0:0:0:0:
412,211,69560,6,0,L|343:217,1,69.0625013172627,12|2,0:2|0:0,0:0:0:0:
287,288,69935,2,0,L|355:294,1,69.0625013172627,0|8,3:0|0:3,0:0:0:0:
256,201,70310,1,12,0:2:0:0:
196,271,70497,1,10,0:3:0:0:
110,235,70685,1,0,3:0:0:0:
117,143,70872,1,8,0:3:0:0:
208,121,71060,6,0,L|293:101,1,69.0625013172627,12|10,0:2|0:3,0:0:0:0:
355,0,71435,2,0,L|288:16,1,69.0625013172627,0|8,3:0|0:3,0:0:0:0:
350,157,71810,2,0,L|362:89,1,69.0625013172627,12|2,0:2|0:0,0:0:0:0:
197,53,72185,2,0,L|208:121,1,69.0625013172627,8|12,0:3|0:3,0:0:0:0:
266,180,72560,5,14,0:2:0:0:
266,180,73310,5,2,0:2:0:0:
237,259,73497,2,0,L|246:309,5,32.5,2|2|6|8|8|2,3:0|3:1|0:0|1:3|1:3|1:0,0:0:0:0:
250,322,74060,1,4,0:1:0:0:
316,361,74247,6,0,P|348:364|379:356,1,65,2|2,0:2|0:0,0:0:0:0:
337,223,74622,2,0,P|333:255|342:287,1,65,2|2,0:2|0:0,0:0:0:0:
410,248,74997,2,0,P|413:215|405:184,1,65,2|2,0:2|0:0,0:0:0:0:
338,143,75372,1,8,0:0:0:0:
270,182,75560,5,4,0:2:0:0:
202,140,75747,2,0,L|195:69,1,65,2|2,0:2|0:0,0:0:0:0:
134,179,76122,2,0,L|127:250,1,65,10|2,0:2|0:0,0:0:0:0:
185,295,76497,1,8,0:2:0:0:
256,262,76685,1,2,0:0:0:0:
327,295,76872,1,10,0:2:0:0:
391,250,77060,5,2,0:0:0:0:
383,171,77247,2,0,P|361:148|330:140,1,65,10|2,0:2|0:0,0:0:0:0:
265,185,77622,2,0,P|287:208|318:216,1,65,10|2,0:2|0:0,0:0:0:0:
257,107,77997,2,0,P|226:98|194:106,1,65,10|0,0:2|1:0,0:0:0:0:
177,247,78372,6,0,L|187:183,1,65,14|0,0:2|0:0,0:0:0:0:
85,155,78747,2,0,L|94:219,1,65,12|0,0:2|0:0,0:0:0:0:
179,336,79122,2,0,L|188:271,1,65,12|0,0:2|0:0,0:0:0:0:
86,243,79497,2,0,L|95:307,1,65,12|0,0:2|1:0,0:0:0:0:
247,380,79872,1,12,0:2:0:0:
328,353,80060,5,6,0:1:0:0:
274,225,80247,2,0,L|263:293,1,69.0625013172627,10|0,0:2|0:0,0:0:0:0:
347,183,80622,2,0,L|415:193,1,69.0625013172627,12|0,0:2|0:0,0:0:0:0:
467,120,80997,1,10,0:2:0:0:
416,44,81185,1,8,0:3:0:0:
342,94,81372,1,10,0:2:0:0:
291,18,81560,5,8,0:3:0:0:
217,68,81747,2,0,L|229:162,1,69.0625013172627,10|2,0:2|0:3,0:0:0:0:
315,242,82122,2,0,L|307:174,1,69.0625013172627,12|0,1:2|0:0,0:0:0:0:
165,198,82497,2,0,P|194:217|229:223,1,69.0625013172627,10|8,0:2|0:3,0:0:0:0:
226,136,82872,1,10,0:2:0:0:
162,76,83060,5,2,0:0:0:0:
102,139,83247,2,0,L|15:140,1,69.0625013172627,10|2,0:2|0:3,0:0:0:0:
12,52,83622,2,0,L|81:51,1,69.0625013172627,12|0,0:2|0:0,0:0:0:0:
182,163,83997,2,0,L|252:163,1,69.0625013172627,10|8,0:2|0:3,0:0:0:0:
231,75,84372,2,0,L|162:76,1,69.0625013172627,14|0,0:2|0:0,0:0:0:0:
122,226,84747,6,0,L|35:227,1,69.0625013172627,10|0,0:2|0:0,0:0:0:0:
32,139,85122,2,0,L|101:138,1,69.0625013172627,14|0,0:2|0:0,0:0:0:0:
204,252,85497,2,0,L|273:251,1,69.0625013172627,10|0,0:3|0:0,0:0:0:0:
237,168,85872,1,8,0:3:0:0:
240,335,86060,5,12,1:2:0:0:
