osu file format v14

[General]
AudioFilename: opening.mp3
AudioLeadIn: 0
PreviewTime: 63512
Countdown: 0
SampleSet: Normal
StackLeniency: 0.5
Mode: 0
LetterboxInBreaks: 0
WidescreenStoryboard: 0

[Editor]
Bookmarks: 6700,18700,30700,42700,45700,48700,51700,57700,60700
DistanceSpacing: 1.2
BeatDivisor: 8
GridSize: 4
TimelineZoom: 5.199997

[Metadata]
Title:Shinzou o Sasageyo! [TV Size]
TitleUnicode:心臓を捧げよ! [TV Size]
Artist:Linked Horizon
ArtistUnicode:Linked Horizon
Creator:Kalindraz
Version:Piercing Arrow
Source:進撃の巨人
Tags:Trynna Net0 Attack on Titan Second Season Anime Shingeki no Kyojin op opening j-pop j-rock
BeatmapID:1256930
BeatmapSetID:594230

[Difficulty]
HPDrainRate:6
CircleSize:4.2
OverallDifficulty:8.5
ApproachRate:9.4
SliderMultiplier:2
SliderTickRate:1

[Events]
//Background and Video events
0,0,"bg.jpg",0,0
Video,-10,"MyAngelShadowLand.flv"
//Break Periods
//Storyboard Layer 0 (Background)
//Storyboard Layer 1 (Fail)
//Storyboard Layer 2 (Pass)
//Storyboard Layer 3 (Foreground)
//Storyboard Sound Samples

[TimingPoints]
700,375,4,2,0,25,1,0
700,-100,4,2,0,25,0,0
3700,-66.6666666666667,4,1,0,45,0,0
6700,-133.333333333333,4,3,0,45,0,0
8293,-133.333333333333,4,2,0,5,0,0
8387,-133.333333333333,4,3,0,45,0,0
14387,-133.333333333333,4,3,0,45,0,0
17481,-133.333333333333,4,2,0,5,0,0
17575,-100,4,3,0,45,0,0
17856,-100,4,2,0,5,0,0
17950,-100,4,3,0,45,0,0
30700,-100,4,3,0,45,0,0
33231,-100,4,2,0,5,0,0
33325,-100,4,3,0,45,0,0
33606,-100,4,2,0,5,0,0
33700,-100,4,3,0,45,0,0
36231,-100,4,2,0,5,0,0
36325,-100,4,3,0,45,0,0
45606,-100,4,2,0,5,0,0
45700,-133.333333333333,4,3,0,45,0,0
48231,-133.333333333333,4,2,0,5,0,0
48325,-100,4,3,0,45,0,0
48700,-100,4,3,0,70,0,0
51700,-133.333333333333,4,3,0,45,0,0
56950,-133.333333333333,4,3,0,25,0,0
57700,-200,4,3,0,30,0,0
58166,-200,4,2,0,5,0,0
58262,-200,4,2,0,30,0,0
59668,-200,4,2,0,5,0,0
59762,-200,4,2,0,40,0,0
60700,-66.6666666666667,4,1,0,60,0,0
63700,-66.6666666666667,4,1,0,75,0,1
72700,-66.6666666666667,4,1,0,75,0,0
74200,-100,4,1,0,75,0,1
79168,-100,4,2,0,5,0,1
79262,-100,4,1,0,75,0,1
79450,-100,4,1,0,25,0,0
79543,-100,4,1,0,35,0,0
79637,-100,4,1,0,45,0,0
79731,-100,4,1,0,55,0,0
79825,-100,4,1,0,65,0,0
79918,-100,4,1,0,75,0,0
80012,-100,4,1,0,85,0,0
80106,-100,4,1,0,95,0,0
80200,-66.6666666666667,4,1,0,75,0,1
86200,-100,4,1,0,75,0,0

[Colours]
Combo1 : 238,111,26
Combo2 : 56,169,116
Combo3 : 57,103,187
Combo4 : 205,16,16

[HitObjects]
128,40,700,5,2,0:0:0:0:
128,40,887,1,2,0:0:0:0:
302,203,1262,1,2,0:0:0:0:
73,272,1637,1,2,0:0:0:0:
160,164,2012,1,0,0:0:0:0:
262,71,2200,5,2,0:0:0:0:
262,71,2387,1,2,0:0:0:0:
208,304,2762,1,2,0:0:0:0:
33,140,3137,1,2,0:0:0:0:
160,164,3512,1,2,0:0:0:0:
160,164,3606,1,0,0:0:0:0:
160,164,3700,38,0,L|252:164,1,75.0000028610231,8|0,0:3|0:0,0:0:0:0:
328,164,3887,6,0,P|340:76|320:12,1,150.000005722046,2|8,0:1|0:3,0:0:0:0:
247,80,4168,1,0,0:0:0:0:
164,18,4262,38,0,P|146:90|160:164,1,150.000005722046,2|8,0:1|0:3,0:0:0:0:
247,80,4543,1,0,0:0:0:0:
323,18,4637,6,0,B|395:-2|395:-2|483:18,1,150.000005722046,2|8,0:1|0:3,0:0:0:0:
512,88,4918,1,0,0:0:0:0:
473,166,5012,38,0,B|399:183|399:183|327:163,1,150.000005722046,2|8,0:1|0:3,0:0:0:0:
248,224,5293,1,0,0:0:0:0:
317,300,5387,6,0,P|345:248|325:159,1,150.000005722046,2|8,0:1|0:3,0:0:0:0:
248,104,5668,1,0,0:0:0:0:
168,162,5762,38,0,P|148:232|179:300,1,150.000005722046,2|8,0:1|0:3,0:0:0:0:
248,368,6043,1,0,0:0:0:0:
317,300,6137,6,0,B|248:272|248:272|176:300,1,150.000005722046,2|8,0:1|0:3,0:0:0:0:
248,368,6418,1,0,0:0:0:0:
317,300,6512,2,0,L|304:220,1,75.0000028610231,2|0,0:1|0:0,0:0:0:0:
256,116,6700,37,6,0:1:0:0:
179,300,6887,2,0,L|191:380,1,75.0000028610231,2|8,0:2|0:0,0:0:0:0:
91,280,7262,2,0,L|103:360,1,75.0000028610231,2|8,0:2|0:0,0:0:0:0:
3,264,7637,2,0,L|15:344,1,75.0000028610231,2|8,0:2|0:0,0:0:0:0:
0,119,8012,6,0,P|67:122|107:164,1,112.500004291535,2|0,0:2|0:0,0:0:0:0:
172,196,8387,2,0,P|216:204|260:192,1,75.0000028610231,2|8,0:2|0:0,0:0:0:0:
335,103,8762,2,0,P|291:95|247:107,1,75.0000028610231,2|8,0:2|0:0,0:0:0:0:
344,183,9137,37,2,0:0:0:0:
384,166,9231,1,2,0:0:0:0:
411,129,9325,1,2,0:0:0:0:
413,85,9418,1,2,0:0:0:0:
391,46,9512,1,2,0:0:0:0:
351,25,9606,1,2,0:0:0:0:
307,28,9700,5,12,0:0:0:0:
418,203,9887,2,0,L|410:124,1,75.0000028610231,2|8,0:2|0:0,0:0:0:0:
308,264,10262,2,0,L|300:185,1,75.0000028610231,2|8,0:2|0:0,0:0:0:0:
198,325,10637,2,0,L|190:246,1,75.0000028610231,2|8,0:2|0:0,0:0:0:0:
184,140,11012,1,0,0:0:0:0:
184,140,11106,1,0,0:0:0:0:
184,140,11200,37,8,0:0:0:0:
124,56,11387,2,0,P|168:40|204:40,1,75.0000028610231,2|8,0:2|0:0,0:0:0:0:
283,116,11762,2,0,L|303:200,2,75.0000028610231,2|8|0,0:2|0:0|0:0,0:0:0:0:
360,24,12325,5,10,0:3:0:0:
370,58,12418,1,2,0:0:0:0:
380,96,12512,1,2,0:0:0:0:
391,134,12606,1,2,0:0:0:0:
401,168,12700,37,14,0:0:0:0:
488,224,12887,2,0,P|500:176|484:128,1,75.0000028610231,2|8,0:2|0:0,0:0:0:0:
464,64,13262,1,2,0:2:0:0:
464,64,13356,1,0,0:0:0:0:
464,64,13450,1,8,0:0:0:0:
300,188,13637,2,0,L|212:180,1,75.0000028610231,2|8,0:2|0:0,0:0:0:0:
48,164,14012,1,2,3:3:0:0:
48,164,14106,1,2,3:3:0:0:
48,164,14200,5,14,3:3:0:0:
148,236,14387,2,0,B|152:280|152:280|144:316,1,75.0000028610231,2|8,0:2|0:0,0:0:0:0:
60,376,14762,1,2,0:2:0:0:
60,376,14856,1,0,0:0:0:0:
60,376,14950,1,8,0:0:0:0:
236,340,15137,2,0,L|328:332,1,75.0000028610231,2|8,0:2|0:0,0:0:0:0:
388,232,15512,1,2,0:2:0:0:
388,232,15606,1,0,0:0:0:0:
388,232,15700,37,8,0:0:0:0:
492,268,15887,2,0,P|496:224|488:192,1,75.0000028610231,2|8,0:2|0:0,0:0:0:0:
380,96,16262,1,2,0:2:0:0:
380,96,16356,1,0,0:0:0:0:
380,96,16450,2,0,L|296:92,1,75.0000028610231,8|0,0:0|0:0,0:0:0:0:
128,80,16825,1,8,0:0:0:0:
208,24,17012,1,2,0:2:0:0:
208,24,17106,1,0,0:0:0:0:
208,24,17200,6,0,P|224:80|204:144,1,112.500004291535,8|0,0:0|0:0,0:0:0:0:
128,176,17575,38,0,P|196:164|280:220,1,150,12|0,0:0|0:0,0:0:0:0:
312,264,17950,6,0,P|324:300|332:320,1,50,2|0,0:2|0:0,0:0:0:0:
484,312,18137,2,0,P|492:288|500:264,1,50,2|0,0:2|0:0,0:0:0:0:
360,140,18325,2,0,P|352:184|356:204,1,50,2|0,0:2|0:0,0:0:0:0:
468,192,18512,2,0,P|467:167|460:143,1,50,2|0,0:2|0:0,0:0:0:0:
412,52,18700,37,12,0:0:0:0:
228,112,18887,1,2,0:0:0:0:
232,136,18981,1,2,0:0:0:0:
236,160,19075,1,10,0:0:0:0:
272,32,19262,6,0,P|208:20|172:32,1,100,2|8,0:2|0:0,0:0:0:0:
76,172,19637,2,0,L|84:276,1,100,2|8,0:2|0:0,0:0:0:0:
264,340,20012,1,2,0:0:0:0:
260,320,20106,1,2,0:0:0:0:
256,304,20200,37,10,0:0:0:0:
236,160,20387,1,2,0:2:0:0:
160,288,20575,1,8,0:0:0:0:
324,216,20762,2,0,P|380:212|436:228,1,100,2|8,0:2|0:0,0:0:0:0:
512,356,21137,2,0,P|456:360|400:344,1,100,2|8,0:2|0:0,0:0:0:0:
324,216,21512,1,2,0:0:0:0:
332,200,21606,1,2,0:0:0:0:
340,184,21700,5,10,0:0:0:0:
496,168,21887,2,0,P|504:228|492:280,1,100,2|8,0:2|0:0,0:0:0:0:
413,349,22262,1,2,0:0:0:0:
397,345,22356,1,2,0:0:0:0:
381,341,22450,1,10,0:0:0:0:
259,277,22637,2,0,L|147:289,1,100,2|8,0:2|0:0,0:0:0:0:
0,196,23012,1,2,0:0:0:0:
2,179,23106,1,2,0:0:0:0:
4,163,23200,37,10,0:0:0:0:
100,64,23387,2,0,L|88:168,1,100,2|8,0:2|0:0,0:0:0:0:
71,312,23762,1,2,0:0:0:0:
73,295,23856,1,2,0:0:0:0:
76,280,23950,5,10,0:0:0:0:
171,188,24137,1,2,0:2:0:0:
155,380,24325,37,2,0:0:0:0:
159,332,24418,1,2,0:0:0:0:
163,284,24512,1,2,0:0:0:0:
167,236,24606,1,2,0:0:0:0:
171,188,24700,5,10,0:0:0:0:
256,328,24887,2,0,P|208:340|144:324,1,100,2|8,0:2|0:0,0:0:0:0:
12,220,25262,1,2,0:0:0:0:
8,204,25356,1,2,0:0:0:0:
4,188,25450,1,10,0:0:0:0:
76,376,25637,1,2,0:2:0:0:
108,140,25825,1,8,0:0:0:0:
24,304,26012,1,2,0:0:0:0:
36,296,26106,1,2,0:0:0:0:
48,288,26200,37,10,0:0:0:0:
204,100,26387,2,0,P|168:56|124:32,1,100,2|8,0:2|0:0,0:0:0:0:
132,292,26762,1,2,0:0:0:0:
132,292,26856,1,2,0:0:0:0:
132,292,26950,2,0,P|174:266|204:226,1,100,10|2,0:0|0:2,0:0:0:0:
300,88,27325,5,10,0:0:0:0:
344,68,27418,1,10,0:0:0:0:
392,60,27512,1,10,0:0:0:0:
440,68,27606,1,10,0:0:0:0:
484,92,27700,37,14,0:0:0:0:
392,248,27887,2,0,L|392:148,1,100,2|8,0:2|0:0,0:0:0:0:
494,325,28262,2,0,P|438:337|380:332,1,100,2|10,0:2|0:0,0:0:0:0:
316,316,28543,1,2,0:0:0:0:
300,312,28637,1,2,0:0:0:0:
388,384,28825,2,0,P|396:352|396:336,1,50,8|0,0:0|0:0,0:0:0:0:
392,248,29012,2,0,P|377:218|367:206,1,50,2|0,0:2|0:0,0:0:0:0:
292,160,29200,6,0,L|184:172,1,100,14|2,0:0|0:2,0:0:0:0:
152,96,29481,1,2,0:0:0:0:
152,96,29575,2,0,L|251:84,1,100,14|0,0:0|0:2,0:0:0:0:
184,12,29950,37,12,0:0:0:0:
135,8,30044,1,2,0:2:0:0:
91,31,30138,1,2,0:2:0:0:
67,74,30232,1,2,0:2:0:0:
69,122,30325,1,12,0:0:0:0:
99,163,30419,1,2,0:2:0:0:
143,182,30513,1,2,0:2:0:0:
192,176,30606,1,2,0:2:0:0:
228,144,30700,5,14,0:0:0:0:
148,272,30887,1,2,0:2:0:0:
302,199,31075,1,8,0:0:0:0:
64,236,31262,1,2,0:2:0:0:
256,280,31450,37,8,0:0:0:0:
380,156,31637,1,2,0:2:0:0:
324,364,31825,2,0,P|280:384|224:380,1,100,8|2,0:0|0:2,0:0:0:0:
144,368,32106,1,2,0:0:0:0:
144,368,32200,6,0,B|136:300|136:300|152:252|152:252|140:168,1,200,14|12,0:0|0:0,0:0:0:0:
120,36,32762,1,2,0:2:0:0:
140,171,32950,38,0,B|178:193|178:193|283:171,1,150,12|0,0:0|0:0,0:0:0:0:
280,29,33325,2,0,B|242:8|242:8|139:31,1,150,12|0,0:0|0:0,0:0:0:0:
210,103,33700,5,12,0:0:0:0:
432,120,33887,1,2,0:2:0:0:
428,104,33981,1,0,0:0:0:0:
424,92,34075,1,8,0:0:0:0:
393,206,34262,1,2,0:2:0:0:
398,0,34450,37,8,0:0:0:0:
512,165,34637,1,2,0:2:0:0:
328,100,34825,1,8,0:0:0:0:
512,44,35012,1,2,0:2:0:0:
300,188,35200,5,8,0:0:0:0:
320,348,35387,1,2,0:2:0:0:
316,320,35481,1,0,0:0:0:0:
312,288,35575,1,8,0:0:0:0:
192,198,35762,1,2,0:2:0:0:
204,348,35950,2,0,L|192:188,1,150,8|0,0:0|0:0,0:0:0:0:
105,134,36325,37,2,0:2:0:0:
108,181,36418,1,2,0:2:0:0:
111,229,36512,1,2,0:2:0:0:
114,278,36606,1,2,0:2:0:0:
118,326,36700,5,12,0:0:0:0:
36,192,36887,1,2,0:2:0:0:
200,252,37075,1,8,0:0:0:0:
24,208,37262,1,2,0:2:0:0:
220,144,37450,1,8,0:0:0:0:
12,224,37637,37,2,0:2:0:0:
118,326,37825,1,8,0:0:0:0:
104,136,38012,1,2,0:2:0:0:
200,252,38200,6,0,L|308:244,1,100,12|2,0:0|0:2,0:0:0:0:
404,192,38575,1,8,0:0:0:0:
299,144,38762,1,2,0:2:0:0:
299,144,38856,1,0,0:0:0:0:
299,144,38950,37,12,0:0:0:0:
504,244,39137,1,2,0:2:0:0:
504,144,39325,5,12,0:0:0:0:
299,244,39512,1,2,0:2:0:0:
356,64,39700,38,0,P|320:52|244:60,1,100,12|2,0:0|0:2,0:0:0:0:
172,120,40075,1,8,0:0:0:0:
20,76,40262,1,2,0:2:0:0:
120,12,40450,1,8,0:0:0:0:
64,188,40637,5,2,0:2:0:0:
122,342,40825,1,8,0:0:0:0:
204,240,41012,1,2,0:2:0:0:
6,311,41200,38,0,L|104:329,1,100,12|2,0:0|0:2,0:0:0:0:
122,342,41481,1,2,0:0:0:0:
137,350,41575,2,0,L|235:368,1,100,12|2,0:0|0:0,0:0:0:0:
375,322,41950,5,12,0:0:0:0:
409,305,42043,1,2,0:2:0:0:
428,270,42137,1,2,0:2:0:0:
426,229,42231,1,2,0:2:0:0:
400,197,42325,37,12,0:0:0:0:
353,180,42418,1,2,0:2:0:0:
307,196,42512,1,2,0:2:0:0:
277,237,42606,1,2,0:2:0:0:
285,288,42700,5,12,0:0:0:0:
432,164,42887,1,2,0:2:0:0:
232,172,43075,37,12,0:0:0:0:
448,172,43262,1,2,0:2:0:0:
224,60,43450,5,12,0:0:0:0:
464,180,43637,1,2,0:2:0:0:
464,180,43731,1,0,0:0:0:0:
464,180,43825,2,0,L|356:180,1,100,8|0,0:0|0:0,0:0:0:0:
316,112,44106,1,0,0:0:0:0:
316,112,44200,37,12,0:0:0:0:
124,152,44387,1,2,0:2:0:0:
296,240,44575,5,12,0:0:0:0:
128,136,44762,1,2,0:2:0:0:
203,324,44950,38,0,P|156:336|108:322,1,100,8|2,0:0|0:2,0:0:0:0:
28,276,45231,1,2,0:0:0:0:
27,276,45325,2,0,P|89:236|159:256,1,150,8|0,0:0|0:0,0:0:0:0:
158,255,45700,5,12,0:0:0:0:
280,356,45887,1,2,0:2:0:0:
396,272,46075,1,2,0:0:0:0:
284,220,46262,1,2,0:2:0:0:
472,344,46450,38,0,P|492:272|460:188,1,150.000005722046,4|0,0:0|0:0,0:0:0:0:
396,152,47012,1,2,0:0:0:0:
396,152,47200,2,0,L|244:140,1,150.000005722046,6|0,0:0|0:0,0:0:0:0:
192,72,47762,1,2,0:0:0:0:
164,174,47950,2,0,P|164:114|208:62,1,112.500004291535,14|0,0:0|0:0,0:0:0:0:
264,16,48325,5,2,0:2:0:0:
300,24,48418,1,2,0:2:0:0:
336,32,48512,1,2,0:2:0:0:
372,40,48606,1,2,0:2:0:0:
408,48,48700,38,0,B|404:160|404:160|448:188|444:252,1,200,12|0,0:0|0:0,0:0:0:0:
218,223,49262,1,0,0:0:0:0:
218,223,49356,1,0,0:0:0:0:
218,223,49450,6,0,B|369:227|369:227|346:217|331:185,1,200,12|0,0:0|0:0,0:0:0:0:
256,116,50012,1,2,0:0:0:0:
173,300,50200,37,12,0:0:0:0:
187,301,50293,1,0,0:0:0:0:
201,302,50387,1,0,0:0:0:0:
215,303,50481,1,0,0:0:0:0:
249,319,50575,5,12,0:0:0:0:
263,320,50668,1,0,0:0:0:0:
277,321,50762,1,0,0:0:0:0:
291,322,50856,1,0,0:0:0:0:
328,341,50950,37,12,0:0:0:0:
342,342,51043,1,0,0:0:0:0:
356,343,51137,1,0,0:0:0:0:
370,344,51231,1,0,0:0:0:0:
452,336,51325,22,0,L|476:328,6,25,12|2|2|2|2|2|2,0:0|0:2|0:2|0:2|0:2|0:2|0:2,0:0:0:0:
408,264,51700,38,0,B|400:144|400:144|424:180,1,150.000005722046,4|0,0:0|0:0,0:0:0:0:
496,220,52262,1,2,0:2:0:0:
328,224,52450,2,0,B|268:228|268:228|244:216|244:216|180:220,1,150.000005722046,2|0,1:2|0:0,0:0:0:0:
16,220,53012,1,2,0:2:0:0:
104,264,53200,38,0,B|112:144|112:144|95:168,1,150.000005722046,2|0,0:2|0:0,0:0:0:0:
72,384,53762,1,2,0:2:0:0:
181,335,53949,2,0,B|243:331|243:331|267:343|267:343|327:339,1,150.000005722046,2|0,1:2|0:0,0:0:0:0:
512,228,54700,6,0,P|408:208|304:268,1,225.000008583069,2|0,0:2|0:0,0:0:0:0:
256,340,55450,1,2,1:2:0:0:
188,160,55637,1,2,0:2:0:0:
307,263,55825,1,2,0:2:0:0:
136,244,56012,1,2,0:2:0:0:
320,112,56200,38,0,L|472:104,1,150.000005722046,2|0,0:2|0:0,0:0:0:0:
512,0,56762,1,2,0:2:0:0:
392,52,56950,2,0,L|402:13,3,37.5000014305115,2|2|2|2,1:2|0:2|0:2|0:2,0:0:0:0:
400,152,57325,5,2,1:2:0:0:
412,160,57418,1,2,0:2:0:0:
424,168,57512,1,2,1:2:0:0:
436,176,57606,1,2,0:2:0:0:
448,184,57700,38,0,L|440:312,1,125,2|0,0:2|0:0,0:0:0:0:
439,324,58262,1,2,0:0:0:0:
340,312,58450,2,0,P|292:304|240:312,1,100,2|0,0:0|0:0,0:0:0:0:
162,360,59012,1,2,0:0:0:0:
68,332,59200,6,0,B|48:288|48:288|56:196,1,125,2|0,0:0|0:0,0:0:0:0:
59,195,59762,1,2,0:0:0:0:
136,68,59950,1,2,0:2:0:0:
196,188,60137,1,2,1:2:0:0:
212,184,60231,1,2,1:2:0:0:
228,180,60325,1,2,1:2:0:0:
328,20,60512,1,2,1:2:0:0:
312,24,60606,1,2,1:2:0:0:
296,28,60700,38,0,B|304:132|304:132|336:176,1,150.000005722046,12|0,3:0|0:0,0:0:0:0:
472,162,60981,1,0,0:0:0:0:
472,162,61075,2,0,P|403:144|326:171,1,150.000005722046,2|0,0:2|0:0,0:0:0:0:
280,248,61356,1,0,0:0:0:0:
280,248,61450,6,0,P|264:288|260:324,1,75.0000028610231,6|0,0:2|0:0,0:0:0:0:
248,172,61637,2,0,P|214:198|192:227,1,75.0000028610231,2|0,0:2|0:0,0:0:0:0:
252,88,61825,2,0,P|209:94|176:108,1,75.0000028610231,2|0,0:2|0:0,0:0:0:0:
301,22,62012,2,0,P|261:6|225:2,1,75.0000028610231,2|0,0:2|0:0,0:0:0:0:
68,0,62200,38,0,B|56:72|56:72|84:152,1,150.000005722046,6|0,0:2|0:0,0:0:0:0:
120,224,62481,1,0,0:0:0:0:
120,224,62575,6,0,B|132:296|132:296|104:376,1,150.000005722046,6|0,0:2|0:0,0:0:0:0:
12,300,62856,1,0,0:0:0:0:
12,300,62950,2,0,P|64:292|96:296,1,75.0000028610231,6|0,0:2|0:0,0:0:0:0:
216,324,63137,2,0,P|268:332|300:328,1,75.0000028610231,6|0,0:2|0:0,0:0:0:0:
384,312,63325,6,0,L|407:261,1,37.5000014305115,6|0,0:2|2:0,0:0:0:0:
421,307,63418,2,0,L|416:251,1,37.5000014305115,2|0,0:2|2:0,0:0:0:0:
453,287,63512,2,0,L|421:241,1,37.5000014305115,2|0,0:2|2:0,0:0:0:0:
472,252,63606,2,0,L|421:228,1,37.5000014305115,2|0,0:2|2:0,0:0:0:0:
472,212,63700,6,0,L|444:57,1,150.000005722046,6|0,0:2|0:0,0:0:0:0:
376,4,63981,1,0,0:0:0:0:
332,84,64075,2,0,B|256:96|256:96|168:80,1,150.000005722046,2|0,0:2|0:0,0:0:0:0:
132,16,64356,1,0,0:0:0:0:
72,84,64450,38,0,P|67:121|77:156,1,75.0000028610231,2|0,0:2|0:0,0:0:0:0:
179,156,64637,2,0,P|188:120|184:83,1,75.0000028610231,2|0,0:2|0:0,0:0:0:0:
0,200,64825,2,0,P|-4:237|5:272,1,75.0000028610231,2|0,0:2|0:0,0:0:0:0:
248,272,65012,2,0,P|257:236|253:199,1,75.0000028610231,2|0,0:2|0:0,0:0:0:0:
171,337,65200,6,0,P|243:365|315:345,1,150.000005722046,6|0,0:2|0:0,0:0:0:0:
387,297,65481,1,0,0:0:0:0:
464,252,65575,2,0,L|468:176,1,75.0000028610231,2|0,0:2|0:0,0:0:0:0:
408,16,65762,2,0,L|404:90,1,75.0000028610231,0|0,0:0|0:0,0:0:0:0:
328,168,65950,38,0,P|248:180|180:152,1,150.000005722046,2|2,0:2|0:2,0:0:0:0:
120,92,66231,1,0,0:0:0:0:
56,28,66325,5,2,0:2:0:0:
64,116,66418,1,0,0:0:0:0:
72,204,66512,1,0,0:0:0:0:
80,292,66606,1,0,0:0:0:0:
88,380,66700,38,0,B|152:380|152:380|176:360|176:360|244:360,1,150.000005722046,6|0,0:2|0:0,0:0:0:0:
284,288,66981,1,0,0:0:0:0:
340,360,67075,2,0,B|394:360|394:360|418:380|418:380|482:380,1,150.000005722046,2|0,0:2|0:0,0:0:0:0:
504,292,67356,1,0,0:0:0:0:
510,201,67450,6,0,P|470:189|414:193,1,75.0000028610231,2|0,0:2|0:0,0:0:0:0:
442,97,67637,2,0,P|401:106|354:138,1,75.0000028610231,2|0,0:2|0:0,0:0:0:0:
334,33,67825,2,0,P|303:61|279:112,1,75.0000028610231,2|0,0:2|0:0,0:0:0:0:
209,39,68012,2,0,P|197:79|201:135,1,75.0000028610231,2|0,0:2|0:0,0:0:0:0:
208,268,68200,38,0,L|36:300,1,150.000005722046,6|0,0:2|0:0,0:0:0:0:
0,232,68481,1,0,0:0:0:0:
36,148,68575,2,0,P|72:188|84:228,1,75.0000028610231,2|0,0:2|0:0,0:0:0:0:
212,36,68762,2,0,P|174:33|140:18,1,75.0000028610231,0|0,0:0|0:0,0:0:0:0:
40,52,68950,6,0,L|168:132,1,150.000005722046,6|0,0:2|0:0,0:0:0:0:
244,184,69231,1,0,0:0:0:0:
324,144,69325,2,0,P|301:117|264:101,1,75.0000028610231,6|0,0:2|0:0,0:0:0:0:
164,228,69512,2,0,P|186:254|223:270,1,75.0000028610231,6|0,0:2|0:0,0:0:0:0:
321,290,69700,38,0,B|338:220|338:220|322:138,1,150.000005722046,6|0,0:2|0:0,0:0:0:0:
339,54,69981,1,0,0:0:0:0:
420,92,70075,2,0,B|436:166|436:166|438:165,1,75.0000028610231,2|0,0:2|0:0,0:0:0:0:
441,255,70262,2,0,B|425:329|425:329|423:328,1,75.0000028610231,2|0,0:2|0:0,0:0:0:0:
237,373,70450,6,0,B|185:345|185:345|94:345,1,150.000005722046,6|0,0:2|0:0,0:0:0:0:
22,289,70731,1,0,0:0:0:0:
89,229,70825,2,0,B|130:233|130:233|173:226,1,75.0000028610231,2|0,0:2|0:2,0:0:0:0:
160,4,71012,2,0,B|119:0|119:0|76:7,1,75.0000028610231,2|0,0:2|0:0,0:0:0:0:
48,115,71200,38,0,B|120:126|120:126|197:114,1,150.000005722046,6|0,0:2|0:0,0:0:0:0:
255,48,71481,1,0,0:2:0:0:
315,114,71575,2,0,B|392:126|392:126|470:115,1,150.000005722046,2|0,0:2|0:0,0:0:0:0:
502,34,71856,1,0,0:0:0:0:
413,15,71950,6,0,L|390:100,1,75.0000028610231,6|0,0:2|0:2,0:0:0:0:
118,87,72137,2,0,L|99:15,1,75.0000028610231,6|0,0:2|0:0,0:0:0:0:
255,48,72325,38,2,L|256:2,6,37.5000014305115,2|2|2|2|2|2|2,2:2|2:2|2:2|2:2|2:2|2:2|2:2,0:2:0:0:
255,128,72700,5,6,0:2:0:0:
255,128,73637,5,0,0:0:0:0:
221,147,73731,1,2,0:2:0:0:
181,144,73825,1,0,0:0:0:0:
147,122,73918,1,2,0:2:0:0:
114,103,74012,1,0,0:0:0:0:
74,106,74106,1,2,0:2:0:0:
40,124,74200,6,0,L|48:232,1,100,6|0,0:2|0:0,0:0:0:0:
117,328,74481,1,0,0:0:0:0:
117,328,74575,2,0,P|157:332|169:328,1,50,2|0,0:2|2:0,0:0:0:0:
245,284,74762,2,0,P|228:247|219:238,1,50,0|0,0:0|2:0,0:0:0:0:
149,200,74950,2,0,P|125:232|123:245,1,50,2|0,0:2|2:0,0:0:0:0:
238,384,75137,2,0,L|246:280,1,100,0|2,0:0|0:2,0:0:0:0:
512,157,75512,1,0,0:0:0:0:
512,157,75606,1,0,0:0:0:0:
512,157,75700,38,0,L|504:261,1,100,6|0,0:2|0:0,0:0:0:0:
415,280,75981,1,0,0:0:0:0:
415,280,76075,2,0,P|367:268|315:284,1,100,2|0,0:2|0:0,0:0:0:0:
232,261,76356,1,0,0:0:0:0:
232,261,76450,2,0,L|224:161,1,100,2|0,0:2|0:0,0:0:0:0:
256,85,76731,1,0,0:0:0:0:
256,85,76825,2,0,P|281:94|312:97,1,50,2|0,0:2|2:0,0:0:0:0:
416,97,77012,2,0,P|440:93|463:84,1,50,2|0,0:2|2:0,0:0:0:0:
356,13,77200,6,0,L|360:125,1,100,6|0,0:2|0:0,0:0:0:0:
364,197,77481,1,0,0:0:0:0:
364,197,77575,2,0,L|368:269,1,50,2|0,0:2|2:0,0:0:0:0:
332,373,77762,1,0,0:0:0:0:
332,373,77856,1,0,0:0:0:0:
332,373,77950,2,0,P|328:341|328:313,1,50,2|0,0:2|2:0,0:0:0:0:
423,310,78137,2,0,P|373:329|315:318,1,100,6|2,0:2|0:2,0:0:0:0:
95,221,78512,2,0,P|144:201|203:213,1,100,6|2,0:2|0:2,0:0:0:0:
103,371,78887,38,0,L|95:211,1,150,6|0,0:2|0:0,0:0:0:0:
91,115,79262,1,6,0:2:0:0:
12,189,79450,37,2,0:2:0:0:
52,213,79543,1,2,0:2:0:0:
95,221,79637,1,2,0:2:0:0:
137,213,79731,1,2,0:2:0:0:
174,192,79824,37,2,0:2:0:0:
178,114,79919,1,2,0:2:0:0:
253,94,80013,1,2,0:2:0:0:
296,158,80106,1,2,0:2:0:0:
246,219,80200,6,0,P|239:259|251:307,1,75.0000028610231,6|0,0:2|0:0,0:0:0:0:
362,378,80387,2,0,L|390:218,1,150.000005722046,2|2,0:0|0:2,0:0:0:0:
406,150,80668,1,0,0:0:0:0:
420,60,80762,2,0,P|352:72|312:144,1,150.000005722046,2|2,0:0|0:2,0:0:0:0:
256,68,81043,1,0,0:0:0:0:
199,137,81137,2,0,P|163:74|92:60,1,150.000005722046,2|2,0:0|0:2,0:0:0:0:
4,88,81418,1,0,0:0:0:0:
36,172,81512,2,0,L|108:152,1,75.0000028610231,2|0,0:0|0:0,0:0:0:0:
256,216,81700,38,0,L|184:236,1,75.0000028610231,6|0,0:2|0:0,0:0:0:0:
44,356,81887,2,0,B|120:332|120:332|184:364,1,150.000005722046,2|2,0:0|0:2,0:0:0:0:
256,312,82168,1,0,0:0:0:0:
329,363,82262,2,0,B|392:332|392:332|468:356,1,150.000005722046,2|2,0:0|0:2,0:0:0:0:
492,268,82543,1,0,0:0:0:0:
440,196,82637,2,0,L|284:184,1,150.000005722046,2|2,0:0|0:2,0:0:0:0:
256,100,82918,1,0,0:0:0:0:
316,32,83012,2,0,L|392:36,1,75.0000028610231,2|0,0:0|0:0,0:0:0:0:
506,115,83200,6,0,L|432:112,1,75.0000028610231,6|0,0:2|0:0,0:0:0:0:
256,100,83387,2,0,L|92:92,1,150.000005722046,2|2,0:0|0:2,0:0:0:0:
40,156,83668,1,0,0:0:0:0:
24,244,83762,2,0,P|64:284|164:284,1,150.000005722046,2|2,0:0|0:2,0:0:0:0:
236,256,84043,1,0,0:0:0:0:
188,180,84137,2,0,P|136:196|116:212,1,75.0000028610231,2|0,0:0|2:0,0:0:0:0:
292,376,84325,2,0,P|308:332|308:300,1,75.0000028610231,2|0,0:2|2:0,0:0:0:0:
272,176,84512,2,0,P|256:132|256:100,1,75.0000028610231,2|0,0:0|0:0,0:0:0:0:
192,16,84700,38,0,P|160:8|116:12,1,75.0000028610231,2|0,0:2|2:0,0:0:0:0:
320,16,84887,2,0,P|352:8|396:12,1,75.0000028610231,2|0,0:1|2:0,0:0:0:0:
144,100,85075,2,0,P|100:108|72:128,1,75.0000028610231,2|0,0:2|2:0,0:0:0:0:
368,100,85262,2,0,P|412:108|440:128,1,75.0000028610231,2|0,0:1|2:0,0:0:0:0:
128,200,85450,2,0,L|104:276,1,75.0000028610231,2|0,0:2|2:0,0:0:0:0:
407,271,85637,2,0,L|385:200,1,75.0000028610231,2|0,0:1|2:0,0:0:0:0:
72,352,85825,2,0,P|116:356|148:352,1,75.0000028610231,2|0,0:2|2:0,0:0:0:0:
440,352,86012,2,0,P|396:356|364:352,1,75.0000028610231,2|0,0:1|2:0,0:0:0:0:
256,192,86200,5,6,0:2:0:0:
