osu file format v14

[General]
AudioFilename: opening.mp3
AudioLeadIn: 0
PreviewTime: 63512
Countdown: 0
SampleSet: Soft
StackLeniency: 0.5
Mode: 0
LetterboxInBreaks: 0
WidescreenStoryboard: 0

[Editor]
Bookmarks: 6700,18700,30700,42700,45700,48700,51700,57700,60700
DistanceSpacing: 1
BeatDivisor: 4
GridSize: 4
TimelineZoom: 1

[Metadata]
Title:Shinzou o Sasageyo! [TV Size]
TitleUnicode:心臓を捧げよ! [TV Size]
Artist:Linked Horizon
ArtistUnicode:Linked Horizon
Creator:Kalindraz
Version:Net0's Easy
Source:進撃の巨人
Tags:Trynna Net0 Attack on Titan Second Season Anime Shingeki no Kyojin op opening j-pop j-rock
BeatmapID:1258358
BeatmapSetID:594230

[Difficulty]
HPDrainRate:2.5
CircleSize:2
OverallDifficulty:2.5
ApproachRate:3
SliderMultiplier:1
SliderTickRate:1

[Events]
//Background and Video events
0,0,"bg3.jpg",0,0
Video,-10,"MyAngelShadowLand.flv"
//Break Periods
2,57900,59260
//Storyboard Layer 0 (Background)
//Storyboard Layer 1 (Fail)
//Storyboard Layer 2 (Pass)
//Storyboard Layer 3 (Foreground)
//Storyboard Sound Samples

[TimingPoints]
700,375,4,2,0,25,1,0
700,-100,4,2,0,25,0,0
3700,-100,4,1,0,45,0,0
6700,-100,4,3,0,45,0,0
8293,-100,4,2,0,5,0,0
8387,-100,4,3,0,45,0,0
17481,-100,4,2,0,5,0,0
17575,-100,4,3,0,45,0,0
17856,-100,4,2,0,5,0,0
17950,-100,4,3,0,45,0,0
33231,-100,4,2,0,5,0,0
33325,-100,4,3,0,45,0,0
33606,-100,4,2,0,5,0,0
33700,-100,4,3,0,45,0,0
36231,-100,4,2,0,5,0,0
36325,-100,4,3,0,45,0,0
45606,-100,4,2,0,5,0,0
45700,-100,4,3,0,45,0,0
48231,-100,4,2,0,5,0,0
48325,-100,4,3,0,45,0,0
48700,-100,4,3,0,70,0,0
51700,-100,4,3,0,45,0,0
56950,-100,4,3,0,25,0,0
57700,-100,4,3,0,30,0,0
58166,-100,4,2,0,5,0,0
58262,-100,4,2,0,30,0,0
59668,-100,4,2,0,5,0,0
59762,-100,4,2,0,40,0,0
60700,-100,4,1,0,60,0,0
63700,-100,4,1,0,75,0,1
72700,-100,4,1,0,75,0,0
74200,-100,4,1,0,75,0,1
86200,-100,4,1,0,75,0,0

[Colours]
Combo1 : 255,15,15
Combo2 : 205,211,80
Combo3 : 200,130,60

[HitObjects]
98,63,700,6,0,P|241:79|310:207,1,300,2|0,0:0|0:0,0:0:0:0:
260,292,2200,2,0,P|116:275|48:148,1,300,2|0,0:0|0:0,0:0:0:0:
98,63,3700,6,0,B|147:62,1,50,8|2,0:3|0:1,0:0:0:0:
178,156,4262,2,0,P|223:125|245:81,1,100,2|2,0:1|0:1,0:0:0:0:
343,87,5012,2,0,P|367:130|408:157,1,100,2|2,0:1|0:1,0:0:0:0:
435,57,5762,1,2,0:1:0:0:
504,129,6137,2,0,L|480:236,1,100,2|2,0:1|0:1,0:0:0:0:
440,256,6700,6,0,L|353:324,1,100,6|8,0:1|0:0,0:0:0:0:
260,332,7450,1,8,0:0:0:0:
160,314,7825,1,8,0:0:0:0:
68,272,8200,2,0,P|98:233|144:213,1,100,0|8,0:0|0:0,0:0:0:0:
236,180,8950,1,8,0:0:0:0:
160,112,9325,1,2,0:0:0:0:
80,52,9700,6,0,P|60:104|68:156,1,100,12|8,0:0|0:0,0:0:0:0:
141,211,10450,2,0,P|161:263|153:315,2,100,8|8|8,0:0|0:0|0:0,0:0:0:0:
64,147,11575,1,8,0:0:0:0:
160,112,11950,1,8,0:0:0:0:
256,77,12325,1,10,0:3:0:0:
256,176,12700,6,0,P|304:160|372:168,1,100,14|8,0:0|0:0,0:0:0:0:
448,192,13450,1,8,0:0:0:0:
512,116,13825,1,8,0:0:0:0:
460,32,14200,2,0,P|410:37|366:61,1,100,14|8,3:3|0:0,0:0:0:0:
268,72,14950,1,8,0:0:0:0:
172,44,15325,1,8,0:0:0:0:
76,72,15700,6,0,P|76:120|72:184,1,100,8|8,0:0|0:0,0:0:0:0:
164,212,16450,2,0,P|164:260|168:324,2,100,8|8|8,0:0|0:0|0:0,0:0:0:0:
259,180,17575,1,12,0:0:0:0:
348,132,17950,1,2,0:2:0:0:
268,76,18325,1,2,0:2:0:0:
184,23,18700,6,0,P|175:73|180:122,1,100,12|10,0:0|0:0,0:0:0:0:
259,180,19450,2,0,P|219:216|155:224,1,100,8|8,0:0|0:0,0:0:0:0:
87,177,20200,1,10,0:0:0:0:
24,256,20575,2,0,P|32:304|16:360,2,100,8|8|8,0:0|0:0|0:0,0:0:0:0:
87,177,21700,6,0,P|74:128|82:79,1,100,10|8,0:0|0:0,0:0:0:0:
172,32,22450,2,0,P|224:40|280:24,1,100,10|8,0:0|0:0,0:0:0:0:
355,80,23200,1,10,0:0:0:0:
404,163,23575,2,0,P|414:211|406:260,2,100,8|10|2,0:0|0:0|0:0,0:0:0:0:
354,79,24700,6,0,P|319:114|305:162,1,100,10|8,0:0|0:0,0:0:0:0:
300,264,25450,2,0,P|252:252|216:212,1,100,10|8,0:0|0:0,0:0:0:0:
216,116,26200,1,10,0:0:0:0:
115,113,26575,2,0,P|79:79|68:32,2,100,8|10|10,0:0|0:0|0:0,0:0:0:0:
216,116,27700,6,0,P|224:168|212:232,1,100,14|8,0:0|0:0,0:0:0:0:
116,212,28450,2,0,P|108:264|120:328,1,100,10|8,0:0|0:0,0:0:0:0:
208,352,29200,2,0,B|256:312|352:320|352:320|356:236|424:192,1,300,14|12,0:0|0:0,0:0:0:0:
440,96,30700,6,0,P|392:92|336:96,1,100,14|8,0:0|0:0,0:0:0:0:
256,148,31450,1,8,0:0:0:0:
171,95,31825,2,0,P|121:91|72:96,2,100,8|14|12,0:0|0:0|0:0,0:0:0:0:
256,148,32950,1,12,0:0:0:0:
256,248,33325,1,12,0:0:0:0:
176,304,33700,6,0,P|132:296|76:304,1,100,12|8,0:0|0:0,0:0:0:0:
36,212,34450,1,8,0:0:0:0:
77,120,34825,2,0,P|126:128|176:120,2,100,8|8|8,0:0|0:0|0:0,0:0:0:0:
36,212,35950,1,8,0:0:0:0:
77,303,36325,1,2,0:2:0:0:
177,313,36700,6,0,P|184:256|180:208,1,100,12|8,0:0|0:0,0:0:0:0:
236,132,37450,1,8,0:0:0:0:
317,76,37825,2,0,P|367:79|417:72,2,100,8|12|8,0:0|0:0|0:0,0:0:0:0:
228,36,38950,1,12,0:0:0:0:
136,77,39325,1,12,0:0:0:0:
44,36,39700,6,0,P|36:76|60:144,1,100,12|8,0:0|0:0,0:0:0:0:
144,172,40450,1,8,0:0:0:0:
183,264,40825,2,0,P|231:279|280:272,2,100,8|12|12,0:0|0:0|0:0,0:0:0:0:
84,256,41950,2,0,P|100:208|144:172,1,100,12|12,0:0|0:0,0:0:0:0:
236,168,42700,6,0,L|248:68,1,100,12|12,0:0|0:0,0:0:0:0:
348,68,43450,2,0,L|360:168,1,100,12|8,0:0|0:0,0:0:0:0:
360,268,44200,2,0,L|348:368,1,100,12|12,0:0|0:0,0:0:0:0:
248,368,44950,2,0,L|236:268,1,100,8|8,0:0|0:0,0:0:0:0:
160,204,45700,6,0,P|92:212|160:92,1,300,12|0,0:0|0:0,0:0:0:0:
240,144,47200,2,0,P|277:157|336:145,1,100,6|0,0:0|0:0,0:0:0:0:
288,56,47950,1,14,0:0:0:0:
380,12,48325,1,2,0:2:0:0:
480,4,48700,6,0,L|480:108,1,100,12|0,0:0|0:0,0:0:0:0:
488,204,49450,2,0,L|412:268,1,100,12|0,0:0|0:0,0:0:0:0:
372,364,50200,2,0,B|324:336|312:284|312:284|214:284|214:284|200:336|152:364,1,300,12|12,0:0|0:0,0:0:0:0:
106,272,51700,6,0,P|96:220|106:172,1,100,4|0,0:0|0:0,0:0:0:0:
172,100,52450,1,2,1:2:0:0:
371,102,53200,2,0,P|381:154|371:202,1,100,2|0,0:2|0:0,0:0:0:0:
305,274,53950,1,2,1:2:0:0:
106,272,54700,6,0,P|154:259|203:267,1,100,2|0,0:2|0:0,0:0:0:0:
249,355,55450,1,2,1:2:0:0:
304,274,55825,1,2,0:2:0:0:
386,330,56200,2,0,P|442:338|490:354,2,100,2|0|2,0:2|0:0|1:2,0:0:0:0:
304,274,57325,1,2,1:2:0:0:
276,182,57700,5,2,0:2:0:0:
296,336,60700,5,12,3:0:0:0:
496,360,61450,2,0,P|508:308|496:256,1,100,2|2,0:2|0:2,0:0:0:0:
420,204,62200,2,0,B|328:204|268:256|268:256|228:204|228:204|144:216,1,300,2|6,0:2|0:2,0:0:0:0:
114,124,63700,6,0,P|77:157|60:204,1,100,6|2,0:2|0:2,0:0:0:0:
0,282,64450,2,0,P|35:316|51:363,1,100,2|2,0:2|0:2,0:0:0:0:
152,364,65200,2,0,P|167:316|203:282,1,100,6|2,0:2|0:2,0:0:0:0:
260,200,65950,1,2,0:2:0:0:
160,200,66325,1,2,0:2:0:0:
60,208,66700,6,0,P|34:160|36:100,1,100,6|2,0:2|0:2,0:0:0:0:
2,19,67450,1,2,0:2:0:0:
100,40,67825,1,2,0:2:0:0:
140,132,68200,2,0,P|165:179|163:239,2,100,6|2|6,0:2|0:2|0:2,0:0:0:0:
68,204,69325,1,6,0:2:0:0:
40,300,69700,6,0,P|84:320|132:352,1,100,6|2,0:2|0:2,0:0:0:0:
200,280,70450,2,0,P|248:275|305:279,1,100,6|2,0:2|0:2,0:0:0:0:
328,182,71200,2,0,P|367:153|419:128,1,100,6|2,0:2|0:2,0:0:0:0:
476,52,71950,1,6,0:2:0:0:
380,28,72325,1,2,2:2:0:0:
284,52,72700,5,6,0:2:0:0:
24,356,74387,6,0,P|21:307|50:258,2,100,2|2|2,0:0|0:0|0:0,0:0:0:0:
120,328,75512,1,2,2:0:0:0:
216,356,75887,6,0,P|213:307|242:258,2,100,2|2|2,0:0|0:0|0:0,0:0:0:0:
312,328,77012,1,2,0:2:0:0:
408,356,77387,6,0,P|411:307|382:258,2,100,2|2|2,0:0|0:0|0:2,0:0:0:0:
312,328,78512,1,2,2:0:0:0:
236,262,78887,2,0,P|252:134|107:119,1,300,6|2,0:2|0:2,0:0:0:0:
23,162,80387,6,0,P|20:211|49:260,2,100,2|2|2,0:0|0:0|0:0,0:0:0:0:
119,190,81512,1,2,0:0:0:0:
215,162,81887,6,0,P|212:211|241:260,2,100,2|2|2,0:0|0:0|0:0,0:0:0:0:
311,190,83012,1,2,0:0:0:0:
407,162,83387,6,0,P|410:211|381:260,2,100,2|2|2,0:0|0:0|0:0,0:0:0:0:
256,192,84512,12,6,86200,0:2:0:0:
