osu file format v14

[General]
AudioFilename: opening.mp3
AudioLeadIn: 0
PreviewTime: 63512
Countdown: 0
SampleSet: Normal
StackLeniency: 0.5
Mode: 0
LetterboxInBreaks: 0
WidescreenStoryboard: 0

[Editor]
Bookmarks: 6700,18700,30700,42700,45700,48700,51700,57700,60700
DistanceSpacing: 1
BeatDivisor: 4
GridSize: 4
TimelineZoom: 1

[Metadata]
Title:Shinzou o Sasageyo! [TV Size]
TitleUnicode:心臓を捧げよ! [TV Size]
Artist:Linked Horizon
ArtistUnicode:Linked Horizon
Creator:Kalindraz
Version:Hard
Source:進撃の巨人
Tags:Trynna Net0 Attack on Titan Second Season Anime Shingeki no Kyojin op opening j-pop j-rock
BeatmapID:1257734
BeatmapSetID:594230

[Difficulty]
HPDrainRate:4
CircleSize:3
OverallDifficulty:6
ApproachRate:7
SliderMultiplier:1.4
SliderTickRate:1

[Events]
//Background and Video events
0,0,"bg.jpg",0,0
Video,-10,"MyAngelShadowLand.flv"
//Break Periods
2,57900,59612
//Storyboard Layer 0 (Background)
//Storyboard Layer 1 (Fail)
//Storyboard Layer 2 (Pass)
//Storyboard Layer 3 (Foreground)
//Storyboard Sound Samples

[TimingPoints]
700,375,4,2,0,25,1,0
700,-100,4,2,0,25,0,0
3700,-100,4,1,0,75,0,0
6700,-100,4,3,0,45,0,0
60700,-100,4,3,0,60,0,0
63700,-90.9090909090909,4,1,0,75,0,1
72700,-90.9090909090909,4,1,0,75,0,0
73825,-90.9090909090909,4,1,0,75,0,1
86200,-100,4,1,0,75,0,0

[Colours]
Combo1 : 238,111,26
Combo2 : 56,169,116
Combo3 : 57,103,187
Combo4 : 205,16,16

[HitObjects]
512,56,700,5,2,0:0:0:0:
432,8,887,2,0,P|396:4|344:12,1,70,2|0,0:0|0:0,1:0:0:0:
280,56,1262,2,0,P|246:59|212:52,1,70,2|0,0:0|0:0,0:0:0:0:
116,28,1637,2,0,P|80:28|44:36,1,70,2|0,0:0|0:0,1:0:0:0:
0,120,2012,2,0,P|-4:160|4:200,1,70,0|2,0:0|0:0,1:0:0:0:
80,256,2387,6,0,L|224:232,2,140,2|2|2,0:0|0:0|0:0,1:0:0:0:
16,348,3512,1,2,0:0:0:0:
128,380,3700,37,8,0:3:0:0:
240,380,3888,2,0,P|274:383|309:382,1,70,2|8,0:1|0:3,0:0:0:0:
416,360,4262,2,0,B|432:276|432:276|408:216,1,140,2|2,0:1|0:1,0:0:0:0:
368,140,4825,1,8,0:3:0:0:
312,56,5012,2,0,P|379:41|448:76,2,140,2|2|2,0:1|0:1|0:1,0:0:0:0:
232,128,5950,1,8,0:3:0:0:
232,128,6043,1,0,0:0:0:0:
232,128,6137,2,0,B|160:140|160:140|84:128,1,140,2|2,0:1|0:1,0:0:0:0:
0,112,6700,5,6,0:1:0:0:
32,208,6887,2,0,P|36:248|24:288,1,70,2|8,0:2|0:0,0:0:0:0:
28,372,7262,2,0,P|68:376|108:364,1,70,2|8,0:2|0:0,0:0:0:0:
188,332,7637,2,0,B|256:316|256:316|336:332,1,140,2|2,0:2|0:2,0:0:0:0:
412,360,8200,37,0,0:0:0:0:
412,360,8387,2,0,P|416:312|408:284,1,70,2|8,0:2|0:0,0:0:0:0:
376,204,8762,2,0,P|372:156|380:128,1,70,2|8,0:2|0:0,0:0:0:0:
452,72,9137,2,0,P|404:44|308:60,1,140,2|2,0:0|0:0,0:0:0:0:
232,104,9700,5,12,0:0:0:0:
232,104,9887,2,0,P|180:96|160:80,1,70,2|8,0:2|0:0,0:0:0:0:
68,88,10262,2,0,P|37:104|2:105,1,70,2|8,0:2|0:0,0:0:0:0:
120,12,10637,2,0,L|116:164,1,140,2|0,0:2|0:0,0:0:0:0:
112,252,11200,37,8,0:0:0:0:
188,316,11387,2,0,L|264:324,1,70,2|8,0:2|0:0,0:0:0:0:
281,227,11762,2,0,L|212:220,1,70,2|8,0:2|0:0,0:0:0:0:
112,252,12137,2,0,P|92:320|124:392,1,140,0|2,0:0|0:0,0:0:0:0:
188,316,12700,5,14,0:0:0:0:
188,316,12887,2,0,L|348:304,1,140,2|2,0:2|0:2,0:0:0:0:
392,232,13450,1,8,0:0:0:0:
392,232,13637,2,0,P|400:184|392:164,1,70,2|8,0:2|0:0,0:0:0:0:
336,92,14012,38,0,P|328:44|336:24,1,70,2|14,3:3|3:3,0:0:0:0:
420,4,14387,2,0,L|496:0,1,70,2|8,0:2|0:0,0:0:0:0:
504,88,14762,2,0,L|434:91,1,70,2|8,0:2|0:0,0:0:0:0:
336,92,15137,2,0,B|284:96|284:96|248:84|248:84|196:88,1,140,2|2,0:2|0:2,0:0:0:0:
112,128,15700,5,8,0:0:0:0:
200,156,15887,2,0,P|204:112|192:76,1,70,2|8,0:2|0:0,0:0:0:0:
28,64,16262,2,0,P|20:147|43:215,1,140,2|0,0:2|0:0,0:0:0:0:
128,232,16825,1,8,0:0:0:0:
112,128,17012,1,2,0:2:0:0:
35,200,17200,38,0,P|11:229|2:266,1,70,8|0,0:0|0:0,0:0:0:0:
56,344,17575,2,0,P|93:350|129:340,1,70,12|0,0:0|0:0,0:0:0:0:
212,292,17950,1,2,0:2:0:0:
215,189,18137,2,0,L|231:113,2,70,2|2|2,0:2|0:2|0:2,0:0:0:0:
212,292,18700,5,12,0:0:0:0:
304,344,18887,2,0,L|376:336,1,70,2|10,0:0|0:0,0:0:0:0:
448,288,19262,2,0,B|456:212|456:212|428:144,1,140,2|2,0:2|0:2,0:0:0:0:
344,116,19825,1,8,0:0:0:0:
284,192,20012,38,0,P|252:196|212:188,1,70,2|10,0:0|0:0,0:0:0:0:
176,100,20387,2,0,P|188:70|215:39,1,70,2|8,0:2|0:0,0:0:0:0:
312,54,20762,2,0,P|331:79|344:118,1,70,2|8,0:2|0:0,0:0:0:0:
284,192,21137,2,0,L|132:208,1,140,2|2,0:2|0:0,0:0:0:0:
40,272,21700,5,10,0:0:0:0:
112,360,21887,2,0,P|132:331|143:298,1,70,2|8,0:2|0:0,0:0:0:0:
144,206,22262,2,0,L|128:131,1,70,2|10,0:0|0:0,0:0:0:0:
18,44,22637,2,0,L|48:185,1,140,2|2,0:2|0:0,0:0:0:0:
144,206,23200,37,10,0:0:0:0:
248,228,23387,2,0,B|252:188|252:188|244:160,1,70,2|8,0:2|0:0,0:0:0:0:
172,64,23762,2,0,B|191:28|191:28|214:10,1,70,2|10,0:0|0:0,0:0:0:0:
308,72,24137,2,0,B|380:88|380:88|448:72,1,140,2|2,0:2|0:0,0:0:0:0:
376,0,24700,5,10,0:0:0:0:
376,0,24887,2,0,L|376:84,1,70,2|8,0:2|0:0,0:0:0:0:
376,184,25262,2,0,P|443:168|507:193,2,140,2|2|2,0:0|0:2|0:0,0:0:0:0:
320,268,26200,37,10,0:0:0:0:
224,308,26387,2,0,L|148:320,1,70,2|8,0:2|0:0,0:0:0:0:
64,288,26762,2,0,P|56:244|64:204,1,70,2|10,0:0|0:0,0:0:0:0:
132,152,27137,2,0,L|201:141,1,70,2|10,0:2|0:0,0:0:0:0:
296,88,27512,1,10,0:0:0:0:
208,24,27700,5,14,0:0:0:0:
208,24,27887,2,0,L|116:36,1,70,2|8,0:2|0:0,0:0:0:0:
53,84,28262,2,0,B|37:136|37:136|61:228,1,140,2|2,0:2|0:0,0:0:0:0:
188,240,28825,1,8,0:0:0:0:
132,152,29012,1,2,0:2:0:0:
108,292,29200,38,0,P|128:316|168:336,1,70,14|2,0:0|0:2,0:0:0:0:
188,240,29575,2,0,P|217:250|261:248,1,70,14|0,0:0|0:2,0:0:0:0:
232,156,29950,2,0,P|262:150|300:126,1,70,12|2,0:0|0:2,0:0:0:0:
226,60,30325,2,0,P|250:40|270:0,1,70,12|2,0:0|0:2,0:0:0:0:
364,4,30700,6,0,L|448:0,1,70,14|2,0:0|0:2,0:0:0:0:
496,80,31075,1,8,0:0:0:0:
392,100,31262,1,2,0:2:0:0:
348,188,31450,2,0,P|396:196|432:188,1,70,8|2,0:0|0:2,0:0:0:0:
392,100,31825,1,8,0:0:0:0:
276,120,32012,1,2,0:2:0:0:
276,120,32200,38,0,P|256:196|284:264,1,140,14|12,0:0|0:0,0:0:0:0:
340,368,32762,1,2,0:2:0:0:
360,264,32950,2,0,B|290:282|290:282|241:331,2,140,12|12|12,0:0|0:0|0:0,0:0:0:0:
340,368,33887,5,2,0:2:0:0:
242,329,34075,2,0,P|204:323|141:337,1,70,8|2,0:0|0:2,0:0:0:0:
109,249,34450,2,0,P|131:219|151:157,1,70,8|2,0:0|0:2,0:0:0:0:
240,179,34825,2,0,P|254:214|278:245,1,70,8|2,0:0|0:2,0:0:0:0:
336,164,35200,37,8,0:0:0:0:
280,76,35387,1,2,0:2:0:0:
180,100,35575,2,0,L|100:108,1,70,8|2,0:0|0:2,0:0:0:0:
28,32,35950,2,0,L|188:16,2,140,8|2|12,0:0|0:2|0:0,0:0:0:0:
0,136,36887,5,2,0:2:0:0:
80,208,37075,2,0,P|124:208|156:196,1,70,8|2,0:0|0:2,0:0:0:0:
256,172,37450,2,0,P|257:206|247:240,1,70,8|2,0:0|0:2,0:0:0:0:
208,340,37825,1,8,0:0:0:0:
320,364,38012,1,2,0:2:0:0:
432,360,38200,38,0,P|441:326|440:291,1,70,12|2,0:0|0:2,0:0:0:0:
412,192,38575,1,8,0:0:0:0:
459,100,38762,1,2,0:2:0:0:
459,100,38950,2,0,P|401:135|332:129,2,140,12|12|12,0:0|0:0|0:0,0:0:0:0:
380,48,39887,5,2,0:2:0:0:
332,129,40075,2,0,P|292:133|244:129,1,70,8|2,0:0|0:2,0:0:0:0:
180,72,40450,1,8,0:0:0:0:
172,192,40637,1,2,0:2:0:0:
88,124,40825,2,0,P|48:120|0:124,1,70,8|2,0:0|0:2,0:0:0:0:
40,216,41200,38,0,B|48:312|48:312|68:352,1,140,12|12,0:0|0:0,0:0:0:0:
152,320,41762,1,2,0:0:0:0:
240,352,41950,2,0,B|259:312|259:312|267:216,1,140,12|12,0:0|0:0,0:0:0:0:
356,168,42512,1,2,0:2:0:0:
452,204,42700,6,0,P|456:160|452:132,1,70,12|2,0:0|0:2,0:0:0:0:
404,52,43075,2,0,P|361:40|333:39,1,70,12|2,0:0|0:2,0:0:0:0:
248,84,43450,1,12,0:0:0:0:
248,84,43637,2,0,P|180:96|104:80,1,140,2|0,0:2|0:0,0:0:0:0:
24,56,44200,38,0,L|28:144,1,70,12|2,0:0|0:2,0:0:0:0:
104,184,44575,2,0,L|100:272,1,70,12|2,0:0|0:2,0:0:0:0:
32,340,44950,2,0,B|104:356|104:356|180:336,1,140,8|8,0:0|0:0,0:0:0:0:
304,296,45700,5,12,0:0:0:0:
392,344,45887,2,0,L|476:332,2,70,2|2|2,0:2|0:0|0:2,0:0:0:0:
304,296,46450,2,0,L|288:148,1,140,4|0,0:0|0:0,0:0:0:0:
344,80,47012,1,2,0:0:0:0:
344,80,47200,38,0,P|276:60|204:116,1,140,6|0,0:0|0:0,0:0:0:0:
180,180,47762,1,2,0:0:0:0:
180,180,47950,2,0,P|112:200|40:144,1,140,14|2,0:0|0:2,0:0:0:0:
124,116,48512,1,2,0:2:0:0:
124,116,48606,1,2,0:2:0:0:
124,116,48700,6,0,L|96:260,1,140,12|0,0:0|0:0,0:0:0:0:
72,344,49262,1,0,0:0:0:0:
72,344,49356,1,0,0:0:0:0:
72,344,49450,2,0,P|108:352|148:344,1,70,12|0,0:0|0:0,0:0:0:0:
236,288,49825,1,0,0:0:0:0:
316,344,50012,1,2,0:0:0:0:
324,248,50200,38,0,B|316:152|316:152|297:112,1,140,12|12,0:0|0:0,0:0:0:0:
384,44,50762,1,0,0:0:0:0:
468,112,50950,2,0,B|448:151|448:151|440:247,1,140,12|12,0:0|0:0,0:0:0:0:
424,352,51512,1,2,0:2:0:0:
316,344,51700,6,0,B|266:344|266:344|225:327|225:327|175:328,1,140,4|0,0:0|0:0,0:0:0:0:
108,260,52262,1,2,0:2:0:0:
180,200,52450,2,0,B|225:200|225:200|266:183|266:183|316:184,1,140,2|0,1:2|0:0,0:0:0:0:
380,104,53012,1,2,0:2:0:0:
444,24,53200,38,0,P|392:8|308:32,1,140,2|0,0:2|0:0,0:0:0:0:
256,120,53762,1,2,0:2:0:0:
200,29,53950,2,0,P|135:7|68:24,1,140,2|0,1:2|0:0,0:0:0:0:
132,104,54512,1,0,0:0:0:0:
184,184,54700,6,0,B|176:272|176:272|208:304|204:356|180:384,1,210,2|0,0:2|0:0,0:0:0:0:
328,380,55450,2,0,B|304:352|300:300|332:268|332:268|324:180,1,210,2|2,1:2|0:2,0:0:0:0:
300,88,56200,6,0,P|224:68|160:88,1,140,2|0,0:2|0:0,0:0:0:0:
92,156,56762,1,2,0:2:0:0:
20,236,56950,2,0,P|96:256|160:236,1,140,2|2,1:2|1:2,0:0:0:0:
228,168,57700,5,2,0:2:0:0:
71,272,60512,5,2,1:2:0:0:
71,272,60606,1,2,1:2:0:0:
71,272,60700,2,0,P|147:288|203:256,1,140,12|2,3:0|0:2,0:0:0:0:
247,160,61262,1,0,0:0:0:0:
231,64,61450,2,0,P|184:50|151:52,1,70,6|2,0:2|0:2,0:0:0:0:
115,132,61825,2,0,L|127:204,1,70,2|2,0:2|0:2,0:0:0:0:
199,259,62200,6,0,P|224:232|252:173,1,70,6|0,0:2|0:0,0:0:0:0:
341,199,62575,2,0,P|349:234|388:288,1,70,6|0,0:2|0:0,0:0:0:0:
318,348,62950,2,0,P|279:337|239:337,1,70,6|6,0:2|0:2,0:0:0:0:
144,376,63325,1,6,0:2:0:0:
144,376,63700,6,0,P|96:383|60:377,2,77.0000023498536,6|0|2,0:2|0:0|0:2,0:0:0:0:
100,288,64262,1,0,0:0:0:0:
126,201,64450,2,0,B|186:225|186:225|278:213,1,154.000004699707,2|2,0:2|0:2,0:0:0:0:
380,224,65012,1,2,0:2:0:0:
348,116,65200,6,0,B|288:92|288:92|196:104,1,154.000004699707,6|2,0:2|0:2,0:0:0:0:
96,96,65762,1,0,0:0:0:0:
168,20,65950,2,0,L|256:8,1,77.0000023498536,2|2,0:2|0:2,0:0:0:0:
340,16,66325,2,0,L|416:48,1,77.0000023498536,2|0,0:2|0:0,0:0:0:0:
480,120,66700,38,0,B|448:196|504:196|480:276,1,154.000004699707,6|2,0:2|0:2,0:0:0:0:
420,352,67262,1,0,0:0:0:0:
344,284,67450,2,0,P|300:276|260:284,1,77.0000023498536,2|2,0:2|0:2,0:0:0:0:
200,352,67825,1,2,0:2:0:0:
304,380,68012,1,2,0:2:0:0:
344,284,68200,6,0,B|364:208|364:208|344:128,1,154.000004699707,6|2,0:2|0:2,0:0:0:0:
324,52,68762,1,0,0:0:0:0:
240,24,68950,2,0,P|236:68|252:104,1,77.0000023498536,6|0,0:2|0:0,0:0:0:0:
408,80,69325,2,0,P|412:36|396:0,1,77.0000023498536,6|6,0:2|0:2,0:0:0:0:
240,24,69700,38,0,B|172:64|172:64|80:52,1,154.000004699707,6|2,0:2|0:2,0:0:0:0:
36,136,70262,1,2,0:2:0:0:
96,220,70450,2,0,B|170:210|170:210|238:250,1,154.000004699707,6|2,0:2|0:2,0:0:0:0:
236,340,71012,1,2,0:2:0:0:
236,340,71200,6,0,P|256:364|297:385,1,77.0000023498536,6|0,0:2|0:0,0:0:0:0:
318,286,71575,2,0,P|347:296|393:294,1,77.0000023498536,2|0,0:2|0:0,0:0:0:0:
364,199,71950,2,0,P|394:192|434:168,1,77.0000023498536,6|6,0:2|0:2,0:0:0:0:
357,100,72325,1,2,2:2:0:0:
304,20,72513,1,2,2:2:0:0:
304,20,72607,1,2,2:2:0:0:
304,20,72700,5,6,0:2:0:0:
232,92,73637,1,0,0:0:0:0:
232,92,73731,1,2,0:2:0:0:
232,92,73825,2,0,P|184:104|144:92,1,77.0000023498536,0|0,0:0|0:0,0:0:0:0:
64,72,74200,5,6,0:2:0:0:
48,176,74387,2,0,P|44:216|56:256,1,77.0000023498536,0|2,0:0|0:2,0:0:0:0:
120,336,74762,2,0,P|160:340|200:328,1,77.0000023498536,0|2,0:0|0:2,0:0:0:0:
212,236,75137,1,0,0:0:0:0:
316,208,75325,1,2,0:2:0:0:
316,208,75418,1,0,0:0:0:0:
316,208,75512,1,0,0:0:0:0:
368,304,75700,37,6,0:2:0:0:
448,232,75887,2,0,B|456:192|456:192|448:156,1,77.0000023498536,0|2,0:0|0:2,0:0:0:0:
336,104,76262,2,0,B|328:64|328:64|336:28,1,77.0000023498536,0|2,0:0|0:2,0:0:0:0:
432,60,76637,1,0,0:0:0:0:
432,60,76731,1,0,0:0:0:0:
432,60,76825,1,2,0:2:0:0:
336,104,77012,1,2,0:2:0:0:
240,56,77200,6,0,B|205:51|205:51|164:56,1,77.0000023498536,6|0,0:2|0:0,0:0:0:0:
80,128,77575,1,2,0:2:0:0:
160,208,77762,1,0,0:0:0:0:
80,288,77950,2,0,P|76:336|88:372,1,77.0000023498536,2|6,0:2|0:2,0:0:0:0:
180,328,78325,1,2,0:2:0:0:
284,372,78512,38,0,B|292:332|292:332|285:292,1,77.0000023498536,6|2,0:2|0:2,0:0:0:0:
373,297,78887,2,0,B|359:257|359:257|334:226,1,77.0000023498536,6|0,0:2|0:0,0:0:0:0:
419,190,79262,2,0,B|388:162|388:162|349:148,1,77.0000023498536,6|2,0:2|0:2,0:0:0:0:
400,75,79637,2,0,B|359:66|359:66|320:73,1,77.0000023498536,2|2,0:2|0:2,0:0:0:0:
248,172,80012,1,2,0:2:0:0:
248,172,80106,1,2,0:2:0:0:
248,172,80200,21,6,0:2:0:0:
159,17,80387,2,0,P|179:61|213:95,1,77.0000023498536,2|2,0:0|0:2,0:0:0:0:
146,198,80762,2,0,P|95:192|47:204,1,77.0000023498536,2|2,0:0|0:2,0:0:0:0:
0,96,81137,2,0,P|27:54|41:8,1,77.0000023498536,2|2,0:0|0:2,0:0:0:0:
105,106,81512,1,2,0:0:0:0:
105,106,81606,1,0,0:0:0:0:
105,106,81700,69,6,0:2:0:0:
146,198,81887,2,0,P|103:204|60:200,1,77.0000023498536,2|2,0:0|0:2,0:0:0:0:
19,307,82262,2,0,P|45:339|63:378,1,77.0000023498536,2|2,0:0|0:2,0:0:0:0:
179,364,82637,2,0,P|193:323|218:289,1,77.0000023498536,2|2,0:0|0:2,0:0:0:0:
114,288,83012,1,2,0:0:0:0:
114,288,83106,1,0,0:0:0:0:
114,288,83200,37,6,0:2:0:0:
69,201,83387,2,0,P|109:189|145:193,1,77.0000023498536,2|2,0:0|0:2,0:0:0:0:
241,205,83762,2,0,P|289:209|317:205,1,77.0000023498536,2|2,0:0|0:2,0:0:0:0:
414,182,84137,2,0,P|452:178|488:190,1,77.0000023498536,2|2,0:0|0:2,0:0:0:0:
512,282,84512,1,2,0:0:0:0:
512,282,84606,1,0,0:0:0:0:
512,282,84700,5,2,0:2:0:0:
472,368,84887,2,0,P|441:381|394:382,1,77.0000023498536,2|2,0:1|0:2,0:0:0:0:
418,282,85262,2,0,P|385:277|344:256,1,77.0000023498536,2|2,0:1|0:2,0:0:0:0:
414,182,85637,2,0,P|387:162|362:122,1,77.0000023498536,2|2,0:1|0:2,0:0:0:0:
462,98,86012,1,2,0:1:0:0:
462,98,86106,1,0,2:0:0:0:
462,98,86200,5,6,0:2:0:0:
