osu file format v14

[General]
AudioFilename: audio.mp3
AudioLeadIn: 0
PreviewTime: 57423
Countdown: 0
SampleSet: Soft
StackLeniency: 0.7
Mode: 3
LetterboxInBreaks: 0
SpecialStyle: 0
WidescreenStoryboard: 0

[Editor]
DistanceSpacing: 1
BeatDivisor: 4
GridSize: 32
TimelineZoom: 1.7

[Metadata]
Title:Shinzou o Sasageyo! [TV Size]
TitleUnicode:心臓をささげよう! [TV Size]
Artist:Linked Horizon
ArtistUnicode:Linked Horizon
Creator:- Emilia -
Version:Rem's NM
Source:進撃の巨人
Tags:attack on titan shingeki no kyojin season 2 two dedicate your hearts snk aot - Ly0572 - R_e_m_u_r_i_n_g
BeatmapID:1258805
BeatmapSetID:594867

[Difficulty]
HPDrainRate:7
CircleSize:4
OverallDifficulty:7
ApproachRate:5
SliderMultiplier:1.4
SliderTickRate:1

[Events]
//Background and Video events
0,0,"eren.png",0,0
//Break Periods
//Storyboard Layer 0 (Background)
//Storyboard Layer 1 (Fail)
//Storyboard Layer 2 (Pass)
//Storyboard Layer 3 (Foreground)
//Storyboard Sound Samples

[TimingPoints]
562,375,4,2,1,50,1,0
30562,-100,4,2,1,100,0,0
48562,-100,4,2,1,50,0,0
63562,-100,4,2,1,50,0,1
72562,-100,4,2,1,50,0,0

[HitObjects]
64,192,562,5,0,0:0:0:0:
320,192,749,1,0,0:0:0:0:
192,192,1124,1,0,0:0:0:0:
320,192,1499,1,0,0:0:0:0:
320,192,1874,1,0,0:0:0:0:
64,192,2062,1,0,0:0:0:0:
320,192,2249,1,0,0:0:0:0:
192,192,2624,1,0,0:0:0:0:
448,192,2999,1,0,0:0:0:0:
448,192,3374,1,0,0:0:0:0:
64,192,3562,1,2,0:0:0:0:
192,192,3562,1,2,0:0:0:0:
320,192,3749,1,2,0:0:0:0:
448,192,3749,1,2,0:0:0:0:
192,192,4124,1,2,0:0:0:0:
320,192,4124,1,8,0:0:0:0:
192,192,4499,1,8,0:0:0:0:
64,192,4499,1,2,0:0:0:0:
320,192,4874,1,8,0:0:0:0:
448,192,4874,1,2,0:0:0:0:
192,192,5249,1,8,0:0:0:0:
320,192,5249,1,2,0:0:0:0:
192,192,5624,1,2,0:0:0:0:
64,192,5624,1,8,0:0:0:0:
448,192,5999,1,8,0:0:0:0:
320,192,5999,1,2,0:0:0:0:
64,192,6374,1,2,0:0:0:0:
192,192,6374,1,8,0:0:0:0:
448,192,6562,1,8,0:0:0:0:
320,192,6562,1,2,0:0:0:0:
64,192,6749,1,0,0:0:0:0:
448,192,6937,1,2,0:0:0:0:
64,192,7124,1,0,0:0:0:0:
320,192,7312,1,2,0:0:0:0:
192,192,7499,1,0,0:0:0:0:
448,192,7687,1,2,0:0:0:0:
64,192,7874,1,0,0:0:0:0:
320,192,8062,1,2,0:0:0:0:
448,192,8249,1,0,0:0:0:0:
192,192,8437,1,2,0:0:0:0:
320,192,8624,1,0,0:0:0:0:
448,192,8812,1,2,0:0:0:0:
192,192,8999,1,0,0:0:0:0:
64,192,9187,1,2,0:0:0:0:
320,192,9374,1,0,0:0:0:0:
64,192,9562,1,2,0:0:0:0:
448,192,9749,1,0,0:0:0:0:
192,192,9937,1,2,0:0:0:0:
320,192,10124,1,0,0:0:0:0:
64,192,10312,1,2,0:0:0:0:
448,192,10499,1,0,0:0:0:0:
192,192,10687,1,2,0:0:0:0:
320,192,10874,1,0,0:0:0:0:
64,192,11062,1,2,0:0:0:0:
192,192,11249,1,0,0:0:0:0:
448,192,11437,1,2,0:0:0:0:
320,192,11624,1,0,0:0:0:0:
64,192,11812,1,2,0:0:0:0:
192,192,11999,1,0,0:0:0:0:
320,192,12187,1,2,0:0:0:0:
448,192,12187,1,0,0:0:0:0:
192,192,12374,1,0,0:0:0:0:
448,192,12562,1,2,0:0:0:0:
64,192,12562,1,0,0:0:0:0:
320,192,12749,1,0,0:0:0:0:
192,192,12937,1,2,0:0:0:0:
320,192,13124,1,0,0:0:0:0:
64,192,13312,1,2,0:0:0:0:
448,192,13499,1,0,0:0:0:0:
192,192,13687,1,2,0:0:0:0:
320,192,13874,1,0,0:0:0:0:
64,192,14062,1,2,0:0:0:0:
448,192,14249,1,0,0:0:0:0:
192,192,14437,1,2,0:0:0:0:
320,192,14624,1,0,0:0:0:0:
64,192,14812,1,2,0:0:0:0:
192,192,14999,1,0,0:0:0:0:
448,192,15187,128,2,15562:0:0:0:0:
64,192,15562,1,2,0:0:0:0:
320,192,15749,1,0,0:0:0:0:
448,192,15937,1,2,0:0:0:0:
64,192,16124,1,0,0:0:0:0:
320,192,16312,1,2,0:0:0:0:
192,192,16499,1,0,0:0:0:0:
64,192,16687,1,2,0:0:0:0:
320,192,16874,1,0,0:0:0:0:
64,192,17062,1,2,0:0:0:0:
448,192,17062,1,4,0:0:0:0:
192,192,17437,1,8,0:0:0:0:
320,192,17437,1,4,0:0:0:0:
64,192,17812,1,4,0:0:0:0:
320,192,17812,1,2,0:0:0:0:
192,192,18187,1,8,0:0:0:0:
448,192,18187,1,4,0:0:0:0:
320,192,18374,1,0,0:0:0:0:
64,192,18562,1,4,0:0:0:0:
448,192,18562,1,0,0:0:0:0:
192,192,18749,1,0,0:0:0:0:
448,192,18937,1,8,0:0:0:0:
192,192,19124,1,0,0:0:0:0:
64,192,19312,1,2,0:0:0:0:
320,192,19499,1,0,0:0:0:0:
448,192,19687,1,8,0:0:0:0:
64,192,19874,1,0,0:0:0:0:
320,192,20062,1,2,0:0:0:0:
192,192,20249,1,0,0:0:0:0:
448,192,20437,1,8,0:0:0:0:
320,192,20624,1,0,0:0:0:0:
64,192,20812,1,2,0:0:0:0:
448,192,20999,1,0,0:0:0:0:
64,192,21187,128,4,21562:0:0:0:0:
192,192,21187,1,8,0:0:0:0:
320,192,21562,1,4,0:0:0:0:
448,192,21562,1,0,0:0:0:0:
192,192,21749,1,0,0:0:0:0:
448,192,21937,1,8,0:0:0:0:
320,192,22124,1,0,0:0:0:0:
64,192,22312,1,2,0:0:0:0:
448,192,22499,1,0,0:0:0:0:
192,192,22687,1,8,0:0:0:0:
64,192,22874,1,0,0:0:0:0:
448,192,23062,1,2,0:0:0:0:
192,192,23249,1,0,0:0:0:0:
448,192,23437,1,8,0:0:0:0:
320,192,23624,1,0,0:0:0:0:
192,192,23812,1,2,0:0:0:0:
64,192,23999,1,0,0:0:0:0:
320,192,24187,1,8,0:0:0:0:
448,192,24187,128,4,24562:0:0:0:0:
192,192,24562,1,4,0:0:0:0:
64,192,24562,1,2,0:0:0:0:
320,192,24749,1,0,0:0:0:0:
448,192,24937,1,8,0:0:0:0:
192,192,25124,1,0,0:0:0:0:
64,192,25312,1,2,0:0:0:0:
448,192,25499,1,0,0:0:0:0:
192,192,25687,1,8,0:0:0:0:
64,192,25874,1,0,0:0:0:0:
320,192,26062,1,4,0:0:0:0:
448,192,26062,1,2,0:0:0:0:
192,192,26249,1,0,0:0:0:0:
448,192,26437,1,8,0:0:0:0:
320,192,26624,1,0,0:0:0:0:
64,192,26812,1,2,0:0:0:0:
448,192,26999,1,0,0:0:0:0:
64,192,27187,1,8,0:0:0:0:
192,192,27374,1,0,0:0:0:0:
320,192,27562,1,4,0:0:0:0:
448,192,27562,1,2,0:0:0:0:
192,192,27749,1,0,0:0:0:0:
448,192,27937,5,8,0:0:0:0:
320,192,28124,1,0,0:0:0:0:
64,192,28312,1,2,0:0:0:0:
192,192,28312,1,0,0:0:0:0:
448,192,28499,1,0,0:0:0:0:
192,192,28687,1,8,0:0:0:0:
64,192,28874,1,0,0:0:0:0:
320,192,29062,5,2,0:0:0:0:
448,192,29062,128,4,29437:0:0:0:0:
192,192,29437,1,8,0:0:0:0:
320,192,29437,128,4,29812:0:0:0:0:
64,192,29812,1,4,0:0:0:0:
192,192,29812,128,2,30562:0:0:0:0:
320,192,30187,128,12,30562:0:0:0:0:
64,192,30562,1,0,0:0:0:40:soft-hitfinish.wav
448,192,30562,1,2,0:0:0:0:
192,192,30749,1,0,0:0:0:0:
448,192,30937,1,8,0:0:0:0:
320,192,30937,1,0,0:0:0:0:
64,192,31124,1,0,0:0:0:0:
320,192,31312,1,2,0:0:0:0:
192,192,31499,1,0,0:0:0:0:
64,192,31687,1,8,0:0:0:0:
448,192,31687,1,0,0:0:0:0:
320,192,31874,1,0,0:0:0:0:
192,192,32062,1,2,0:0:0:0:
64,192,32249,1,0,0:0:0:0:
192,192,32437,1,8,0:0:0:0:
448,192,32437,1,0,0:0:0:0:
320,192,32624,1,0,0:0:0:0:
64,192,32812,128,2,33187:0:0:0:0:
192,192,32812,1,0,0:0:0:40:soft-hitfinish.wav
448,192,33187,128,8,33562:0:0:0:0:
320,192,33187,1,0,0:0:0:40:soft-hitfinish.wav
192,192,33562,128,2,33937:0:0:0:0:
64,192,33562,1,4,0:0:0:0:
448,192,33937,1,8,0:0:0:0:
320,192,33937,1,0,0:0:0:0:
64,192,34124,1,0,0:0:0:0:
192,192,34312,1,2,0:0:0:0:
448,192,34499,1,0,0:0:0:0:
64,192,34687,1,8,0:0:0:0:
320,192,34687,1,0,0:0:0:0:
448,192,34874,1,0,0:0:0:0:
192,192,35062,1,2,0:0:0:0:
320,192,35249,1,0,0:0:0:0:
64,192,35437,1,8,0:0:0:0:
448,192,35437,1,0,0:0:0:0:
192,192,35624,1,0,0:0:0:0:
448,192,35812,128,4,36187:0:0:0:40:soft-hitfinish.wav
320,192,35812,1,0,0:0:0:0:
64,192,36187,128,4,36562:0:0:0:40:soft-hitfinish.wav
192,192,36187,1,0,0:0:0:0:
320,192,36562,128,4,36937:0:0:0:40:soft-hitfinish.wav
448,192,36562,1,0,0:0:0:0:
64,192,36937,1,8,0:0:0:0:
192,192,36937,1,0,0:0:0:0:
448,192,37124,1,0,0:0:0:0:
192,192,37312,1,2,0:0:0:0:
320,192,37499,1,0,0:0:0:0:
64,192,37687,1,8,0:0:0:0:
448,192,37687,1,0,0:0:0:0:
320,192,37874,1,0,0:0:0:0:
192,192,38062,1,2,0:0:0:0:
448,192,38249,1,0,0:0:0:0:
64,192,38437,1,8,0:0:0:0:
192,192,38437,1,0,0:0:0:0:
448,192,38624,1,0,0:0:0:0:
64,192,38812,128,2,39187:0:0:0:0:
320,192,38812,1,4,0:0:0:0:
192,192,39187,128,8,39562:0:0:0:0:
448,192,39187,1,4,0:0:0:0:
320,192,39562,128,2,39937:0:0:0:0:
64,192,39562,1,4,0:0:0:0:
64,192,39937,1,8,0:0:0:0:
448,192,39937,1,0,0:0:0:0:
192,192,40124,1,0,0:0:0:0:
448,192,40312,1,2,0:0:0:0:
64,192,40499,1,0,0:0:0:0:
192,192,40687,1,8,0:0:0:0:
448,192,40687,1,0,0:0:0:0:
320,192,40874,1,0,0:0:0:0:
64,192,41062,1,4,0:0:0:40:soft-hitfinish.wav
448,192,41062,128,2,41437:0:0:0:0:
320,192,41437,1,8,0:0:0:0:
192,192,41437,128,4,41812:0:0:0:40:soft-hitfinish.wav
64,192,41812,1,4,0:0:0:40:soft-hitfinish.wav
448,192,41812,128,8,42187:0:0:0:0:
320,192,42187,1,8,0:0:0:0:
64,192,42187,128,4,42562:0:0:0:40:soft-hitfinish.wav
448,192,42562,1,2,0:0:0:0:
192,192,42562,1,4,0:0:0:0:
64,192,42937,1,4,0:0:0:0:
320,192,42937,1,8,0:0:0:0:
64,192,43312,1,0,0:0:0:0:
320,192,43312,1,2,0:0:0:0:
320,192,43687,1,8,0:0:0:0:
64,192,43687,1,4,0:0:0:0:
192,192,44062,1,2,0:0:0:0:
320,192,44062,1,4,0:0:0:0:
192,192,44437,1,8,0:0:0:0:
448,192,44437,1,0,0:0:0:0:
448,192,44812,1,2,0:0:0:0:
192,192,44812,1,0,0:0:0:0:
192,192,45187,1,8,0:0:0:0:
448,192,45187,1,4,0:0:0:0:
192,192,45562,1,2,0:0:0:0:
320,192,45562,1,4,0:0:0:0:
64,192,45937,1,8,0:0:0:0:
320,192,45937,1,0,0:0:0:0:
192,192,46312,1,2,0:0:0:0:
320,192,46312,1,0,0:0:0:0:
192,192,46687,1,8,0:0:0:0:
448,192,46687,1,0,0:0:0:0:
192,192,47062,1,2,0:0:0:0:
320,192,47062,1,0,0:0:0:0:
64,192,47437,1,8,0:0:0:0:
320,192,47437,1,0,0:0:0:0:
64,192,47812,1,2,0:0:0:0:
192,192,47812,1,0,0:0:0:0:
192,192,48187,1,8,0:0:0:0:
448,192,48187,1,0,0:0:0:0:
320,192,48374,1,0,0:0:0:0:
448,192,48562,1,4,0:0:0:0:
64,192,48562,128,0,49312:0:0:0:0:
320,192,48937,1,8,0:0:0:0:
192,192,49312,128,4,50062:0:0:0:0:
448,192,49312,1,0,0:0:0:0:
64,192,49687,1,8,0:0:0:0:
320,192,50062,128,4,50812:0:0:0:0:
448,192,50062,1,0,0:0:0:0:
64,192,50437,1,8,0:0:0:0:
448,192,50812,128,4,51562:0:0:0:0:
192,192,50812,1,0,0:0:0:0:
64,192,50999,1,0,0:0:0:0:
320,192,51187,1,0,0:0:0:0:
192,192,51374,1,0,0:0:0:0:
192,192,51562,128,2,52312:0:0:0:0:
320,192,52124,1,0,0:0:0:0:
448,192,52312,1,8,0:0:0:0:
64,192,52312,1,8,0:0:0:0:
320,192,52874,1,0,0:0:0:0:
320,192,53062,128,2,53812:0:0:0:0:
192,192,53624,1,2,0:0:0:0:
64,192,53812,1,8,0:0:0:0:
448,192,53812,1,8,0:0:0:0:
192,192,54187,1,0,0:0:0:0:
320,192,54374,1,8,0:0:0:0:
448,192,54562,1,2,0:0:0:0:
64,192,54562,128,4,55312:0:0:0:0:
320,192,55124,1,2,0:0:0:0:
192,192,55312,1,4,0:0:0:0:
448,192,55312,1,8,0:0:0:0:
320,192,55687,1,0,0:0:0:0:
64,192,55874,1,8,0:0:0:0:
64,192,56062,1,2,0:0:0:0:
320,192,56249,1,8,0:0:0:0:
448,192,56249,1,8,0:0:0:0:
192,192,56437,1,0,0:0:0:0:
320,192,56624,1,2,0:0:0:0:
64,192,56812,1,8,0:0:0:0:
448,192,56812,1,8,0:0:0:0:
192,192,56999,1,0,0:0:0:0:
64,192,57187,1,8,0:0:0:0:
320,192,57187,1,8,0:0:0:0:
448,192,57374,1,0,0:0:0:0:
192,192,57562,1,0,0:0:0:0:
64,192,57562,128,4,58124:0:0:0:0:
320,192,58124,1,0,0:0:0:0:
448,192,58312,128,0,58874:0:0:0:0:
192,192,58874,1,0,0:0:0:0:
64,192,59062,128,0,59624:0:0:0:0:
320,192,59624,1,0,0:0:0:0:
448,192,59812,128,0,60187:0:0:0:0:
64,192,59999,1,2,0:0:0:0:
192,192,60187,1,8,0:0:0:0:
320,192,60187,1,8,0:0:0:0:
64,192,60374,1,2,0:0:0:0:
192,192,60468,1,0,0:0:0:0:
320,192,60562,1,8,0:0:0:0:
448,192,60562,1,8,0:0:0:0:
320,192,60937,1,8,0:0:0:0:
64,192,61124,1,2,0:0:0:0:
320,192,61312,1,8,0:0:0:0:
448,192,61312,1,8,0:0:0:0:
192,192,61687,1,8,0:0:0:0:
448,192,61874,1,2,0:0:0:0:
64,192,62062,1,8,0:0:0:0:
320,192,62062,1,8,0:0:0:0:
192,192,62249,1,0,0:0:0:0:
64,192,62437,1,8,0:0:0:0:
448,192,62437,1,8,0:0:0:0:
320,192,62624,1,0,0:0:0:0:
192,192,62812,1,8,0:0:0:0:
448,192,62812,1,8,0:0:0:0:
320,192,62999,1,0,0:0:0:0:
448,192,63187,1,8,0:0:0:0:
64,192,63187,128,8,63562:0:0:0:0:
192,192,63562,1,2,0:0:0:0:
448,192,63562,1,2,0:0:0:0:
320,192,63749,1,8,0:0:0:0:
192,192,63937,1,2,0:0:0:0:
64,192,64124,1,8,0:0:0:0:
320,192,64312,1,2,0:0:0:0:
192,192,64312,1,0,0:0:0:0:
448,192,64499,1,8,0:0:0:0:
320,192,64687,1,2,0:0:0:0:
64,192,64874,1,8,0:0:0:0:
192,192,65062,1,2,0:0:0:0:
320,192,65062,1,0,0:0:0:0:
448,192,65249,1,8,0:0:0:0:
64,192,65437,1,2,0:0:0:0:
448,192,65624,1,8,0:0:0:0:
320,192,65812,1,2,0:0:0:0:
64,192,65812,128,2,66187:0:0:0:0:
448,192,66187,1,2,0:0:0:0:
320,192,66187,128,2,66562:0:0:0:0:
192,192,66562,1,2,0:0:0:0:
64,192,66562,1,2,0:0:0:0:
448,192,66749,1,8,0:0:0:0:
320,192,66937,1,2,0:0:0:0:
64,192,67124,1,8,0:0:0:0:
320,192,67312,1,2,0:0:0:0:
192,192,67312,1,2,0:0:0:0:
448,192,67499,1,8,0:0:0:0:
320,192,67687,1,2,0:0:0:0:
192,192,67874,1,8,0:0:0:0:
64,192,68062,1,2,0:0:0:0:
448,192,68062,1,2,0:0:0:0:
320,192,68249,1,8,0:0:0:0:
64,192,68437,1,2,0:0:0:0:
448,192,68437,1,2,0:0:0:0:
192,192,68624,1,8,0:0:0:0:
448,192,68812,1,8,0:0:0:0:
320,192,68812,128,2,69187:0:0:0:0:
192,192,69187,128,8,69562:0:0:0:0:
64,192,69187,1,2,0:0:0:0:
320,192,69562,1,2,0:0:0:0:
448,192,69562,1,2,0:0:0:0:
64,192,69749,1,8,0:0:0:0:
448,192,69937,1,2,0:0:0:0:
192,192,70124,1,2,0:0:0:0:
320,192,70312,1,2,0:0:0:0:
448,192,70312,1,2,0:0:0:0:
64,192,70499,1,0,0:0:0:0:
192,192,70687,1,2,0:0:0:0:
448,192,70874,1,0,0:0:0:0:
64,192,71062,1,8,0:0:0:0:
320,192,71062,1,2,0:0:0:0:
448,192,71249,1,8,0:0:0:0:
64,192,71437,1,2,0:0:0:0:
192,192,71624,1,8,0:0:0:0:
320,192,71812,1,2,0:0:0:0:
448,192,71812,128,2,72187:0:0:0:0:
64,192,72187,128,2,72562:0:0:0:0:
192,192,72187,1,2,0:0:0:0:
448,192,72562,1,2,0:0:0:0:
320,192,72562,1,0,0:0:0:0:
320,192,73499,128,0,74062:0:0:0:0:
64,192,74062,1,2,0:0:0:0:
448,192,74062,1,2,0:0:0:0:
192,192,74249,1,8,0:0:0:0:
320,192,74249,1,8,0:0:0:0:
320,192,74624,1,8,0:0:0:0:
448,192,74624,1,8,0:0:0:0:
192,192,74999,1,8,0:0:0:0:
320,192,74999,1,8,0:0:0:0:
192,192,75374,1,8,0:0:0:0:
64,192,75374,1,8,0:0:0:0:
320,192,75562,1,2,0:0:0:0:
448,192,75562,1,0,0:0:0:0:
64,192,75749,1,8,0:0:0:0:
192,192,75749,1,8,0:0:0:0:
320,192,76124,1,8,0:0:0:0:
448,192,76124,1,8,0:0:0:0:
192,192,76499,1,8,0:0:0:0:
320,192,76499,1,8,0:0:0:0:
448,192,76874,1,8,0:0:0:0:
320,192,76874,1,8,0:0:0:0:
192,192,77062,1,2,0:0:0:0:
64,192,77062,1,2,0:0:0:0:
320,192,77249,1,8,0:0:0:0:
448,192,77249,1,8,0:0:0:0:
192,192,77624,1,8,0:0:0:0:
320,192,77624,1,8,0:0:0:0:
320,192,77999,1,8,0:0:0:0:
448,192,77999,1,8,0:0:0:0:
64,192,78374,1,8,0:0:0:0:
192,192,78374,1,8,0:0:0:0:
192,192,78749,1,8,0:0:0:0:
320,192,78749,1,0,0:0:0:0:
320,192,79124,1,8,0:0:0:0:
448,192,79124,1,0,0:0:0:0:
64,192,79499,1,8,0:0:0:0:
192,192,79499,1,0,0:0:0:0:
192,192,79874,1,8,0:0:0:0:
320,192,79874,1,0,0:0:0:0:
64,192,80062,1,0,0:0:0:0:
448,192,80062,1,2,0:0:0:0:
320,192,80249,1,2,0:0:0:0:
192,192,80249,1,0,0:0:0:0:
64,192,80624,1,2,0:0:0:0:
320,192,80624,128,0,80812:0:0:0:0:
192,192,80999,1,2,0:0:0:0:
448,192,80999,128,0,81187:0:0:0:0:
64,192,81374,1,0,0:0:0:0:
320,192,81374,128,2,81562:0:0:0:0:
192,192,81562,1,0,0:0:0:0:
448,192,81562,1,2,0:0:0:0:
320,192,81749,1,2,0:0:0:0:
64,192,81749,1,0,0:0:0:0:
448,192,82124,1,2,0:0:0:0:
192,192,82124,128,0,82312:0:0:0:0:
320,192,82499,1,2,0:0:0:0:
64,192,82499,128,0,82687:0:0:0:0:
448,192,82874,1,0,0:0:0:0:
192,192,82874,128,2,83062:0:0:0:0:
320,192,83062,1,2,0:0:0:0:
64,192,83062,1,0,0:0:0:0:
448,192,83249,1,2,0:0:0:0:
192,192,83249,1,0,0:0:0:0:
320,192,83624,128,0,83812:0:0:0:0:
64,192,83624,1,2,0:0:0:0:
448,192,83999,128,0,84187:0:0:0:0:
192,192,83999,1,2,0:0:0:0:
64,192,84374,1,0,0:0:0:0:
320,192,84374,128,2,84562:0:0:0:0:
192,192,84749,1,8,0:0:0:0:
448,192,84749,128,0,84937:0:0:0:0:
192,192,85124,1,0,0:0:0:0:
64,192,85124,128,8,85312:0:0:0:0:
448,192,85499,1,0,0:0:0:0:
320,192,85499,128,8,85687:0:0:0:0:
64,192,85874,1,0,0:0:0:0:
192,192,85874,1,8,0:0:0:0:
320,192,86062,1,0,0:0:0:0:
448,192,86062,128,0,86812:0:0:0:0:
