osu file format v14

[General]
AudioFilename: audio.mp3
AudioLeadIn: 0
PreviewTime: 63278
Countdown: 0
SampleSet: Normal
StackLeniency: 0.5
Mode: 0
LetterboxInBreaks: 0
WidescreenStoryboard: 1

[Editor]
DistanceSpacing: 1
BeatDivisor: 4
GridSize: 32
TimelineZoom: 1.8

[Metadata]
Title:Shinzou o Sasageyo! [TV Size]
TitleUnicode:心臓を捧げよ! [TV Size]
Artist:Linked Horizon
ArtistUnicode:Linked Horizon
Creator:Monstrata
Version:Normal
Source:進撃の巨人
Tags:revo Attack on Titan shingeki no kyojin season 2 two dedicate all your hearts heart snk aot Haruto haruto_aizawa armin arlert levi erin jaeger mikasa ackerman survey corps opening one theme song sound
BeatmapID:1256370
BeatmapSetID:593620

[Difficulty]
HPDrainRate:3
CircleSize:3.5
OverallDifficulty:4
ApproachRate:5
SliderMultiplier:1
SliderTickRate:1

[Events]
//Background and Video events
0,0,"sasageyo.jpg",0,0
Video,-150,"sasageyo.flv"
//Break Periods
//Storyboard Layer 0 (Background)
//Storyboard Layer 1 (Fail)
//Storyboard Layer 2 (Pass)
//Storyboard Layer 3 (Foreground)
//Storyboard Sound Samples

[TimingPoints]
560,375,4,2,2,50,1,0
560,-100,4,2,2,50,0,0
3560,-100,4,3,2,65,0,0
6560,-100,4,3,3,55,0,0
17435,-100,4,3,2,55,0,0
17810,-100,4,3,2,50,0,0
18185,-100,4,3,2,60,0,0
18560,-100,4,3,2,50,0,0
18747,-100,4,3,3,60,0,0
29060,-100,4,3,2,70,0,0
29341,-100,4,3,2,5,0,0
29435,-100,4,3,2,70,0,0
29716,-100,4,3,2,5,0,0
29810,-100,4,3,2,70,0,0
30560,-100,4,3,2,55,0,0
32810,-100,4,3,2,60,0,0
33091,-100,4,3,2,5,0,0
33185,-100,4,3,2,60,0,0
33466,-100,4,3,2,5,0,0
33560,-100,4,3,2,55,0,0
35810,-100,4,3,2,60,0,0
39091,-100,4,3,2,5,0,0
39185,-100,4,3,2,60,0,0
39466,-100,4,3,2,5,0,0
39560,-100,4,3,2,60,0,0
41060,-100,4,3,2,60,0,0
41435,-100,4,3,2,65,0,0
41716,-100,4,3,2,5,0,0
41810,-100,4,3,2,70,0,0
42185,-100,4,3,2,75,0,0
42560,-100,4,3,2,70,0,0
45466,-100,4,3,2,5,0,0
45560,-100,4,3,2,50,0,0
48091,-100,4,3,2,5,0,0
48185,-100,4,3,2,60,0,0
48560,-100,4,3,2,70,0,0
50060,-100,4,3,2,75,0,0
51560,-100,4,3,2,55,0,0
54372,-100,4,3,3,55,0,0
54560,-100,4,3,2,55,0,0
57560,-100,4,3,2,45,0,0
60185,-100,4,3,2,55,0,0
60560,-100,4,3,2,65,0,0
62060,-100,4,3,2,70,0,0
62810,-100,4,3,2,75,0,0
63560,-100,4,1,2,70,0,1
72560,-100,4,3,2,65,0,0
73778,-100,4,3,3,65,0,0
73966,-100,4,3,2,65,0,0
74060,-100,4,3,2,70,0,1
74247,-100,4,3,3,70,0,1
78372,-100,4,3,2,75,0,1
78653,-100,4,3,3,75,0,1
78747,-100,4,3,2,70,0,1
79028,-100,4,3,3,70,0,1
79122,-100,4,3,2,70,0,1
79403,-100,4,3,3,70,0,1
79497,-100,4,3,2,70,0,1
80060,-100,4,1,2,75,0,1
83528,-100,4,3,3,80,0,1
83622,-100,4,1,2,70,0,1
86060,-100,4,3,2,80,0,0

[Colours]
Combo1 : 222,184,135
Combo2 : 255,128,0
Combo3 : 0,128,192
Combo4 : 255,255,128

[HitObjects]
122,116,560,6,0,L|129:187,1,50,2|0,0:2|0:0,0:0:0:0:
142,264,1122,2,0,P|214:283|333:219,1,200,2|2,0:0|0:0,0:0:0:0:
331,182,2060,2,0,L|335:132,1,50,2|2,0:1|0:0,0:0:0:0:
286,45,2622,2,0,P|359:35|433:144,1,200,2|2,0:0|0:0,0:0:0:0:
427,174,3560,6,0,L|422:223,1,50,4|8,0:2|0:0,0:0:0:0:
334,271,4122,2,0,P|290:247|240:249,1,100,4|4,0:2|1:2,0:0:0:0:
165,316,4872,2,0,P|121:339|68:337,1,100,4|4,0:2|0:2,0:0:0:0:
98,239,5622,2,0,L|91:139,2,100,4|4|4,0:2|0:2|0:3,0:0:0:0:
145,222,6560,6,0,L|206:201,1,50,4|2,0:1|0:1,0:0:0:0:
281,160,7122,2,0,P|292:207|269:268,1,100,2|2,0:2|0:2,0:0:0:0:
227,342,7872,2,0,P|274:356|322:345,1,100,2|0,0:0|0:0,0:0:0:0:
379,262,8622,2,0,P|426:251|487:274,1,100,2|6,0:2|0:0,0:0:0:0:
449,168,9372,1,2,0:0:0:0:
449,168,9560,6,0,L|401:151,1,50,6|2,0:0|0:2,0:0:0:0:
313,106,10121,2,0,P|302:154|316:201,1,100,2|2,0:2|0:2,0:0:0:0:
368,284,10872,2,0,P|320:298|272:287,1,100,2|0,0:0|0:0,0:0:0:0:
215,208,11622,2,0,P|166:197|119:211,1,100,2|10,0:2|0:0,0:0:0:0:
172,296,12372,1,2,0:0:0:0:
172,296,12560,6,0,L|170:347,1,50,4|0,0:2|0:0,0:0:0:0:
266,319,13122,2,0,L|367:319,1,100,2|2,0:2|0:2,0:0:0:0:
382,220,13872,2,0,L|282:220,1,100,2|2,0:0|0:0,0:0:0:0:
298,121,14622,2,0,L|398:121,1,100,2|10,0:2|0:0,0:0:0:0:
414,22,15372,1,2,0:1:0:0:
414,22,15560,6,0,L|345:22,1,50,10|2,0:0|0:2,0:0:0:0:
264,24,16122,2,0,P|222:52|201:96,1,100,10|0,0:0|0:0,0:0:0:0:
204,145,16685,2,0,L|207:195,1,50,2|2,3:0|0:0,0:0:0:0:
188,242,17060,5,4,0:2:0:0:
245,323,17435,1,8,0:2:0:0:
339,293,17810,1,10,1:2:0:0:
340,193,18185,1,12,0:2:0:0:
246,162,18560,6,0,L|240:94,1,50,4|2,0:1|0:1,0:0:0:0:
230,12,19122,2,0,P|279:20|320:52,1,100,2|2,0:2|0:2,0:0:0:0:
325,100,19685,1,2,0:0:0:0:
325,100,19872,2,0,L|334:205,1,100,2|0,0:2|0:0,0:0:0:0:
339,298,20622,2,0,P|386:282|420:244,1,100,2|0,0:2|0:0,0:0:0:0:
411,145,21372,1,2,0:0:0:0:
411,145,21560,6,0,L|405:79,1,50,12|2,0:2|0:2,0:0:0:0:
330,30,22122,2,0,L|219:41,1,100,2|0,0:2|0:0,0:0:0:0:
202,81,22685,1,2,0:2:0:0:
202,81,22872,2,0,L|91:70,1,100,0|2,0:0|0:2,0:0:0:0:
68,165,23622,2,0,L|167:174,1,100,2|2,0:2|0:0,0:0:0:0:
188,220,24185,2,0,L|212:275,1,50,4|0,0:2|1:0,0:0:0:0:
227,311,24560,6,0,L|290:317,1,50,12|2,0:2|0:2,0:0:0:0:
376,322,25122,2,0,P|365:269|332:232,1,100,2|2,0:1|0:2,0:0:0:0:
286,224,25685,1,2,0:0:0:0:
286,224,25872,2,0,L|297:106,1,100,0|8,1:0|0:0,0:0:0:0:
205,80,26622,2,0,L|195:179,1,100,2|2,0:1|0:2,0:0:0:0:
185,278,27372,1,2,0:0:0:0:
185,278,27560,6,0,P|234:270|273:239,1,100,4|2,0:2|0:0,0:0:0:0:
319,221,28122,2,0,P|367:229|426:319,1,150,2|2,0:1|0:0,0:0:0:0:
327,321,29060,5,4,0:2:0:0:
236,277,29435,1,4,1:3:0:0:
228,176,29810,1,10,0:2:0:0:
311,119,30185,1,4,0:2:0:0:
403,162,30560,6,0,L|406:234,2,50,4|0|8,0:1|0:0|0:0,0:0:0:0:
395,61,31310,1,0,0:0:0:0:
303,17,31685,1,8,0:0:0:0:
218,74,32060,2,0,B|195:155|239:144|217:222,1,150,2|2,0:2|0:0,0:0:0:0:
187,261,32810,1,4,0:2:0:0:
127,181,33185,1,12,0:2:0:0:
27,192,33560,6,0,L|4:246,2,50,4|0|8,0:2|0:0|0:0,0:0:0:0:
67,99,34310,1,2,0:2:0:0:
167,87,34685,1,8,0:0:0:0:
227,167,35060,2,0,P|289:172|360:108,1,150,4|2,0:3|0:0,0:0:0:0:
367,71,35810,1,4,0:2:0:0:
267,76,36185,1,12,0:0:0:0:
227,167,36560,6,0,L|233:233,1,50,4|2,0:2|0:0,0:0:0:0:
235,265,36935,1,8,0:0:0:0:
328,230,37310,2,0,L|394:224,1,50,2|2,0:2|0:0,0:0:0:0:
426,222,37685,1,8,0:0:0:0:
391,129,38060,2,0,L|385:63,1,50,4|2,0:3|0:0,0:0:0:0:
383,31,38435,1,8,0:0:0:0:
290,68,38810,1,4,0:2:0:0:
211,5,39185,1,12,0:2:0:0:
118,42,39560,6,0,L|112:108,1,50,4|2,0:2|0:0,0:0:0:0:
110,140,39935,1,8,0:0:0:0:
191,197,40310,2,0,L|197:263,1,50,2|2,0:2|0:0,0:0:0:0:
199,295,40685,1,8,0:0:0:0:
283,348,41060,5,12,1:2:0:0:
370,301,41435,1,8,1:2:0:0:
373,201,41810,1,12,1:2:0:0:
289,149,42185,1,12,0:0:0:0:
201,195,42560,6,0,L|145:189,1,50,12|2,0:2|0:1,0:0:0:0:
104,208,42935,2,0,L|48:202,1,50,10|2,0:2|0:1,0:0:0:0:
7,221,43310,2,0,P|-6:272|7:321,1,100,8|12,0:0|0:2,0:0:0:0:
103,335,44060,2,0,L|159:341,1,50,4|2,0:2|0:1,0:0:0:0:
200,322,44435,2,0,L|256:328,1,50,10|4,0:0|0:0,0:0:0:0:
297,309,44810,2,0,P|310:258|297:209,1,100,8|12,0:0|0:2,0:0:0:0:
269,117,45560,6,0,P|308:58|444:85,1,200,4|8,0:1|0:0,0:0:0:0:
364,140,46685,1,2,0:1:0:0:
299,212,47060,2,0,L|314:343,1,100,4|0,0:0|0:0,0:0:0:0:
401,350,47810,1,12,0:2:0:0:
480,291,48185,1,2,0:1:0:0:
468,193,48560,6,0,P|441:151|344:138,1,150,12|0,0:2|1:0,0:0:0:0:
315,174,49310,2,0,L|251:184,1,50,10|0,0:0|0:0,0:0:0:0:
232,219,49685,2,0,L|168:229,1,50,8|0,0:0|0:0,0:0:0:0:
148,264,50060,2,0,P|62:250|20:146,1,200,12|4,1:2|1:2,0:0:0:0:
118,167,51185,1,2,1:0:0:0:
163,77,51560,6,0,P|256:47|350:78,1,200,4|8,0:1|0:0,0:0:0:0:
350,278,53060,2,0,P|256:308|162:277,1,200,2|12,0:2|0:0,0:0:0:0:
102,86,54560,6,0,B|200:47|198:119|301:85,1,200,4|8,0:2|0:0,0:0:0:0:
464,196,56060,2,0,B|366:235|368:163|265:197,1,200,0|12,0:0|0:0,0:0:0:0:
188,254,57185,1,12,0:2:0:0:
278,294,57560,6,0,P|299:198|283:100,1,200,4|0,0:1|0:0,0:0:0:0:
83,94,59060,2,0,P|61:190|77:288,1,200,2|2,0:0|0:2,0:0:0:0:
152,354,60185,1,8,0:0:0:0:
225,285,60560,6,0,P|273:274|321:287,1,100,12|2,0:2|0:1,0:0:0:0:
358,321,61122,1,0,1:0:0:0:
358,321,61310,2,0,L|419:312,1,50,12|0,0:2|1:0,0:0:0:0:
457,306,61685,1,8,1:3:0:0:
512,225,62060,6,0,P|494:165|458:134,1,100,12|12,0:2|0:2,0:0:0:0:
418,133,62622,1,0,0:0:0:0:
418,133,62810,2,0,L|368:140,1,50,12|0,0:2|0:0,0:0:0:0:
329,171,63185,2,0,L|279:163,1,50,12|2,0:2|0:1,0:0:0:0:
229,152,63560,6,0,P|210:198|225:248,1,100,4|2,0:1|0:2,0:0:0:0:
306,299,64310,2,0,L|413:314,1,100,2|0,0:0|0:0,0:0:0:0:
454,318,64872,1,8,0:3:0:0:
454,318,65060,6,0,P|478:291|470:216,1,100,12|0,0:2|0:0,0:0:0:0:
416,151,65810,2,0,L|356:192,1,50,10|8,0:2|0:3,0:0:0:0:
334,208,66185,1,4,0:2:0:0:
246,161,66560,6,0,P|233:111|251:56,1,100,4|0,0:2|3:0,0:0:0:0:
333,112,67310,2,0,P|346:159|333:207,1,100,12|0,0:2|3:0,0:0:0:0:
302,246,67872,1,8,0:3:0:0:
302,246,68060,6,0,L|402:246,1,100,12|0,0:2|3:0,0:0:0:0:
386,344,68810,2,0,L|316:344,1,50,12|0,0:2|0:0,0:0:0:0:
286,344,69185,1,12,0:2:0:0:
209,281,69560,6,0,P|205:221|232:175,1,100,12|0,0:2|2:0,0:0:0:0:
282,106,70310,2,0,P|236:86|187:93,1,100,12|0,0:2|2:0,0:0:0:0:
150,126,70872,1,8,0:3:0:0:
150,126,71060,6,0,P|101:145|55:139,1,100,12|0,0:2|3:0,0:0:0:0:
91,45,71810,1,12,0:2:0:0:
190,35,72185,1,8,0:3:0:0:
248,115,72560,6,0,B|292:212|208:212|248:308,1,200,14|2,0:2|0:2,0:0:0:0:
336,261,73685,1,6,0:0:0:0:
424,308,74060,5,4,0:1:0:0:
424,308,74247,2,0,P|435:259|422:211,1,100,2|2,0:2|0:2,0:0:0:0:
335,165,74997,2,0,P|324:214|337:262,1,100,2|8,0:2|0:0,0:0:0:0:
303,299,75560,6,0,L|243:293,1,50,4|2,0:2|0:2,0:0:0:0:
154,281,76122,2,0,P|178:229|220:200,1,100,10|8,0:2|0:2,0:0:0:0:
311,212,76872,1,10,0:2:0:0:
311,212,77060,6,0,L|360:216,1,50,2|10,0:0|0:2,0:0:0:0:
438,153,77622,2,0,L|452:46,1,100,10|10,0:2|0:2,0:0:0:0:
362,6,78372,5,14,0:2:0:0:
287,72,78747,1,12,0:2:0:0:
192,40,79122,1,12,0:2:0:0:
116,106,79497,1,12,0:2:0:0:
135,204,79872,1,12,0:2:0:0:
135,204,80060,6,0,L|147:265,1,50,6|10,0:1|0:2,0:0:0:0:
168,350,80622,2,0,P|221:315|241:273,1,100,12|10,0:2|0:2,0:0:0:0:
246,234,81185,2,0,L|256:185,1,50,8|10,0:3|0:2,0:0:0:0:
226,145,81560,6,0,L|216:95,1,50,8|10,0:3|0:2,0:0:0:0:
263,7,82122,2,0,P|305:54|313:100,1,100,12|10,1:2|0:2,0:0:0:0:
362,80,82685,2,0,L|411:70,1,50,8|10,0:3|0:2,0:0:0:0:
446,105,83060,6,0,L|429:152,1,50,2|10,0:0|0:2,0:0:0:0:
339,191,83622,2,0,P|370:230|416:247,1,100,12|10,0:2|0:2,0:0:0:0:
481,325,84372,6,0,P|432:333|394:366,1,100,14|10,0:2|0:2,0:0:0:0:
296,381,85122,2,0,P|312:334|303:285,1,100,14|10,0:2|0:3,0:0:0:0:
212,326,85872,1,8,0:3:0:0:
212,326,86060,5,12,1:2:0:0:
