osu file format v14

[General]
AudioFilename: audio.mp3
AudioLeadIn: 0
PreviewTime: 63278
Countdown: 0
SampleSet: None
StackLeniency: 0.5
Mode: 0
LetterboxInBreaks: 0
WidescreenStoryboard: 1

[Editor]
DistanceSpacing: 1.2
BeatDivisor: 2
GridSize: 32
TimelineZoom: 1.8

[Metadata]
Title:Shinzou o Sasageyo! [TV Size]
TitleUnicode:心臓を捧げよ! [TV Size]
Artist:Linked Horizon
ArtistUnicode:Linked Horizon
Creator:Monstrata
Version:Easy
Source:進撃の巨人
Tags:revo Attack on Titan shingeki no kyojin season 2 two dedicate all your hearts heart snk aot Haruto haruto_aizawa armin arlert levi erin jaeger mikasa ackerman survey corps opening one theme song sound
BeatmapID:1256135
BeatmapSetID:593620

[Difficulty]
HPDrainRate:2
CircleSize:2.5
OverallDifficulty:2
ApproachRate:3
SliderMultiplier:0.7
SliderTickRate:1

[Events]
//Background and Video events
0,0,"sasageyo.jpg",0,0
Video,-150,"sasageyo.flv"
//Break Periods
//Storyboard Layer 0 (Background)
//Storyboard Layer 1 (Fail)
//Storyboard Layer 2 (Pass)
//Storyboard Layer 3 (Foreground)
//Storyboard Sound Samples

[TimingPoints]
560,375,4,2,2,50,1,0
560,-100,4,2,2,50,0,0
3560,-100,4,3,2,65,0,0
6560,-100,4,3,3,55,0,0
17435,-100,4,3,2,55,0,0
17810,-100,4,3,2,50,0,0
18185,-100,4,3,2,60,0,0
18560,-100,4,3,2,50,0,0
18747,-100,4,3,3,60,0,0
29060,-100,4,3,2,70,0,0
29341,-100,4,3,2,5,0,0
29435,-100,4,3,2,70,0,0
29716,-100,4,3,2,5,0,0
29810,-100,4,3,2,70,0,0
30560,-100,4,3,2,55,0,0
32810,-100,4,3,2,60,0,0
33091,-100,4,3,2,5,0,0
33185,-100,4,3,2,60,0,0
33466,-100,4,3,2,5,0,0
33560,-100,4,3,2,55,0,0
35810,-100,4,3,2,60,0,0
39091,-100,4,3,2,5,0,0
39185,-100,4,3,2,60,0,0
39466,-100,4,3,2,5,0,0
39560,-100,4,3,2,60,0,0
41060,-100,4,3,2,60,0,0
41435,-100,4,3,2,65,0,0
41716,-100,4,3,2,5,0,0
41810,-100,4,3,2,70,0,0
42185,-100,4,3,2,75,0,0
42560,-100,4,3,2,70,0,0
45466,-100,4,3,2,5,0,0
45560,-100,4,3,2,50,0,0
48091,-100,4,3,2,5,0,0
48185,-100,4,3,2,60,0,0
48560,-100,4,3,2,70,0,0
50060,-100,4,3,2,75,0,0
51560,-100,4,3,2,55,0,0
54372,-100,4,3,3,55,0,0
54560,-100,4,3,2,55,0,0
57560,-100,4,3,2,45,0,0
60185,-100,4,3,2,55,0,0
60560,-100,4,3,2,65,0,0
62060,-100,4,3,2,70,0,0
62810,-100,4,3,2,75,0,0
63560,-100,4,1,2,70,0,1
72560,-100,4,3,2,65,0,0
73778,-100,4,3,3,65,0,0
73966,-100,4,3,2,65,0,0
74060,-100,4,3,2,70,0,1
74247,-100,4,3,3,70,0,1
78372,-100,4,3,2,75,0,1
78653,-100,4,3,3,75,0,1
78747,-100,4,3,2,70,0,1
79028,-100,4,3,3,70,0,1
79122,-100,4,3,2,70,0,1
79403,-100,4,3,3,70,0,1
79497,-100,4,3,2,70,0,1
80060,-100,4,1,2,75,0,1
83528,-100,4,3,3,80,0,1
83622,-100,4,1,2,70,0,1
86060,-100,4,3,2,80,0,0

[Colours]
Combo1 : 222,184,135
Combo2 : 255,128,0
Combo3 : 0,128,192
Combo4 : 255,255,128

[HitObjects]
65,244,560,6,0,P|147:270|226:224,1,175,2|2,0:2|0:0,0:0:0:0:
293,127,2060,2,0,P|375:100|454:147,1,175,2|2,0:1|0:1,0:0:0:0:
430,265,3560,6,0,L|417:370,1,105,4|4,0:2|0:2,0:0:0:0:
333,371,4497,1,4,1:2:0:0:
278,306,4872,2,0,L|194:306,1,70,4|4,0:2|0:2,0:0:0:0:
159,237,5622,2,0,L|75:237,1,70,4|4,0:2|0:2,0:0:0:0:
78,111,6560,6,0,P|153:67|246:91,1,175,4|2,0:1|0:2,0:0:0:0:
245,167,7872,2,0,P|301:136|316:64,1,140,2|2,0:0|0:2,0:0:0:0:
260,2,8997,1,6,0:0:0:0:
142,47,9560,6,0,L|154:235,1,175,6|2,0:0|0:2,0:0:0:0:
108,292,10872,2,0,P|180:301|230:256,1,140,2|2,0:0|0:2,0:0:0:0:
233,174,11997,1,10,0:0:0:0:
314,77,12560,6,0,P|374:35|467:89,1,175,4|2,0:2|0:2,0:0:0:0:
389,118,13872,2,0,L|382:264,1,140,2|2,0:0|0:2,0:0:0:0:
331,325,14997,1,10,0:0:0:0:
218,268,15560,6,0,P|169:255|117:276,2,105,10|10|2,0:0|0:0|3:0,0:0:0:0:
174,340,17060,1,4,0:2:0:0:
89,353,17435,1,8,0:2:0:0:
35,285,17810,2,0,P|37:250|54:220,1,70,10|12,1:2|0:2,0:0:0:0:
52,136,18560,6,0,P|101:149|132:190,1,105,4|2,0:1|0:2,0:0:0:0:
119,274,19497,1,2,0:2:0:0:
141,355,19872,2,0,P|204:380|267:353,1,140,2|2,0:2|0:2,0:0:0:0:
305,277,20997,1,0,0:0:0:0:
242,167,21560,6,0,L|256:59,1,105,12|2,0:2|0:2,0:0:0:0:
325,15,22497,1,0,0:0:0:0:
409,9,22872,2,0,P|454:59|446:126,1,140,0|2,0:0|0:2,0:0:0:0:
379,177,23997,1,2,0:0:0:0:
257,137,24560,6,0,P|206:128|155:139,1,105,12|2,0:2|0:1,0:0:0:0:
104,205,25497,1,2,0:2:0:0:
154,272,25872,2,0,L|159:346,2,70,0|8|2,1:0|0:0|0:1,0:0:0:0:
229,234,26997,1,2,0:2:0:0:
348,275,27560,6,0,P|402:282|460:267,2,105,4|2|2,0:2|0:1|0:0,0:0:0:0:
325,193,29060,1,4,0:2:0:0:
384,132,29435,1,4,1:3:0:0:
332,65,29810,2,0,P|297:59|263:64,1,70,10|4,0:2|0:2,0:0:0:0:
238,144,30560,6,0,L|232:231,2,70,4|8|0,0:1|0:0|0:0,0:0:0:0:
320,149,31685,1,8,0:0:0:0:
365,77,32060,2,0,P|398:68|440:77,1,70,2|8,0:2|0:0,0:0:0:0:
479,143,32810,1,4,0:2:0:0:
440,217,33185,1,12,0:2:0:0:
356,220,33560,6,0,P|332:245|319:277,1,70,4|8,0:2|0:0,0:0:0:0:
337,359,34310,2,0,P|294:358|267:344,1,70,2|8,0:2|0:0,0:0:0:0:
236,268,35060,1,4,0:3:0:0:
150,258,35435,1,8,0:0:0:0:
99,325,35810,2,0,P|71:333|21:321,1,70,4|12,0:2|0:0,0:0:0:0:
64,248,36560,6,0,L|76:163,1,70,4|8,0:2|0:0,0:0:0:0:
72,94,37310,2,0,L|157:106,1,70,2|8,0:2|0:0,0:0:0:0:
226,102,38060,2,0,L|214:187,1,70,4|8,0:3|0:0,0:0:0:0:
245,249,38810,1,4,0:2:0:0:
325,262,39185,1,12,0:2:0:0:
378,197,39560,6,0,P|417:192|457:208,1,70,4|8,0:2|0:0,0:0:0:0:
492,270,40310,2,0,P|488:304|470:334,1,70,2|8,0:2|0:0,0:0:0:0:
410,276,41060,1,12,1:2:0:0:
336,315,41435,1,8,1:2:0:0:
275,256,41810,2,0,P|265:222|271:188,1,70,12|12,1:2|0:0,0:0:0:0:
334,133,42560,6,0,P|288:106|258:106,1,70,12|10,0:2|0:2,0:0:0:0:
199,146,43310,1,8,0:0:0:0:
125,104,43685,1,12,0:2:0:0:
51,145,44060,2,0,L|50:223,1,70,4|10,0:2|0:0,0:0:0:0:
107,276,44810,1,8,0:0:0:0:
187,257,45185,1,12,0:2:0:0:
210,178,45560,6,0,P|253:207|259:296,1,140,4|8,0:1|0:0,0:0:0:0:
193,339,46685,1,2,0:1:0:0:
118,300,47060,2,0,B|81:235|133:233|103:162,1,140,4|12,0:0|0:2,0:0:0:0:
29,202,48185,1,2,0:1:0:0:
23,284,48560,6,0,P|38:328|56:358,1,70,12|4,0:2|0:0,0:0:0:0:
118,300,49310,1,10,0:0:0:0:
193,339,49685,1,8,0:0:0:0:
267,299,50060,2,0,P|338:280|410:313,1,140,12|4,1:2|1:2,0:0:0:0:
462,147,51560,6,0,P|391:166|319:133,1,140,4|8,0:1|0:0,0:0:0:0:
173,84,53060,2,0,P|108:61|41:80,1,140,2|12,0:2|0:0,0:0:0:0:
39,248,54560,6,0,P|103:270|170:251,1,140,4|8,0:2|0:0,0:0:0:0:
313,339,56060,2,0,P|379:319|444:342,1,140,0|12,0:0|0:0,0:0:0:0:
479,181,57560,6,0,P|498:110|465:38,1,140,4|0,0:1|0:0,0:0:0:0:
319,112,59060,2,0,P|254:135|187:116,1,140,2|2,0:0|0:2,0:0:0:0:
35,44,60560,6,0,P|17:75|16:109,1,70,12|2,0:2|0:1,0:0:0:0:
67,176,61310,1,12,0:2:0:0:
31,252,61685,1,8,1:3:0:0:
80,318,62060,2,0,P|142:327|159:321,1,70,12|12,0:2|0:2,0:0:0:0:
206,265,62810,1,12,0:2:0:0:
283,297,63185,1,12,0:2:0:0:
341,236,63560,6,0,P|363:272|364:315,1,70,4|2,0:1|0:2,0:0:0:0:
427,358,64310,2,0,P|391:380|350:380,1,70,2|0,0:0|0:0,0:0:0:0:
292,333,65060,2,0,P|256:311|215:311,1,70,12|0,0:2|0:0,0:0:0:0:
156,351,65810,1,10,0:2:0:0:
80,314,66185,1,4,0:2:0:0:
7,356,66560,6,0,P|-4:310|10:264,1,70,4|0,0:2|3:0,0:0:0:0:
62,232,67310,2,0,P|73:186|59:140,1,70,12|0,0:2|3:0,0:0:0:0:
15,99,68060,2,0,P|46:82|81:80,1,70,12|0,0:2|3:0,0:0:0:0:
148,131,68810,1,12,0:2:0:0:
221,90,69185,1,12,0:2:0:0:
286,140,69560,6,0,L|379:153,1,70,12|0,0:2|3:0,0:0:0:0:
355,234,70310,2,0,L|286:244,1,70,12|0,0:2|3:0,0:0:0:0:
203,260,71060,2,0,L|194:344,1,70,12|0,0:2|3:0,0:0:0:0:
265,375,71810,1,12,0:2:0:0:
332,324,72185,1,8,0:3:0:0:
399,375,72560,5,14,0:2:0:0:
399,374,74247,6,0,P|436:364|463:340,2,70,2|2|2,0:2|0:2|0:2,0:0:0:0:
323,337,75372,1,8,0:0:0:0:
317,253,75747,2,0,P|280:263|253:287,2,70,2|10|8,0:2|0:2|0:2,0:0:0:0:
393,291,76872,1,10,0:2:0:0:
472,315,77247,2,0,P|476:280|465:248,1,70,10|10,0:2|0:2,0:0:0:0:
390,208,77997,5,10,0:2:0:0:
348,135,78372,2,0,L|342:42,1,70,14|12,0:2|0:2,0:0:0:0:
260,65,79122,2,0,L|256:134,1,70,12|12,0:2|0:2,0:0:0:0:
213,207,79872,1,12,0:2:0:0:
164,275,80247,6,0,P|213:291|237:287,2,70,10|12|10,0:2|0:2|0:2,0:0:0:0:
130,199,81372,1,10,0:2:0:0:
48,191,81747,2,0,P|9:225|1:248,1,70,10|12,0:2|1:2,0:0:0:0:
21,323,82497,1,10,0:2:0:0:
102,341,82872,1,10,0:2:0:0:
160,280,83247,6,0,L|174:192,2,70,10|12|10,0:2|0:2|0:2,0:0:0:0:
183,361,84372,2,0,P|215:346|236:318,1,70,14|10,0:2|0:2,0:0:0:0:
253,236,85122,1,14,0:2:0:0:
233,154,85497,2,0,P|288:158|332:207,1,105,10|12,0:3|1:2,0:0:0:0:
