osu file format v14

[General]
AudioFilename: audio.mp3
AudioLeadIn: 0
PreviewTime: 57423
Countdown: 0
SampleSet: Soft
StackLeniency: 0.7
Mode: 3
LetterboxInBreaks: 0
SpecialStyle: 0
WidescreenStoryboard: 0

[Editor]
Bookmarks: 55687
DistanceSpacing: 1
BeatDivisor: 4
GridSize: 32
TimelineZoom: 2.1

[Metadata]
Title:Shinzou o Sasageyo! [TV Size]
TitleUnicode:心臓をささげよう! [TV Size]
Artist:Linked Horizon
ArtistUnicode:Linked Horizon
Creator:- Emilia -
Version:MX
Source:進撃の巨人
Tags:attack on titan shingeki no kyojin season 2 two dedicate your hearts snk aot - Ly0572 - R_e_m_u_r_i_n_g
BeatmapID:1258115
BeatmapSetID:594867

[Difficulty]
HPDrainRate:8
CircleSize:4
OverallDifficulty:8
ApproachRate:5
SliderMultiplier:1.4
SliderTickRate:1

[Events]
//Background and Video events
0,0,"eren.png",0,0
//Break Periods
//Storyboard Layer 0 (Background)
//Storyboard Layer 1 (Fail)
//Storyboard Layer 2 (Pass)
//Storyboard Layer 3 (Foreground)
//Storyboard Sound Samples

[TimingPoints]
562,375,4,2,1,50,1,0
63562,-100,4,2,1,50,0,1
72562,-100,4,2,1,50,0,0

[HitObjects]
192,192,562,128,0,2062:0:0:0:0:
320,192,749,128,0,1124:0:0:0:0:
448,192,1124,128,0,1499:0:0:0:0:
64,192,1499,128,0,1874:0:0:0:0:
448,192,1874,128,0,2062:0:0:0:0:
64,192,2062,1,0,0:0:0:0:
192,192,2249,1,0,0:0:0:0:
448,192,2249,1,0,0:0:0:0:
64,192,2624,1,0,0:0:0:0:
320,192,2624,1,0,0:0:0:0:
192,192,2999,1,0,0:0:0:0:
448,192,2999,1,0,0:0:0:0:
64,192,3374,128,0,3562:0:0:0:0:
320,192,3374,1,0,0:0:0:0:
192,192,3562,1,4,0:0:0:0:
320,192,3562,1,2,0:0:0:0:
448,192,3655,1,0,0:0:0:0:
64,192,3749,1,8,0:0:0:0:
192,192,3749,1,2,0:0:0:0:
320,192,3843,1,0,0:0:0:0:
448,192,3937,1,0,0:0:0:0:
192,192,4030,1,0,0:0:0:0:
448,192,4124,1,2,0:0:0:0:
64,192,4124,1,8,0:0:0:0:
320,192,4218,1,8,0:0:0:0:
448,192,4312,1,8,0:0:0:0:
64,192,4405,1,8,0:0:0:0:
320,192,4499,1,2,0:0:0:0:
192,192,4499,1,8,0:0:0:0:
448,192,4593,1,8,0:0:0:0:
64,192,4687,1,8,0:0:0:0:
192,192,4780,1,8,0:0:0:0:
448,192,4874,1,8,0:0:0:0:
320,192,4874,1,2,0:0:0:0:
64,192,4968,1,8,0:0:0:0:
448,192,5062,1,8,0:0:0:0:
192,192,5155,1,8,0:0:0:0:
64,192,5249,1,8,0:0:0:0:
320,192,5249,1,2,0:0:0:0:
448,192,5343,1,8,0:0:0:0:
192,192,5437,1,8,0:0:0:0:
64,192,5530,1,8,0:0:0:0:
448,192,5624,1,8,0:0:0:0:
320,192,5624,1,2,0:0:0:0:
192,192,5718,1,8,0:0:0:0:
448,192,5812,1,8,0:0:0:0:
320,192,5905,1,8,0:0:0:0:
64,192,5999,1,2,0:0:0:0:
192,192,5999,1,8,0:0:0:0:
320,192,6093,1,8,0:0:0:0:
64,192,6187,1,8,0:0:0:0:
192,192,6280,1,8,0:0:0:0:
448,192,6374,1,2,0:0:0:0:
320,192,6374,1,8,0:0:0:0:
64,192,6468,1,8,0:0:0:0:
448,192,6562,1,8,0:0:0:0:
192,192,6562,1,0,0:0:0:0:
320,192,6562,1,2,0:0:0:0:
64,192,6749,1,0,0:0:0:0:
448,192,6749,1,0,0:0:0:0:
320,192,6937,1,2,0:0:0:0:
192,192,6937,1,0,0:0:0:0:
320,192,7124,1,0,0:0:0:0:
448,192,7124,1,0,0:0:0:0:
320,192,7312,1,2,0:0:0:0:
64,192,7312,1,0,0:0:0:0:
192,192,7499,1,0,0:0:0:0:
448,192,7499,1,0,0:0:0:0:
320,192,7687,1,2,0:0:0:0:
192,192,7687,1,0,0:0:0:0:
320,192,7874,1,0,0:0:0:0:
64,192,7874,1,0,0:0:0:0:
192,192,7968,1,0,0:0:0:0:
320,192,8062,1,2,0:0:0:0:
448,192,8062,1,0,0:0:0:0:
448,192,8249,1,0,0:0:0:0:
64,192,8249,1,0,0:0:0:0:
192,192,8437,1,2,0:0:0:0:
320,192,8437,1,0,0:0:0:0:
448,192,8624,1,0,0:0:0:0:
192,192,8624,1,0,0:0:0:0:
320,192,8812,1,2,0:0:0:0:
64,192,8812,1,0,0:0:0:0:
64,192,8999,1,0,0:0:0:0:
448,192,8999,1,0,0:0:0:0:
192,192,9187,1,2,0:0:0:0:
448,192,9187,1,0,0:0:0:0:
320,192,9280,1,0,0:0:0:0:
192,192,9374,1,2,0:0:0:0:
64,192,9468,1,0,0:0:0:0:
320,192,9562,1,2,0:0:0:0:
448,192,9562,1,0,0:0:0:0:
64,192,9749,1,0,0:0:0:0:
192,192,9749,1,0,0:0:0:0:
448,192,9937,1,2,0:0:0:0:
192,192,9937,1,0,0:0:0:0:
64,192,10124,1,0,0:0:0:0:
320,192,10124,1,0,0:0:0:0:
448,192,10312,1,2,0:0:0:0:
320,192,10312,1,0,0:0:0:0:
64,192,10499,1,0,0:0:0:0:
192,192,10499,1,0,0:0:0:0:
320,192,10499,1,0,0:0:0:0:
448,192,10687,1,2,0:0:0:0:
192,192,10687,1,0,0:0:0:0:
64,192,10874,1,0,0:0:0:0:
320,192,10874,1,0,0:0:0:0:
192,192,10968,1,0,0:0:0:0:
448,192,11062,1,2,0:0:0:0:
320,192,11062,1,0,0:0:0:0:
64,192,11249,1,0,0:0:0:0:
192,192,11249,1,0,0:0:0:0:
448,192,11437,1,2,0:0:0:0:
320,192,11437,1,0,0:0:0:0:
320,192,11624,1,0,0:0:0:0:
64,192,11624,1,0,0:0:0:0:
448,192,11812,1,2,0:0:0:0:
192,192,11812,1,0,0:0:0:0:
64,192,11999,1,0,0:0:0:0:
448,192,11999,1,0,0:0:0:0:
64,192,12187,128,0,12562:0:0:0:0:
192,192,12187,1,2,0:0:0:0:
448,192,12187,1,0,0:0:0:0:
320,192,12280,1,0,0:0:0:0:
448,192,12374,1,2,0:0:0:0:
320,192,12562,128,2,14062:0:0:0:0:
192,192,12562,1,4,0:0:0:0:
448,192,12749,1,0,0:0:0:0:
64,192,12937,1,2,0:0:0:0:
192,192,12937,1,0,0:0:0:0:
448,192,13124,1,0,0:0:0:0:
192,192,13218,1,0,0:0:0:0:
448,192,13312,1,2,0:0:0:0:
64,192,13499,1,0,0:0:0:0:
64,192,13687,1,2,0:0:0:0:
448,192,13687,1,0,0:0:0:0:
192,192,13874,1,0,0:0:0:0:
448,192,13968,1,0,0:0:0:0:
192,192,14062,128,2,15562:0:0:0:0:
64,192,14062,1,0,0:0:0:0:
320,192,14249,1,0,0:0:0:0:
448,192,14437,1,0,0:0:0:0:
64,192,14437,1,2,0:0:0:0:
448,192,14624,1,0,0:0:0:0:
320,192,14718,1,0,0:0:0:0:
64,192,14812,1,2,0:0:0:0:
448,192,14999,1,0,0:0:0:0:
64,192,15187,128,2,15562:0:0:0:0:
448,192,15562,128,2,16312:0:0:0:0:
320,192,15562,1,8,0:0:0:0:
320,192,15749,1,0,0:0:0:0:
64,192,15937,1,0,0:0:0:0:
192,192,15937,1,2,0:0:0:0:
320,192,16124,1,0,0:0:0:0:
64,192,16218,1,0,0:0:0:0:
320,192,16312,1,8,0:0:0:0:
192,192,16312,128,2,17062:0:0:0:0:
64,192,16499,1,0,0:0:0:0:
320,192,16687,1,2,0:0:0:0:
448,192,16874,1,0,0:0:0:0:
320,192,16968,1,0,0:0:0:0:
448,192,17062,128,2,17812:0:0:0:0:
64,192,17062,1,4,0:0:0:0:
320,192,17249,1,0,0:0:0:0:
192,192,17437,1,4,0:0:0:0:
64,192,17437,1,8,0:0:0:0:
320,192,17624,1,0,0:0:0:0:
320,192,17812,128,4,18562:0:0:0:0:
64,192,17812,1,2,0:0:0:0:
192,192,17812,1,4,0:0:0:0:
448,192,17999,1,0,0:0:0:0:
192,192,18187,128,8,18562:0:0:0:0:
64,192,18187,1,4,0:0:0:0:
448,192,18187,1,0,0:0:0:0:
64,192,18374,1,0,0:0:0:0:
448,192,18562,1,4,0:0:0:0:
64,192,18562,1,0,0:0:0:0:
320,192,18749,1,0,0:0:0:0:
192,192,18843,1,0,0:0:0:0:
448,192,18937,1,8,0:0:0:0:
64,192,18937,1,8,0:0:0:0:
192,192,19124,1,0,0:0:0:0:
448,192,19218,1,0,0:0:0:0:
320,192,19312,1,2,0:0:0:0:
64,192,19312,1,2,0:0:0:0:
192,192,19499,1,0,0:0:0:0:
64,192,19593,1,0,0:0:0:0:
320,192,19687,1,8,0:0:0:0:
448,192,19687,1,8,0:0:0:0:
64,192,19874,1,0,0:0:0:0:
320,192,19968,1,0,0:0:0:0:
192,192,20062,1,2,0:0:0:0:
448,192,20062,1,2,0:0:0:0:
448,192,20249,1,0,0:0:0:0:
320,192,20343,1,0,0:0:0:0:
64,192,20437,1,8,0:0:0:0:
192,192,20437,1,8,0:0:0:0:
320,192,20624,1,0,0:0:0:0:
448,192,20718,1,0,0:0:0:0:
192,192,20812,1,2,0:0:0:0:
64,192,20812,1,2,0:0:0:0:
192,192,20999,1,0,0:0:0:0:
320,192,21093,1,0,0:0:0:0:
64,192,21187,1,8,0:0:0:0:
448,192,21187,128,4,21562:0:0:0:0:
320,192,21374,1,2,0:0:0:0:
192,192,21468,1,0,0:0:0:0:
64,192,21562,128,4,21937:0:0:0:0:
320,192,21562,1,0,0:0:0:0:
448,192,21749,1,0,0:0:0:0:
192,192,21843,1,0,0:0:0:0:
320,192,21937,1,8,0:0:0:0:
448,192,21937,1,8,0:0:0:0:
64,192,22124,1,0,0:0:0:0:
448,192,22218,1,0,0:0:0:0:
192,192,22312,1,2,0:0:0:0:
320,192,22312,1,2,0:0:0:0:
64,192,22499,1,0,0:0:0:0:
192,192,22593,1,0,0:0:0:0:
320,192,22687,1,8,0:0:0:0:
448,192,22687,1,8,0:0:0:0:
192,192,22874,1,0,0:0:0:0:
320,192,22968,1,0,0:0:0:0:
448,192,23062,1,2,0:0:0:0:
64,192,23062,1,2,0:0:0:0:
320,192,23249,1,0,0:0:0:0:
192,192,23343,1,0,0:0:0:0:
320,192,23437,1,8,0:0:0:0:
448,192,23437,1,8,0:0:0:0:
448,192,23624,1,0,0:0:0:0:
320,192,23718,1,0,0:0:0:0:
192,192,23812,1,2,0:0:0:0:
64,192,23812,1,2,0:0:0:0:
448,192,23999,1,0,0:0:0:0:
64,192,24093,1,0,0:0:0:0:
192,192,24187,128,4,24562:0:0:0:0:
320,192,24187,1,8,0:0:0:0:
64,192,24374,1,0,0:0:0:0:
448,192,24468,1,0,0:0:0:0:
64,192,24562,128,4,24937:0:0:0:0:
320,192,24562,1,0,0:0:0:0:
448,192,24749,1,0,0:0:0:0:
320,192,24843,1,0,0:0:0:0:
192,192,24937,1,8,0:0:0:0:
448,192,24937,1,8,0:0:0:0:
64,192,25124,1,0,0:0:0:0:
192,192,25218,1,0,0:0:0:0:
448,192,25312,1,2,0:0:0:0:
320,192,25312,1,2,0:0:0:0:
448,192,25499,1,0,0:0:0:0:
320,192,25593,1,0,0:0:0:0:
192,192,25687,1,8,0:0:0:0:
64,192,25687,1,8,0:0:0:0:
320,192,25874,1,0,0:0:0:0:
64,192,25968,1,0,0:0:0:0:
448,192,26062,1,2,0:0:0:0:
320,192,26062,1,2,0:0:0:0:
192,192,26062,1,4,0:0:0:0:
64,192,26249,1,0,0:0:0:0:
192,192,26343,1,0,0:0:0:0:
320,192,26437,1,8,0:0:0:0:
448,192,26437,1,8,0:0:0:0:
448,192,26624,1,0,0:0:0:0:
320,192,26718,1,0,0:0:0:0:
192,192,26812,1,2,0:0:0:0:
64,192,26812,1,2,0:0:0:0:
192,192,26999,1,0,0:0:0:0:
320,192,27093,1,0,0:0:0:0:
448,192,27187,1,8,0:0:0:0:
64,192,27187,1,8,0:0:0:0:
320,192,27374,1,0,0:0:0:0:
192,192,27468,1,0,0:0:0:0:
320,192,27562,1,2,0:0:0:0:
448,192,27562,1,2,0:0:0:0:
64,192,27562,1,4,0:0:0:0:
448,192,27749,1,0,0:0:0:0:
192,192,27843,1,0,0:0:0:0:
320,192,27937,1,8,0:0:0:0:
64,192,27937,1,8,0:0:0:0:
192,192,28124,1,0,0:0:0:0:
448,192,28218,1,0,0:0:0:0:
64,192,28312,1,4,0:0:0:0:
320,192,28312,1,2,0:0:0:0:
192,192,28312,1,2,0:0:0:0:
448,192,28499,1,0,0:0:0:0:
320,192,28593,1,0,0:0:0:0:
192,192,28687,1,8,0:0:0:0:
64,192,28687,1,8,0:0:0:0:
448,192,28874,1,0,0:0:0:0:
192,192,28968,1,0,0:0:0:0:
320,192,29062,1,2,0:0:0:0:
448,192,29062,1,2,0:0:0:0:
64,192,29062,128,4,29812:0:0:0:0:
320,192,29249,1,0,0:0:0:0:
192,192,29343,1,0,0:0:0:0:
320,192,29437,1,8,0:0:0:0:
448,192,29437,1,4,0:0:0:0:
192,192,29624,1,0,0:0:0:0:
448,192,29718,1,0,0:0:0:0:
320,192,29812,128,0,30562:0:0:0:0:
192,192,29812,1,0,0:0:0:0:
448,192,29999,1,0,0:0:0:0:
192,192,30093,1,0,0:0:0:0:
64,192,30187,128,8,30562:0:0:0:0:
448,192,30187,1,8,0:0:0:0:
448,192,30562,128,2,31312:0:0:0:0:
192,192,30562,1,4,0:0:0:0:
192,192,30749,1,0,0:0:0:0:
320,192,30749,1,0,0:0:0:0:
320,192,30937,1,8,0:0:0:0:
64,192,31124,1,0,0:0:0:0:
192,192,31124,1,0,0:0:0:0:
64,192,31312,128,0,32062:0:0:0:0:
320,192,31312,1,0,0:0:0:0:
448,192,31499,1,0,0:0:0:0:
192,192,31499,1,0,0:0:0:0:
448,192,31687,1,8,0:0:0:0:
320,192,31874,1,0,0:0:0:0:
192,192,31874,1,0,0:0:0:0:
448,192,32062,128,0,32812:0:0:0:0:
192,192,32062,1,0,0:0:0:0:
320,192,32249,1,0,0:0:0:0:
64,192,32249,1,0,0:0:0:0:
64,192,32437,1,8,0:0:0:0:
192,192,32624,1,0,0:0:0:0:
320,192,32624,1,0,0:0:0:0:
192,192,32812,128,0,33187:0:0:0:0:
64,192,32812,1,4,0:0:0:0:
320,192,32999,1,0,0:0:0:0:
448,192,32999,1,0,0:0:0:0:
448,192,33187,128,2,33562:0:0:0:0:
64,192,33187,128,8,33562:0:0:0:0:
320,192,33562,128,2,34312:0:0:0:0:
192,192,33562,1,4,0:0:0:0:
448,192,33749,1,0,0:0:0:0:
64,192,33749,1,0,0:0:0:0:
192,192,33937,1,8,0:0:0:0:
192,192,34124,1,0,0:0:0:0:
64,192,34124,1,0,0:0:0:0:
64,192,34312,128,0,35062:0:0:0:0:
448,192,34312,1,0,0:0:0:0:
192,192,34499,1,0,0:0:0:0:
320,192,34499,1,0,0:0:0:0:
320,192,34687,1,8,0:0:0:0:
192,192,34874,1,0,0:0:0:0:
448,192,34874,1,0,0:0:0:0:
448,192,35062,128,0,35437:0:0:0:0:
320,192,35062,1,0,0:0:0:0:
192,192,35249,1,0,0:0:0:0:
64,192,35249,1,0,0:0:0:0:
320,192,35437,128,8,35812:0:0:0:0:
64,192,35437,1,0,0:0:0:0:
192,192,35624,1,0,0:0:0:0:
448,192,35624,1,0,0:0:0:0:
64,192,35812,128,4,36187:0:0:0:40:soft-hitfinish.wav
448,192,35812,1,2,0:0:0:0:
192,192,35999,1,0,0:0:0:0:
448,192,36187,128,4,36562:0:0:0:40:soft-hitfinish.wav
320,192,36187,1,8,0:0:0:0:
320,192,36374,128,0,36562:0:0:0:0:
192,192,36562,128,4,37312:0:0:0:40:soft-hitfinish.wav
64,192,36562,1,0,0:0:0:0:
320,192,36749,1,0,0:0:0:0:
448,192,36749,1,0,0:0:0:0:
448,192,36937,1,8,0:0:0:0:
320,192,37124,1,0,0:0:0:0:
64,192,37124,1,0,0:0:0:0:
64,192,37312,128,0,37687:0:0:0:0:
448,192,37312,1,2,0:0:0:0:
448,192,37499,1,0,0:0:0:0:
320,192,37499,1,0,0:0:0:0:
320,192,37687,128,0,38062:0:0:0:0:
192,192,37687,1,8,0:0:0:0:
448,192,37874,1,0,0:0:0:0:
64,192,37874,1,0,0:0:0:0:
192,192,38062,128,0,38437:0:0:0:0:
64,192,38062,1,0,0:0:0:0:
320,192,38249,1,0,0:0:0:0:
448,192,38249,1,0,0:0:0:0:
448,192,38437,128,0,38812:0:0:0:0:
64,192,38437,1,8,0:0:0:0:
64,192,38624,1,0,0:0:0:0:
320,192,38624,1,0,0:0:0:0:
320,192,38812,128,4,39187:0:0:0:0:
192,192,38812,128,2,39187:0:0:0:0:
64,192,39187,128,8,39562:0:0:0:0:
448,192,39187,128,4,39562:0:0:0:0:
320,192,39562,128,2,40312:0:0:0:0:
192,192,39562,1,4,0:0:0:0:
448,192,39749,1,0,0:0:0:0:
64,192,39749,1,0,0:0:0:0:
64,192,39937,1,8,0:0:0:0:
448,192,40124,1,0,0:0:0:0:
192,192,40124,1,0,0:0:0:0:
64,192,40312,128,0,41062:0:0:0:0:
448,192,40312,1,0,0:0:0:0:
192,192,40499,1,0,0:0:0:0:
320,192,40499,1,0,0:0:0:0:
448,192,40687,1,0,0:0:0:0:
320,192,40687,1,8,0:0:0:0:
448,192,40874,1,0,0:0:0:0:
320,192,40968,1,0,0:0:0:0:
448,192,41062,128,4,41812:0:0:0:40:soft-hitfinish.wav
192,192,41062,1,2,0:0:0:0:
64,192,41249,1,0,0:0:0:0:
320,192,41343,1,0,0:0:0:0:
192,192,41437,1,8,0:0:0:0:
64,192,41437,1,4,0:0:0:40:soft-hitfinish.wav
320,192,41624,1,0,0:0:0:0:
64,192,41812,128,4,42562:0:0:0:40:soft-hitfinish.wav
192,192,41812,1,8,0:0:0:0:
320,192,41812,1,0,0:0:0:0:
192,192,41999,1,0,0:0:0:0:
448,192,42093,1,0,0:0:0:0:
320,192,42187,1,8,0:0:0:0:
192,192,42187,1,4,0:0:0:40:soft-hitfinish.wav
448,192,42280,1,0,0:0:0:0:
320,192,42374,1,0,0:0:0:0:
192,192,42468,1,0,0:0:0:0:
448,192,42562,1,2,0:0:0:0:
320,192,42562,1,4,0:0:0:0:
64,192,42749,1,0,0:0:0:0:
192,192,42843,1,0,0:0:0:0:
320,192,42937,128,4,43030:0:0:0:0:
448,192,42937,128,8,43030:0:0:0:0:
448,192,43124,1,0,0:0:0:0:
64,192,43218,1,0,0:0:0:0:
320,192,43312,128,0,43405:0:0:0:0:
448,192,43312,128,8,43405:0:0:0:0:
192,192,43499,1,0,0:0:0:0:
448,192,43593,1,0,0:0:0:0:
64,192,43687,128,4,44062:0:0:0:0:
192,192,43687,128,8,44062:0:0:0:0:
448,192,43874,1,0,0:0:0:0:
320,192,43968,1,0,0:0:0:0:
448,192,44062,1,4,0:0:0:0:
448,192,44249,1,0,0:0:0:0:
192,192,44343,1,0,0:0:0:0:
64,192,44437,128,8,44530:0:0:0:0:
320,192,44437,128,0,44530:0:0:0:0:
448,192,44624,1,0,0:0:0:0:
64,192,44718,1,0,0:0:0:0:
448,192,44812,1,8,0:0:0:0:
320,192,44812,128,0,45562:0:0:0:0:
192,192,44812,1,0,0:0:0:0:
64,192,44905,1,8,0:0:0:0:
192,192,44999,1,8,0:0:0:0:
448,192,45093,1,8,0:0:0:0:
64,192,45187,128,4,45562:0:0:0:0:
192,192,45187,128,8,45562:0:0:0:0:
448,192,45562,128,4,46312:0:0:0:0:
64,192,45937,128,0,46030:0:0:0:0:
320,192,45937,1,8,0:0:0:0:
320,192,46312,128,2,47062:0:0:0:0:
192,192,46312,1,0,0:0:0:0:
448,192,46687,128,0,46780:0:0:0:0:
64,192,46687,1,8,0:0:0:0:
64,192,46874,1,0,0:0:0:0:
192,192,47062,128,2,47624:0:0:0:0:
448,192,47062,1,0,0:0:0:0:
64,192,47249,1,0,0:0:0:0:
448,192,47437,128,8,47530:0:0:0:0:
320,192,47437,1,0,0:0:0:0:
64,192,47624,1,0,0:0:0:0:
192,192,47812,128,8,48562:0:0:0:0:
448,192,47812,1,4,0:0:0:0:
448,192,48187,128,8,48562:0:0:0:0:
320,192,48562,128,4,49312:0:0:0:0:
64,192,48562,128,8,49312:0:0:0:0:
192,192,48937,128,4,49030:0:0:0:0:
448,192,48937,128,8,49030:0:0:0:0:
448,192,49312,128,8,50062:0:0:0:0:
192,192,49312,128,4,50062:0:0:0:0:
64,192,49687,128,0,49780:0:0:0:0:
320,192,49687,128,8,49780:0:0:0:0:
64,192,50062,128,8,50812:0:0:0:0:
320,192,50062,128,4,50812:0:0:0:0:
448,192,50437,1,8,0:0:0:0:
448,192,50812,128,4,51093:0:0:0:0:
64,192,50999,1,0,0:0:0:0:
192,192,51093,1,0,0:0:0:0:
320,192,51187,1,0,0:0:0:0:
64,192,51280,1,0,0:0:0:0:
448,192,51374,1,0,0:0:0:0:
192,192,51468,1,0,0:0:0:0:
64,192,51562,1,4,0:0:0:0:
448,192,51562,1,2,0:0:0:0:
320,192,51562,1,2,0:0:0:0:
448,192,51937,1,0,0:0:0:0:
192,192,52124,1,0,0:0:0:0:
64,192,52312,1,0,0:0:0:0:
320,192,52312,1,8,0:0:0:0:
448,192,52312,1,8,0:0:0:0:
192,192,52687,1,0,0:0:0:0:
448,192,52874,1,0,0:0:0:0:
64,192,52874,1,0,0:0:0:0:
320,192,53062,1,2,0:0:0:0:
448,192,53062,1,2,0:0:0:0:
320,192,53249,1,8,0:0:0:0:
64,192,53249,1,0,0:0:0:0:
448,192,53437,1,0,0:0:0:0:
64,192,53624,1,2,0:0:0:0:
192,192,53624,1,2,0:0:0:0:
448,192,53812,1,8,0:0:0:0:
320,192,53812,1,8,0:0:0:0:
64,192,53812,1,0,0:0:0:0:
192,192,54187,1,0,0:0:0:0:
64,192,54374,1,8,0:0:0:0:
448,192,54374,1,0,0:0:0:0:
320,192,54468,1,8,0:0:0:0:
448,192,54562,1,2,0:0:0:0:
64,192,54562,1,4,0:0:0:0:
192,192,54562,1,2,0:0:0:0:
192,192,54937,1,0,0:0:0:0:
448,192,55124,1,2,0:0:0:0:
64,192,55124,1,2,0:0:0:0:
192,192,55312,1,0,0:0:0:0:
320,192,55312,1,4,0:0:0:0:
448,192,55312,1,8,0:0:0:0:
64,192,55687,1,0,0:0:0:0:
320,192,55874,1,8,0:0:0:0:
192,192,55968,1,8,0:0:0:0:
320,192,56062,1,2,0:0:0:0:
448,192,56062,1,2,0:0:0:0:
64,192,56249,1,8,0:0:0:0:
192,192,56249,1,8,0:0:0:0:
320,192,56437,1,0,0:0:0:0:
64,192,56624,1,2,0:0:0:0:
192,192,56624,1,2,0:0:0:0:
320,192,56718,1,2,0:0:0:0:
64,192,56812,1,0,0:0:0:0:
192,192,56812,1,8,0:0:0:0:
448,192,56812,1,8,0:0:0:0:
320,192,56999,1,2,0:0:0:0:
192,192,56999,1,2,0:0:0:0:
64,192,57187,1,0,0:0:0:0:
448,192,57187,1,8,0:0:0:0:
320,192,57187,1,8,0:0:0:0:
320,192,57374,128,0,57562:0:0:0:0:
64,192,57562,128,4,58124:0:0:0:0:
192,192,57562,1,2,0:0:0:0:
448,192,57562,1,0,0:0:0:0:
320,192,57749,1,0,0:0:0:0:
448,192,57937,1,0,0:0:0:0:
320,192,58124,128,0,58312:0:0:0:0:
192,192,58312,128,0,58874:0:0:0:0:
448,192,58312,1,0,0:0:0:0:
64,192,58499,1,0,0:0:0:0:
448,192,58687,1,0,0:0:0:0:
64,192,58874,128,0,59062:0:0:0:0:
448,192,59062,128,0,59624:0:0:0:0:
320,192,59062,1,0,0:0:0:0:
192,192,59249,1,0,0:0:0:0:
64,192,59437,1,0,0:0:0:0:
192,192,59624,128,0,59812:0:0:0:0:
64,192,59812,128,0,60374:0:0:0:0:
448,192,59812,1,0,0:0:0:0:
320,192,59999,1,2,0:0:0:0:
192,192,60093,1,2,0:0:0:0:
320,192,60187,1,8,0:0:0:0:
448,192,60187,1,8,0:0:0:0:
448,192,60374,1,2,0:0:0:0:
192,192,60374,1,2,0:0:0:0:
64,192,60562,1,4,0:0:0:0:
448,192,60562,1,8,0:0:0:0:
320,192,60562,1,0,0:0:0:0:
320,192,60749,1,2,0:0:0:0:
192,192,60749,1,0,0:0:0:0:
448,192,60843,1,2,0:0:0:0:
64,192,60937,1,8,0:0:0:0:
192,192,60937,1,8,0:0:0:0:
448,192,61124,1,2,0:0:0:0:
320,192,61124,1,0,0:0:0:0:
192,192,61218,1,0,0:0:0:0:
320,192,61312,1,8,0:0:0:0:
448,192,61312,1,4,0:0:0:0:
64,192,61312,1,0,0:0:0:0:
192,192,61499,1,2,0:0:0:0:
320,192,61499,1,0,0:0:0:0:
448,192,61687,1,8,0:0:0:0:
64,192,61687,1,8,0:0:0:0:
192,192,61874,1,2,0:0:0:0:
320,192,61874,1,0,0:0:0:0:
448,192,61968,1,2,0:0:0:0:
64,192,62062,1,4,0:0:0:0:
192,192,62062,1,8,0:0:0:0:
320,192,62062,1,0,0:0:0:0:
448,192,62249,1,0,0:0:0:0:
64,192,62249,1,2,0:0:0:0:
192,192,62343,1,2,0:0:0:0:
320,192,62437,1,8,0:0:0:0:
448,192,62437,1,8,0:0:0:0:
64,192,62437,1,4,0:0:0:0:
320,192,62624,1,2,0:0:0:0:
192,192,62624,1,0,0:0:0:0:
64,192,62812,1,8,0:0:0:0:
320,192,62812,1,8,0:0:0:0:
192,192,62812,1,4,0:0:0:0:
448,192,62905,1,2,0:0:0:0:
192,192,62999,1,2,0:0:0:0:
320,192,62999,1,0,0:0:0:0:
64,192,63093,1,2,0:0:0:0:
448,192,63187,1,8,0:0:0:0:
320,192,63187,1,8,0:0:0:0:
64,192,63280,1,0,0:0:0:0:
192,192,63280,1,2,0:0:0:0:
320,192,63374,1,2,0:0:0:0:
448,192,63374,1,0,0:0:0:0:
192,192,63468,1,2,0:0:0:0:
320,192,63562,1,2,0:0:0:0:
448,192,63562,1,2,0:0:0:0:
64,192,63562,1,4,0:0:0:0:
64,192,63749,1,8,0:0:0:0:
192,192,63749,1,8,0:0:0:0:
448,192,63937,1,2,0:0:0:0:
64,192,63937,1,2,0:0:0:0:
192,192,64030,1,2,0:0:0:0:
320,192,64030,1,2,0:0:0:0:
448,192,64124,1,8,0:0:0:0:
64,192,64124,1,8,0:0:0:0:
192,192,64312,1,2,0:0:0:0:
448,192,64312,1,2,0:0:0:0:
320,192,64312,1,0,0:0:0:0:
64,192,64499,1,8,0:0:0:0:
320,192,64499,1,8,0:0:0:0:
448,192,64687,1,2,0:0:0:0:
192,192,64687,1,2,0:0:0:0:
64,192,64780,1,2,0:0:0:0:
320,192,64780,1,2,0:0:0:0:
192,192,64874,1,8,0:0:0:0:
448,192,64874,1,8,0:0:0:0:
320,192,65062,1,2,0:0:0:0:
448,192,65062,1,2,0:0:0:0:
64,192,65062,1,0,0:0:0:0:
192,192,65249,1,8,0:0:0:0:
64,192,65249,1,8,0:0:0:0:
320,192,65437,1,2,0:0:0:0:
448,192,65437,1,2,0:0:0:0:
192,192,65530,1,2,0:0:0:0:
64,192,65530,1,2,0:0:0:0:
320,192,65624,1,8,0:0:0:0:
448,192,65624,1,8,0:0:0:0:
64,192,65812,1,2,0:0:0:0:
320,192,65812,1,2,0:0:0:0:
192,192,65812,1,4,0:0:0:0:
192,192,65999,1,8,0:0:0:0:
448,192,65999,1,8,0:0:0:0:
64,192,66187,1,2,0:0:0:0:
192,192,66187,1,4,0:0:0:0:
320,192,66280,1,2,0:0:0:0:
448,192,66280,1,2,0:0:0:0:
64,192,66374,1,8,0:0:0:0:
192,192,66374,1,8,0:0:0:0:
320,192,66562,1,2,0:0:0:0:
64,192,66562,1,2,0:0:0:0:
448,192,66562,1,4,0:0:0:0:
320,192,66749,1,8,0:0:0:0:
192,192,66749,1,8,0:0:0:0:
448,192,66937,1,2,0:0:0:0:
320,192,66937,1,2,0:0:0:0:
64,192,67030,1,2,0:0:0:0:
192,192,67030,1,2,0:0:0:0:
320,192,67124,1,8,0:0:0:0:
448,192,67124,1,8,0:0:0:0:
64,192,67312,1,2,0:0:0:0:
192,192,67312,1,2,0:0:0:0:
448,192,67312,1,0,0:0:0:0:
192,192,67499,1,8,0:0:0:0:
320,192,67499,1,8,0:0:0:0:
64,192,67687,1,2,0:0:0:0:
448,192,67687,1,2,0:0:0:0:
192,192,67780,1,2,0:0:0:0:
320,192,67780,1,2,0:0:0:0:
448,192,67874,1,8,0:0:0:0:
64,192,67874,1,8,0:0:0:0:
192,192,68062,1,2,0:0:0:0:
320,192,68062,1,2,0:0:0:0:
448,192,68062,1,0,0:0:0:0:
64,192,68249,1,8,0:0:0:0:
320,192,68249,1,8,0:0:0:0:
448,192,68437,1,2,0:0:0:0:
192,192,68437,1,2,0:0:0:0:
64,192,68530,1,2,0:0:0:0:
320,192,68530,1,2,0:0:0:0:
192,192,68624,1,8,0:0:0:0:
448,192,68624,1,8,0:0:0:0:
320,192,68812,1,8,0:0:0:0:
64,192,68812,1,4,0:0:0:0:
192,192,68812,1,0,0:0:0:0:
448,192,68999,1,8,0:0:0:0:
64,192,69093,1,8,0:0:0:0:
192,192,69187,1,8,0:0:0:0:
320,192,69187,1,4,0:0:0:0:
448,192,69187,1,0,0:0:0:0:
64,192,69280,1,8,0:0:0:0:
448,192,69374,1,8,0:0:0:0:
192,192,69468,1,8,0:0:0:0:
320,192,69562,1,2,0:0:0:0:
448,192,69562,1,2,0:0:0:0:
64,192,69562,1,0,0:0:0:0:
192,192,69749,1,8,0:0:0:0:
320,192,69749,1,8,0:0:0:0:
64,192,69937,1,2,0:0:0:0:
192,192,69937,1,2,0:0:0:0:
448,192,70030,1,2,0:0:0:0:
320,192,70030,1,2,0:0:0:0:
64,192,70124,1,8,0:0:0:0:
192,192,70124,1,8,0:0:0:0:
320,192,70312,1,2,0:0:0:0:
192,192,70312,1,2,0:0:0:0:
64,192,70312,1,0,0:0:0:0:
320,192,70499,1,8,0:0:0:0:
448,192,70499,1,8,0:0:0:0:
448,192,70687,1,2,0:0:0:0:
64,192,70687,1,2,0:0:0:0:
192,192,70780,1,2,0:0:0:0:
320,192,70780,1,2,0:0:0:0:
448,192,70874,1,8,0:0:0:0:
64,192,70874,1,8,0:0:0:0:
448,192,71062,1,2,0:0:0:0:
192,192,71062,1,2,0:0:0:0:
320,192,71062,1,0,0:0:0:0:
64,192,71249,1,8,0:0:0:0:
320,192,71249,1,8,0:0:0:0:
448,192,71437,1,2,0:0:0:0:
320,192,71437,1,2,0:0:0:0:
64,192,71530,1,2,0:0:0:0:
192,192,71530,1,2,0:0:0:0:
320,192,71624,1,8,0:0:0:0:
448,192,71624,1,8,0:0:0:0:
192,192,71812,1,2,0:0:0:0:
64,192,71812,1,2,0:0:0:0:
448,192,71812,1,4,0:0:0:0:
64,192,71999,1,8,0:0:0:0:
448,192,71999,1,8,0:0:0:0:
192,192,72093,1,0,0:0:0:0:
448,192,72187,1,2,0:0:0:0:
320,192,72187,1,2,0:0:0:0:
64,192,72280,1,2,0:0:0:0:
192,192,72280,1,2,0:0:0:0:
320,192,72374,1,2,0:0:0:0:
448,192,72374,1,2,0:0:0:0:
64,192,72468,1,2,0:0:0:0:
192,192,72468,1,2,0:0:0:0:
320,192,72562,1,2,0:0:0:0:
448,192,72562,128,0,73124:0:0:0:0:
64,192,73124,128,0,73312:0:0:0:0:
192,192,73312,128,0,73499:0:0:0:0:
448,192,73499,128,0,73687:0:0:0:0:
320,192,73499,1,0,0:0:0:0:
64,192,73593,1,0,0:0:0:0:
320,192,73687,128,0,73874:0:0:0:0:
192,192,73687,1,0,0:0:0:0:
448,192,73780,1,0,0:0:0:0:
64,192,73874,128,0,74062:0:0:0:0:
192,192,73874,1,0,0:0:0:0:
320,192,74062,1,2,0:0:0:0:
448,192,74062,1,0,0:0:0:0:
192,192,74249,1,8,0:0:0:0:
64,192,74249,1,8,0:0:0:0:
448,192,74249,1,0,0:0:0:0:
320,192,74437,1,2,0:0:0:0:
192,192,74530,1,2,0:0:0:0:
64,192,74624,1,8,0:0:0:0:
320,192,74624,1,8,0:0:0:0:
448,192,74624,1,0,0:0:0:0:
192,192,74812,1,2,0:0:0:0:
320,192,74812,1,0,0:0:0:0:
448,192,74999,1,0,0:0:0:0:
64,192,74999,1,8,0:0:0:0:
192,192,74999,1,0,0:0:0:0:
192,192,75187,1,2,0:0:0:0:
448,192,75280,1,2,0:0:0:0:
64,192,75374,1,8,0:0:0:0:
192,192,75374,1,8,0:0:0:0:
320,192,75374,1,0,0:0:0:0:
64,192,75562,1,2,0:0:0:0:
448,192,75562,1,0,0:0:0:0:
320,192,75749,1,8,0:0:0:0:
192,192,75749,1,8,0:0:0:0:
448,192,75749,1,0,0:0:0:0:
64,192,75937,1,2,0:0:0:0:
320,192,76030,1,2,0:0:0:0:
64,192,76124,1,8,0:0:0:0:
192,192,76124,1,8,0:0:0:0:
448,192,76124,1,0,0:0:0:0:
320,192,76312,1,2,0:0:0:0:
192,192,76312,1,0,0:0:0:0:
64,192,76499,1,8,0:0:0:0:
448,192,76499,1,8,0:0:0:0:
320,192,76499,1,0,0:0:0:0:
320,192,76687,1,2,0:0:0:0:
64,192,76780,1,2,0:0:0:0:
192,192,76874,1,8,0:0:0:0:
320,192,76874,1,8,0:0:0:0:
448,192,76874,1,0,0:0:0:0:
64,192,77062,1,2,0:0:0:0:
448,192,77062,1,2,0:0:0:0:
192,192,77249,1,8,0:0:0:0:
320,192,77249,1,8,0:0:0:0:
64,192,77249,1,0,0:0:0:0:
448,192,77437,1,2,0:0:0:0:
192,192,77530,1,2,0:0:0:0:
448,192,77624,1,8,0:0:0:0:
64,192,77624,1,8,0:0:0:0:
320,192,77624,1,0,0:0:0:0:
64,192,77812,1,2,0:0:0:0:
192,192,77812,1,2,0:0:0:0:
192,192,77999,1,8,0:0:0:0:
448,192,77999,1,8,0:0:0:0:
320,192,77999,1,0,0:0:0:0:
64,192,78187,1,2,0:0:0:0:
448,192,78187,1,2,0:0:0:0:
320,192,78280,1,2,0:0:0:0:
192,192,78280,1,2,0:0:0:0:
64,192,78374,1,8,0:0:0:0:
448,192,78374,128,8,80062:0:0:0:0:
192,192,78468,1,8,0:0:0:0:
320,192,78562,1,8,0:0:0:0:
64,192,78655,1,8,0:0:0:0:
192,192,78749,1,8,0:0:0:0:
320,192,78937,1,8,0:0:0:0:
64,192,79030,1,8,0:0:0:0:
192,192,79124,1,8,0:0:0:0:
192,192,79312,1,8,0:0:0:0:
320,192,79312,1,0,0:0:0:0:
64,192,79499,1,8,0:0:0:0:
320,192,79593,1,8,0:0:0:0:
192,192,79687,1,8,0:0:0:0:
64,192,79780,1,8,0:0:0:0:
320,192,79874,1,8,0:0:0:0:
64,192,79968,1,8,0:0:0:0:
192,192,80062,1,2,0:0:0:0:
320,192,80062,1,2,0:0:0:0:
448,192,80155,1,2,0:0:0:0:
64,192,80249,1,0,0:0:0:0:
192,192,80249,1,0,0:0:0:0:
320,192,80249,1,2,0:0:0:0:
448,192,80343,1,2,0:0:0:0:
64,192,80437,1,8,0:0:0:0:
192,192,80437,1,8,0:0:0:0:
320,192,80530,1,2,0:0:0:0:
64,192,80624,1,2,0:0:0:0:
448,192,80624,1,0,0:0:0:0:
192,192,80624,1,0,0:0:0:0:
320,192,80718,1,2,0:0:0:0:
448,192,80812,1,2,0:0:0:0:
192,192,80812,1,2,0:0:0:0:
64,192,80905,1,2,0:0:0:0:
192,192,80999,1,2,0:0:0:0:
320,192,80999,1,0,0:0:0:0:
448,192,80999,1,0,0:0:0:0:
64,192,81093,1,2,0:0:0:0:
320,192,81187,1,8,0:0:0:0:
448,192,81187,1,8,0:0:0:0:
192,192,81280,1,2,0:0:0:0:
64,192,81374,1,0,0:0:0:0:
448,192,81374,1,0,0:0:0:0:
320,192,81374,1,2,0:0:0:0:
192,192,81468,1,2,0:0:0:0:
448,192,81562,1,2,0:0:0:0:
64,192,81562,1,2,0:0:0:0:
320,192,81655,1,2,0:0:0:0:
448,192,81749,1,2,0:0:0:0:
192,192,81749,1,0,0:0:0:0:
64,192,81749,1,0,0:0:0:0:
320,192,81843,1,2,0:0:0:0:
64,192,81937,1,8,0:0:0:0:
448,192,81937,1,8,0:0:0:0:
192,192,82030,1,2,0:0:0:0:
320,192,82124,1,0,0:0:0:0:
64,192,82124,1,2,0:0:0:0:
448,192,82124,1,0,0:0:0:0:
192,192,82218,1,2,0:0:0:0:
320,192,82312,1,2,0:0:0:0:
448,192,82312,1,2,0:0:0:0:
64,192,82405,1,0,0:0:0:0:
448,192,82499,1,2,0:0:0:0:
192,192,82499,1,0,0:0:0:0:
320,192,82499,1,2,0:0:0:0:
64,192,82593,1,2,0:0:0:0:
192,192,82687,1,8,0:0:0:0:
448,192,82687,1,8,0:0:0:0:
320,192,82780,1,2,0:0:0:0:
448,192,82874,1,2,0:0:0:0:
64,192,82874,1,0,0:0:0:0:
192,192,82874,1,0,0:0:0:0:
320,192,82968,1,2,0:0:0:0:
64,192,83062,1,2,0:0:0:0:
192,192,83062,1,2,0:0:0:0:
448,192,83155,1,2,0:0:0:0:
192,192,83249,1,2,0:0:0:0:
320,192,83249,1,0,0:0:0:0:
64,192,83249,1,0,0:0:0:0:
448,192,83343,1,2,0:0:0:0:
320,192,83437,1,8,0:0:0:0:
64,192,83437,1,8,0:0:0:0:
192,192,83530,1,2,0:0:0:0:
64,192,83624,1,2,0:0:0:0:
448,192,83624,1,0,0:0:0:0:
320,192,83624,1,0,0:0:0:0:
192,192,83718,1,2,0:0:0:0:
64,192,83812,1,2,0:0:0:0:
448,192,83812,1,2,0:0:0:0:
320,192,83905,1,2,0:0:0:0:
192,192,83999,1,0,0:0:0:0:
64,192,83999,1,0,0:0:0:0:
448,192,83999,1,2,0:0:0:0:
320,192,84093,1,2,0:0:0:0:
64,192,84187,1,8,0:0:0:0:
448,192,84187,1,8,0:0:0:0:
192,192,84280,1,2,0:0:0:0:
64,192,84374,1,0,0:0:0:0:
320,192,84374,1,2,0:0:0:0:
448,192,84374,1,0,0:0:0:0:
192,192,84468,1,2,0:0:0:0:
448,192,84562,1,0,0:0:0:0:
64,192,84562,1,8,0:0:0:0:
320,192,84655,1,8,0:0:0:0:
192,192,84749,1,0,0:0:0:0:
448,192,84749,1,0,0:0:0:0:
64,192,84749,1,8,0:0:0:0:
320,192,84843,1,8,0:0:0:0:
192,192,84937,1,8,0:0:0:0:
64,192,84937,1,0,0:0:0:0:
448,192,85030,1,8,0:0:0:0:
320,192,85124,1,8,0:0:0:0:
64,192,85124,1,0,0:0:0:0:
192,192,85124,1,0,0:0:0:0:
448,192,85218,1,8,0:0:0:0:
64,192,85312,1,0,0:0:0:0:
320,192,85312,1,8,0:0:0:0:
192,192,85405,1,8,0:0:0:0:
64,192,85499,1,8,0:0:0:0:
320,192,85499,1,0,0:0:0:0:
448,192,85499,1,0,0:0:0:0:
192,192,85593,1,8,0:0:0:0:
64,192,85687,1,8,0:0:0:0:
448,192,85687,1,0,0:0:0:0:
320,192,85780,1,8,0:0:0:0:
448,192,85874,1,8,0:0:0:0:
64,192,85874,1,0,0:0:0:0:
192,192,85874,1,0,0:0:0:0:
320,192,85968,1,8,0:0:0:0:
64,192,86062,128,0,86812:0:0:0:0:
192,192,86062,128,8,86812:0:0:0:0:
448,192,86062,128,0,86812:0:0:0:0:
