osu file format v14

[General]
AudioFilename: audio.mp3
AudioLeadIn: 0
PreviewTime: 33767
Countdown: 0
SampleSet: Normal
StackLeniency: 0.7
Mode: 1
LetterboxInBreaks: 0
EpilepsyWarning: 1
WidescreenStoryboard: 1

[Editor]
DistanceSpacing: 0.9
BeatDivisor: 4
GridSize: 32
TimelineZoom: 2.799999

[Metadata]
Title:Moshi Kono Kabe no Naka ga Ikken no Ie dato Shitara
TitleUnicode:もしこの壁の中が一軒の家だとしたら
Artist:Linked Horizon
ArtistUnicode:Linked Horizon
Creator:-Aerith-
Version:Sur's Muzukashii
Source:進撃の巨人
Tags:attack on titan 自由への進撃 Jiyuu e no Shingeki 柳麻美 Mami Yanagi Sound Horizon Revo Surono -Kyu Underdogs Hytex
BeatmapID:1077720
BeatmapSetID:486719

[Difficulty]
HPDrainRate:7.5
CircleSize:2
OverallDifficulty:4.5
ApproachRate:10
SliderMultiplier:2.8
SliderTickRate:1

[Events]
//Background and Video events
0,0,"BG.jpg",0,0
//Break Periods
//Storyboard Layer 0 (Background)
//Storyboard Layer 1 (Fail)
//Storyboard Layer 2 (Pass)
//Storyboard Layer 3 (Foreground)
//Storyboard Sound Samples

[TimingPoints]
10353,731.707317073171,4,1,0,90,1,0
33767,-100,4,1,0,90,0,1
44011,-100,4,1,0,90,0,0
45474,-100,4,1,0,90,0,1
60109,-100,4,1,0,45,0,0

[Colours]
Combo1 : 128,128,255
Combo2 : 0,128,192
Combo3 : 0,128,64
Combo4 : 255,255,0
Combo5 : 255,0,0

[HitObjects]
256,192,10353,5,12,0:0:0:0:
256,192,10718,1,0,0:0:0:0:
256,192,10901,1,0,0:0:0:0:
256,192,11084,1,8,0:0:0:0:
256,192,11450,1,0,0:0:0:0:
256,192,11633,1,8,0:0:0:0:
256,192,11999,1,8,0:0:0:0:
256,192,12182,1,0,0:0:0:0:
256,192,12548,1,8,0:0:0:0:
256,192,12731,1,0,0:0:0:0:
256,192,12913,1,8,0:0:0:0:
256,192,13096,1,8,0:0:0:0:
256,192,13279,1,0,0:0:0:0:
256,192,13645,1,0,0:0:0:0:
256,192,14011,1,8,0:0:0:0:
256,192,14194,1,8,0:0:0:0:
256,192,14377,1,0,0:0:0:0:
256,192,14743,1,0,0:0:0:0:
256,192,14834,1,0,0:0:0:0:
256,192,14926,1,0,0:0:0:0:
256,192,15109,1,8,0:0:0:0:
256,192,15474,1,12,0:0:0:0:
256,192,15840,1,0,0:0:0:0:
256,192,16023,1,8,0:0:0:0:
256,192,16206,1,4,0:0:0:0:
256,192,16938,1,8,0:0:0:0:
256,192,17304,1,0,0:0:0:0:
256,192,17487,1,8,0:0:0:0:
256,192,17852,1,0,0:0:0:0:
256,192,18035,1,8,0:0:0:0:
256,192,18401,1,8,0:0:0:0:
256,192,18767,1,8,0:0:0:0:
256,192,18950,1,8,0:0:0:0:
256,192,19133,1,0,0:0:0:0:
256,192,19499,1,0,0:0:0:0:
256,192,19682,1,0,0:0:0:0:
256,192,19865,1,8,0:0:0:0:
256,192,20231,1,8,0:0:0:0:
256,192,20413,1,8,0:0:0:0:
256,192,20596,1,0,0:0:0:0:
256,192,20779,1,8,0:0:0:0:
256,192,20962,1,0,0:0:0:0:
256,192,21328,1,12,0:0:0:0:
256,192,21511,1,0,0:0:0:0:
256,192,21694,1,0,0:0:0:0:
256,192,21877,1,0,0:0:0:0:
256,192,22060,5,12,0:0:0:0:
256,192,22426,1,8,0:0:0:0:
256,192,22609,1,0,0:0:0:0:
256,192,22792,1,8,0:0:0:0:
256,192,23157,1,0,0:0:0:0:
256,192,23340,1,8,0:0:0:0:
256,192,23706,1,8,0:0:0:0:
256,192,23889,1,8,0:0:0:0:
256,192,24255,1,8,0:0:0:0:
256,192,24438,1,0,0:0:0:0:
256,192,24621,1,8,0:0:0:0:
256,192,24804,1,0,0:0:0:0:
256,192,24987,1,0,0:0:0:0:
256,192,25352,1,8,0:0:0:0:
256,192,25718,1,8,0:0:0:0:
256,192,25901,1,8,0:0:0:0:
256,192,26084,1,0,0:0:0:0:
256,192,26450,1,0,0:0:0:0:
256,192,26542,1,0,0:0:0:0:
256,192,26633,1,0,0:0:0:0:
256,192,26816,1,8,0:0:0:0:
256,192,26999,1,0,0:0:0:0:
256,192,27182,1,12,0:0:0:0:
256,192,27548,1,0,0:0:0:0:
256,192,27731,1,8,0:0:0:0:
256,192,27913,1,4,0:0:0:0:
256,192,28645,1,8,0:0:0:0:
256,192,29011,1,0,0:0:0:0:
256,192,29194,1,8,0:0:0:0:
256,192,29560,1,8,0:0:0:0:
256,192,29743,1,0,0:0:0:0:
256,192,29926,1,0,0:0:0:0:
256,192,30109,1,8,0:0:0:0:
256,192,30474,1,8,0:0:0:0:
256,192,30657,1,8,0:0:0:0:
256,192,30840,1,0,0:0:0:0:
256,192,31206,1,0,0:0:0:0:
256,192,31389,1,0,0:0:0:0:
256,192,31572,1,8,0:0:0:0:
256,192,31938,1,0,0:0:0:0:
256,192,32121,1,0,0:0:0:0:
256,192,32304,1,12,0:0:0:0:
256,192,32487,1,8,0:0:0:0:
256,192,32578,1,8,0:0:0:0:
256,192,32670,1,8,0:0:0:0:
256,192,32852,1,8,0:0:0:0:
256,192,33035,1,4,0:0:0:0:
256,192,33767,1,12,0:0:0:0:
256,192,34133,1,8,0:0:0:0:
256,192,34499,1,8,0:0:0:0:
256,192,34682,1,0,0:0:0:0:
256,192,34773,1,0,0:0:0:0:
256,192,34865,1,0,0:0:0:0:
256,192,35048,1,8,0:0:0:0:
256,192,35231,1,0,0:0:0:0:
256,192,35596,1,0,0:0:0:0:
256,192,35962,1,8,0:0:0:0:
256,192,36328,1,8,0:0:0:0:
256,192,36511,1,8,0:0:0:0:
256,192,36694,1,4,0:0:0:0:
256,192,37060,1,0,0:0:0:0:
256,192,37426,1,8,0:0:0:0:
256,192,37609,1,0,0:0:0:0:
256,192,37700,1,0,0:0:0:0:
256,192,37792,1,0,0:0:0:0:
256,192,37974,1,0,0:0:0:0:
256,192,38157,1,8,0:0:0:0:
256,192,38523,1,0,0:0:0:0:
256,192,38889,1,8,0:0:0:0:
256,192,39255,1,8,0:0:0:0:
256,192,39438,1,8,0:0:0:0:
256,192,39621,1,4,0:0:0:0:
256,192,39987,1,0,0:0:0:0:
256,192,40170,1,0,0:0:0:0:
256,192,40352,1,8,0:0:0:0:
256,192,40535,1,8,0:0:0:0:
256,192,40718,5,0,0:0:0:0:
256,192,41084,1,8,0:0:0:0:
256,192,41267,1,8,0:0:0:0:
256,192,41450,1,0,0:0:0:0:
256,192,41633,1,0,0:0:0:0:
256,192,41816,1,8,0:0:0:0:
256,192,42182,1,8,0:0:0:0:
256,192,42365,1,0,0:0:0:0:
256,192,42548,1,12,0:0:0:0:
256,192,42913,1,0,0:0:0:0:
256,192,43279,1,12,0:0:0:0:
256,192,43645,1,0,0:0:0:0:
256,192,43828,1,8,0:0:0:0:
256,192,44011,1,4,0:0:0:0:
256,192,44743,1,12,0:0:0:0:
256,192,44926,1,8,0:0:0:0:
256,192,45017,1,8,0:0:0:0:
256,192,45109,1,8,0:0:0:0:
256,192,45292,1,8,0:0:0:0:
256,192,45474,1,4,0:0:0:0:
256,192,45840,1,8,0:0:0:0:
256,192,46206,1,8,0:0:0:0:
256,192,46389,1,0,0:0:0:0:
256,192,46481,1,0,0:0:0:0:
256,192,46572,1,0,0:0:0:0:
256,192,46755,1,0,0:0:0:0:
256,192,46938,1,8,0:0:0:0:
256,192,47304,1,0,0:0:0:0:
256,192,47670,1,8,0:0:0:0:
256,192,48035,1,8,0:0:0:0:
256,192,48218,1,8,0:0:0:0:
256,192,48401,1,4,0:0:0:0:
256,192,48767,1,0,0:0:0:0:
256,192,49133,1,8,0:0:0:0:
256,192,49316,1,0,0:0:0:0:
256,192,49407,1,0,0:0:0:0:
256,192,49499,1,0,0:0:0:0:
256,192,49682,1,8,0:0:0:0:
256,192,49865,1,4,0:0:0:0:
256,192,50231,1,0,0:0:0:0:
256,192,50596,1,8,0:0:0:0:
256,192,50962,1,8,0:0:0:0:
256,192,51145,1,8,0:0:0:0:
256,192,51328,1,4,0:0:0:0:
256,192,51694,1,8,0:0:0:0:
256,192,52060,1,8,0:0:0:0:
256,192,52426,5,0,0:0:0:0:
256,192,52609,1,8,0:0:0:0:
256,192,52792,1,0,0:0:0:0:
256,192,52974,1,8,0:0:0:0:
256,192,53340,1,0,0:0:0:0:
256,192,53523,1,8,0:0:0:0:
256,192,53889,1,0,0:0:0:0:
256,192,54072,1,0,0:0:0:0:
256,192,54255,1,12,0:0:0:0:
256,192,54621,1,8,0:0:0:0:
256,192,54987,1,8,0:0:0:0:
256,192,55352,1,0,0:0:0:0:
256,192,55535,1,8,0:0:0:0:
256,192,55718,1,0,0:0:0:0:
256,192,55901,1,8,0:0:0:0:
256,192,56267,1,0,0:0:0:0:
256,192,56450,1,8,0:0:0:0:
256,192,56816,1,8,0:0:0:0:
256,192,56999,1,0,0:0:0:0:
256,192,57182,1,12,0:0:0:0:
256,192,57548,1,0,0:0:0:0:
256,192,57913,1,8,0:0:0:0:
256,192,58279,1,0,0:0:0:0:
256,192,58462,1,0,0:0:0:0:
256,192,58645,1,12,0:0:0:0:
256,192,59011,1,0,0:0:0:0:
256,192,59194,1,8,0:0:0:0:
256,192,59377,1,0,0:0:0:0:
256,192,59560,1,0,0:0:0:0:
256,192,59743,1,0,0:0:0:0:
256,192,60109,12,0,63401,0:0:0:0:
