osu file format v14

[General]
AudioFilename: audio.mp3
AudioLeadIn: 0
PreviewTime: 33767
Countdown: 0
SampleSet: Normal
StackLeniency: 0.4
Mode: 0
LetterboxInBreaks: 0
EpilepsyWarning: 1
WidescreenStoryboard: 1

[Editor]
Bookmarks: 7835
DistanceSpacing: 1
BeatDivisor: 8
GridSize: 4
TimelineZoom: 2.1

[Metadata]
Title:Moshi Kono Kabe no Naka ga Ikken no Ie dato Shitara
TitleUnicode:もしこの壁の中が一軒の家だとしたら
Artist:Linked Horizon
ArtistUnicode:Linked Horizon
Creator:-Aerith-
Version:Hytex's Insane
Source:進撃の巨人
Tags:attack on titan 自由への進撃 Jiyuu e no Shingeki 柳麻美 Mami Yanagi Sound Horizon Revo Surono -Kyu Underdogs Hytex
BeatmapID:1433311
BeatmapSetID:486719

[Difficulty]
HPDrainRate:6
CircleSize:4.2
OverallDifficulty:7
ApproachRate:9
SliderMultiplier:2.39999990463257
SliderTickRate:1

[Events]
//Background and Video events
0,0,"BG.jpg",0,0
//Break Periods
//Storyboard Layer 0 (Background)
//Storyboard Layer 1 (Fail)
//Storyboard Layer 2 (Pass)
//Storyboard Layer 3 (Foreground)
//Storyboard Sound Samples

[TimingPoints]
10353,731.707317073171,4,1,1,55,1,0
10353,-66.6666666666667,4,1,1,55,0,0
14651,-66.6666666666667,4,1,1,5,0,0
14743,-66.6666666666667,4,1,1,55,0,0
18310,-66.6666666666667,4,1,1,5,0,0
18401,-66.6666666666667,4,1,1,55,0,0
30017,-66.6666666666667,4,1,1,5,0,0
30109,-66.6666666666667,4,1,1,60,0,0
33035,-100,4,1,1,80,0,0
33676,-100,4,1,1,7,0,0
33767,-55.5555555555556,4,1,1,60,0,1
36602,-55.5555555555556,4,1,1,60,0,1
36694,-55.5555555555556,4,1,1,60,0,1
39529,-55.5555555555556,4,1,1,60,0,1
39621,-55.5555555555556,4,1,1,60,0,1
42456,-55.5555555555556,4,1,1,60,0,0
42548,-66.6666666666667,4,1,1,60,0,1
43096,-66.6666666666667,4,1,1,5,0,1
43279,-66.6666666666667,4,1,1,60,0,1
43828,-66.6666666666667,4,1,1,5,0,1
44011,-66.6666666666667,4,1,1,60,0,0
44560,-66.6666666666667,4,1,1,5,0,0
44743,-66.6666666666667,4,1,1,60,0,0
44926,-66.6666666666667,4,1,1,5,0,0
45109,-66.6666666666667,4,1,1,60,0,0
45292,-66.6666666666667,4,1,1,5,0,0
45474,-50,4,1,1,60,0,1
48310,-50,4,1,1,60,0,1
48401,-50,4,1,1,60,0,1
49865,-66.6666666666667,4,1,1,60,0,1
50688,-66.6666666666667,4,1,1,60,0,1
51237,-50,4,1,1,60,0,0
51328,-50,4,1,1,60,0,1
57090,-50,4,1,1,60,0,0
57182,-71.4285714285714,4,1,1,60,0,1
57913,-71.4285714285714,4,1,1,60,0,1
58003,-71.4285714285714,4,1,1,60,0,1
58554,-71.4285714285714,4,1,1,60,0,0
58645,-71.4285714285714,4,1,1,60,0,1
59377,-71.4285714285714,4,1,1,60,0,1
60017,-117.647058823529,4,1,1,60,0,0
60109,-117.647058823529,4,1,1,51,0,1
60200,-117.647058823529,4,1,1,20,0,0
63035,-117.647058823529,4,2,0,5,0,0

[Colours]
Combo1 : 0,128,192
Combo2 : 202,202,202
Combo3 : 255,255,0
Combo4 : 0,128,0

[HitObjects]
116,102,10170,5,8,0:0:0:0:
116,102,10261,1,8,0:0:0:0:
116,102,10353,2,0,L|126:216,1,89.9999998569489,4|0,0:0|0:0,0:0:0:0:
241,242,10718,2,0,L|251:128,1,89.9999998569489
161,290,11084,2,0,P|225:338|326:286,1,179.999999713898,8|0,0:0|0:0,0:0:0:0:
366,222,11633,1,0,0:0:0:0:
281,105,11816,6,0,L|177:98,1,89.9999998569489,0|8,0:0|0:0,0:0:0:0:
366,222,12182,2,0,L|470:215,1,89.9999998569489
362,321,12548,2,0,P|287:281|295:167,1,179.999999713898,8|8,0:0|0:0,0:0:0:0:
370,104,13096,1,0,0:0:0:0:
458,202,13279,6,0,P|458:261|456:302,1,89.9999998569489
370,104,13645,1,8,0:0:0:0:
455,110,13828,1,0,0:0:0:0:
366,222,14011,2,0,P|319:217|263:220,1,89.9999998569489,8|0,0:0|0:0,0:0:0:0:
188,241,14376,2,0,P|241:210|237:108,1,134.999999785423
207,64,14743,5,8,0:0:0:0:
174,155,14926,1,0,0:0:0:0:
296,37,15109,1,8,0:0:0:0:
330,130,15292,1,0,0:0:0:0:
486,80,15474,5,8,0:0:0:0:
385,54,15657,1,0,0:0:0:0:
477,217,15840,1,8,0:0:0:0:
423,140,16023,1,0,0:0:0:0:
436,317,16206,6,0,B|349:343|349:343|248:318,1,179.999999713898,12|0,0:0|0:0,0:0:0:0:
185,264,16755,1,0,0:0:0:0:
251,169,16938,2,0,L|259:64,1,89.9999998569489,8|0,0:0|0:0,0:0:0:0:
152,157,17304,1,0,0:0:0:0:
152,157,17487,6,0,L|160:262,1,89.9999998569489,8|0,0:0|0:0,0:0:0:0:
217,318,17853,1,0,0:0:0:0:
317,244,18035,2,0,P|383:233|443:277,1,134.999999785423,8|0,0:0|0:0,0:0:0:0:
475,338,18401,2,0,L|479:225,1,89.9999998569489,8|0,0:0|0:0,0:0:0:0:
384,115,18767,2,0,L|388:228,1,89.9999998569489,8|0,0:0|0:0,0:0:0:0:
460,44,19133,6,0,B|380:8|380:8|296:56,1,179.999999713898,12|0,0:0|0:0,0:0:0:0:
231,109,19682,1,0,0:0:0:0:
295,206,19865,2,0,L|409:218,1,89.9999998569489,8|0,0:0|0:0,0:0:0:0:
231,109,20231,1,0,0:0:0:0:
200,195,20413,1,0,0:0:0:0:
318,127,20597,6,0,P|318:79|312:30,2,89.9999998569489,12|0|0,0:0|0:0|0:0,0:0:0:0:
290,219,21145,1,0,0:0:0:0:
231,109,21328,2,0,B|179:94|139:129|139:129|97:163|28:129,1,179.999999713898,12|0,0:0|0:0,0:0:0:0:
23,224,21877,1,0,0:0:0:0:
23,224,21968,1,0,0:0:0:0:
23,224,22060,6,0,L|32:331,1,89.9999998569489,12|0,0:0|0:0,0:0:0:0:
115,169,22426,1,0,0:0:0:0:
28,130,22609,1,0,0:0:0:0:
105,254,22792,2,0,P|168:240|197:197,1,89.9999998569489,8|0,0:0|0:0,0:0:0:0:
250,131,23157,1,0,0:0:0:0:
166,89,23340,1,8,0:0:0:0:
273,217,23523,6,0,L|378:230,1,89.9999998569489
433,108,23889,2,0,L|328:121,1,89.9999998569489,8|0,0:0|0:0,0:0:0:0:
273,217,24255,2,0,P|275:274|270:321,1,89.9999998569489,8|0,0:0|0:0,0:0:0:0:
343,119,24621,2,0,P|341:62|346:15,1,89.9999998569489,8|0,0:0|0:0,0:0:0:0:
403,231,24987,5,8,0:0:0:0:
403,231,25353,2,0,L|286:238,1,89.9999998569489
248,195,25627,1,0,0:0:0:0:
248,195,25718,2,0,P|197:203|146:199,1,89.9999998569489,8|0,0:0|0:0,0:0:0:0:
117,54,26084,2,0,P|168:46|219:50,1,89.9999998569489
356,157,26450,5,8,0:0:0:0:
331,249,26633,1,0,0:0:0:0:
277,120,26816,1,8,0:0:0:0:
415,88,26999,1,0,0:0:0:0:
257,201,27182,5,8,0:0:0:0:
301,11,27365,1,0,0:0:0:0:
356,157,27548,1,8,0:0:0:0:
168,71,27731,1,0,0:0:0:0:
415,88,27913,6,0,P|451:156|399:246,1,179.999999713898,12|0,0:0|0:0,0:0:0:0:
290,289,28462,1,0,0:0:0:0:
290,289,28645,2,0,L|165:282,1,89.9999998569489,8|0,0:0|0:0,0:0:0:0:
327,170,29011,1,0,0:0:0:0:
326,169,29194,6,0,L|415:163,1,89.9999998569489,8|0,0:0|0:0,0:0:0:0:
355,75,29560,1,0,0:0:0:0:
235,173,29743,2,0,L|260:329,1,134.999999785423,8|0,0:0|0:0,0:0:0:0:
192,360,30109,2,0,P|144:348|97:352,1,89.9999998569489,8|0,0:0|0:0,0:0:0:0:
8,228,30474,2,0,P|56:240|103:236,1,89.9999998569489,8|0,0:0|0:0,0:0:0:0:
228,151,30840,6,0,B|212:28|212:28|180:99,1,179.999999713898,12|0,0:0|0:0,0:0:0:0:
165,215,31389,1,0,0:0:0:0:
165,215,31572,2,0,P|220:246|281:228,1,89.9999998569489,8|0,0:0|0:0,0:0:0:0:
303,141,31938,1,0,0:0:0:0:
408,289,32121,1,0,0:0:0:0:
408,289,32212,1,0,0:0:0:0:
408,289,32304,6,0,B|392:158|392:158|354:217,1,179.999999713898,12|0,0:0|0:0,0:0:0:0:
319,272,32853,1,0,0:0:0:0:
109,94,33035,6,0,B|154:80|189:107|189:107|230:96|230:96|263:130|321:118,1,209.99999165535,12|0,0:0|0:0,0:0:0:0:
408,61,33767,6,0,B|430:113|430:113|417:214,1,107.999992412567,12|0,0:0|0:0,0:0:0:0:
333,225,34133,2,0,L|211:209,1,107.999992412567
364,324,34499,2,0,L|486:308,1,107.999992412567,8|0,0:0|0:0,0:0:0:0:
324,120,34865,2,0,B|315:172|315:172|332:224,1,107.999992412567,8|0,0:0|0:0,0:0:0:0:
463,51,35231,6,0,B|393:60|393:60|333:40|333:40|238:53,1,215.999984825135,12|0,0:0|0:0,0:0:0:0:
150,72,35779,1,0,0:0:0:0:
320,224,35962,2,0,B|313:167|313:167|335:103,1,107.999992412567,8|0,0:0|0:0,0:0:0:0:
202,213,36328,5,0,0:0:0:0:
508,161,36511,1,8,0:0:0:0:
214,118,36694,6,0,B|160:103|160:103|80:124,1,107.999992412567,12|0,0:0|0:0,0:0:0:0:
290,302,37060,2,0,B|344:317|344:317|424:296,1,107.999992412567,8|0,0:0|0:0,0:0:0:0:
159,191,37426,2,0,L|169:347,1,107.999992412567,8|0,0:0|0:0,0:0:0:0:
344,231,37792,2,0,L|334:75,1,107.999992412567,8|0,0:0|0:0,0:0:0:0:
90,122,38157,6,0,P|144:101|256:200,1,215.999984825135,12|0,0:0|0:0,0:0:0:0:
240,34,38706,1,0,0:0:0:0:
63,204,38889,2,0,B|49:260|49:260|70:332,1,107.999992412567,8|0,0:0|0:0,0:0:0:0:
218,219,39255,5,8,0:0:0:0:
174,8,39438,1,8,0:0:0:0:
165,298,39621,6,0,B|220:314|220:314|293:294,1,107.999992412567,12|0,0:0|0:0,0:0:0:0:
272,133,39987,2,0,B|217:117|217:117|144:137,1,107.999992412567,8|0,0:0|0:0,0:0:0:0:
298,226,40353,2,0,L|429:239,1,107.999992412567,8|0,0:0|0:0,0:0:0:0:
452,75,40718,2,0,L|321:88,1,107.999992412567,8|0,0:0|0:0,0:0:0:0:
275,304,41084,6,0,B|422:316|422:316|359:273,1,215.999984825135,12|0,0:0|0:0,0:0:0:0:
224,178,41633,1,0,0:0:0:0:
162,272,41816,2,0,B|157:326|157:326|184:385,1,107.999992412567,8|0,0:0|0:0,0:0:0:0:
224,178,42182,5,8,0:0:0:0:
37,153,42365,1,8,0:0:0:0:
275,304,42548,6,0,P|327:275|327:77,1,269.999999570847,12|0,0:0|0:0,0:0:0:0:
0,183,43279,2,0,P|76:181|276:174,1,269.999999570847,12|0,0:0|0:0,0:0:0:0:
486,332,44011,6,0,B|315:373|385:259|208:304,1,269.999999570847,12|0,0:0|0:0,0:0:0:0:
120,334,44743,2,0,L|10:321,1,89.9999998569489,8|0,0:0|0:0,0:0:0:0:
321,172,45109,2,0,L|431:159,1,89.9999998569489,8|0,0:0|0:0,0:0:0:0:
188,97,45474,6,0,B|172:157|172:157|205:256,1,119.999995231629,12|0,0:0|0:0,0:0:0:0:
321,172,45840,2,0,B|340:227|340:227|324:287,1,119.999995231629
118,314,46206,2,0,L|236:330,1,119.999995231629,8|0,0:0|0:0,0:0:0:0:
321,172,46572,2,0,L|202:188,1,119.999995231629,8|0,0:0|0:0,0:0:0:0:
364,260,46938,6,0,B|409:228|424:159|424:159|393:79|291:75,1,239.999990463257,12|0,0:0|0:0,0:0:0:0:
243,62,47487,1,0,0:0:0:0:
165,223,47670,2,0,B|222:244|222:244|284:232,1,119.999995231629,8|0,0:0|0:0,0:0:0:0:
88,66,48035,5,8,0:0:0:0:
101,317,48218,1,8,0:0:0:0:
170,115,48401,6,0,B|184:59|184:59|160:-17,1,119.999995231629,12|0,0:0|0:0,0:0:0:0:
14,140,48767,2,0,B|0:196|0:196|24:272,1,119.999995231629,8|0,0:0|0:0,0:0:0:0:
169,114,49133,2,0,L|289:125,1,119.999995231629,8|0,0:0|0:0,0:0:0:0:
137,244,49499,2,0,L|18:255,1,119.999995231629,8|0,0:0|0:0,0:0:0:0:
288,128,49865,6,0,P|251:28|203:123,1,269.999999570847,12|0,0:0|0:0,0:0:0:0:
289,226,50596,2,0,L|306:337,1,89.9999998569489,8|0,0:0|0:0,0:0:0:0:
190,227,50962,2,0,L|207:116,1,89.9999998569489,8|0,0:0|0:0,0:0:0:0:
214,315,51328,5,12,0:0:0:0:
98,246,51511,1,0,0:0:0:0:
290,154,51694,2,0,B|355:148|355:148|417:187,1,119.999995231629,8|0,0:0|0:0,0:0:0:0:
190,227,52060,2,0,B|155:60|155:60|238:100,1,239.999990463257,8|0,0:0|0:0,0:0:0:0:
290,154,52609,1,8,0:0:0:0:
120,290,52792,6,0,L|-30:270,1,119.999995231629,4|0,0:0|0:0,0:0:0:0:
290,154,53157,2,0,L|440:134,1,119.999995231629
204,273,53523,2,0,P|199:205|189:130,1,119.999995231629,8|0,0:0|0:0,0:0:0:0:
322,68,53889,1,0,0:0:0:0:
158,63,54072,1,8,0:0:0:0:
299,267,54255,6,0,B|358:287|358:287|430:266,1,119.999995231629,12|0,0:0|0:0,0:0:0:0:
192,153,54621,2,0,B|133:133|133:133|61:154,1,119.999995231629
299,267,54987,2,0,B|313:94|313:94|250:143,1,239.999990463257,8|0,0:0|0:0,0:0:0:0:
154,233,55535,1,8,0:0:0:0:
313,346,55718,6,0,B|372:363|372:363|448:338,1,119.999995231629,12|0,0:0|0:0,0:0:0:0:
154,233,56085,2,0,B|95:216|95:216|19:241,1,119.999995231629
231,350,56450,2,0,L|238:212,1,119.999995231629,8|0,0:0|0:0,0:0:0:0:
185,47,56816,1,0,0:0:0:0:
345,89,56999,1,0,0:0:0:0:
237,230,57182,6,0,B|191:240|191:240|121:227,1,83.9999940986636,12|0,0:0|0:0,0:0:0:0:
262,92,57548,2,0,B|308:82|308:82|378:95,1,83.9999940986636,8|0,0:0|0:0,0:0:0:0:
178,142,57913,2,0,B|120:149|120:149|71:133|71:133|8:140,1,167.999988197327,8|0,0:0|0:0,0:0:0:0:
59,220,58462,1,8,0:0:0:0:
178,142,58645,6,0,L|164:46,1,83.9999940986636,12|0,0:0|0:0,0:0:0:0:
139,228,59011,1,8,0:0:0:0:
139,228,59194,1,0,0:0:0:0:
219,298,59377,2,0,P|269:287|312:282,1,83.9999940986636,8|4,0:0|3:0,0:0:0:0:
387,317,59743,1,4,3:0:0:0:
301,152,59926,2,0,L|290:214,1,41.9999970493318,8|8,0:0|0:0,0:0:0:0:
302,284,60108,6,0,B|318:237|318:237|401:217|401:217|317:150|317:150|325:62|325:62|237:119|237:119|152:86|152:86|183:188|183:188|124:257|124:257|228:262|228:262|278:335,1,917.999981031418,12|0,0:0|0:0,0:0:0:0:
