osu file format v14

[General]
AudioFilename: audio.mp3
AudioLeadIn: 0
PreviewTime: 33767
Countdown: 0
SampleSet: Normal
StackLeniency: 0.7
Mode: 0
LetterboxInBreaks: 0
EpilepsyWarning: 1
WidescreenStoryboard: 1

[Editor]
DistanceSpacing: 1.2
BeatDivisor: 4
GridSize: 4
TimelineZoom: 1.7

[Metadata]
Title:Moshi Kono Kabe no Naka ga Ikken no Ie dato Shitara
TitleUnicode:もしこの壁の中が一軒の家だとしたら
Artist:Linked Horizon
ArtistUnicode:Linked Horizon
Creator:-Aerith-
Version:Normal
Source:進撃の巨人
Tags:attack on titan 自由への進撃 Jiyuu e no Shingeki 柳麻美 Mami Yanagi Sound Horizon Revo Surono -Kyu Underdogs Hytex
BeatmapID:1046785
BeatmapSetID:486719

[Difficulty]
HPDrainRate:4
CircleSize:3.5
OverallDifficulty:4
ApproachRate:5
SliderMultiplier:1.7
SliderTickRate:1

[Events]
//Background and Video events
0,0,"BG.jpg",0,0
//Break Periods
//Storyboard Layer 0 (Background)
//Storyboard Layer 1 (Fail)
//Storyboard Layer 2 (Pass)
//Storyboard Layer 3 (Foreground)
//Storyboard Sound Samples

[TimingPoints]
10353,731.707317073171,4,1,1,50,1,0
10353,-100,4,1,1,50,0,0
33767,-100,4,1,1,55,0,1
33950,-100,4,1,1,55,0,1
44011,-100,4,1,1,55,0,0
45474,-100,4,1,1,55,0,1
59377,-100,4,3,1,80,0,1
60109,-100,4,1,1,5,0,0

[Colours]
Combo1 : 0,128,192
Combo2 : 202,202,202
Combo3 : 255,255,0
Combo4 : 0,128,0

[HitObjects]
44,72,10353,6,0,L|60:260,1,170,4|8,0:0|0:0,0:0:0:0:
96,336,11450,1,0,0:0:0:0:
192,308,11816,2,0,B|284:276|256:372|372:340,1,170,0|8,0:0|0:0,0:0:0:0:
448,320,12913,1,0,0:0:0:0:
476,224,13279,6,0,L|480:36,1,170,0|8,0:0|0:0,0:0:0:0:
376,52,14377,1,0,0:0:0:0:
324,140,14743,2,0,P|276:148|224:132,1,85
192,52,15474,1,8,0:0:0:0:
92,28,15840,1,8,0:0:0:0:
44,120,16206,6,0,L|60:316,1,170,4|8,0:0|0:0,0:0:0:0:
160,308,17304,1,0,0:0:0:0:
160,308,17670,2,0,L|152:208,1,85
248,180,18401,2,0,L|244:276,1,85,8|0,0:0|0:0,0:0:0:0:
324,328,19133,6,0,P|408:356|480:296,1,170,4|8,0:0|0:0,0:0:0:0:
508,220,20231,1,0,0:0:0:0:
484,120,20596,2,0,L|468:28,1,85,4|0,0:0|0:0,0:0:0:0:
376,76,21328,2,0,L|372:180,1,85,8|0,0:0|0:0,0:0:0:0:
312,244,22060,6,0,P|240:276|156:228,1,170,4|8,0:0|0:0,0:0:0:0:
112,148,23157,1,0,0:0:0:0:
24,92,23523,2,0,P|88:40|168:64,1,170,0|8,0:0|0:0,0:0:0:0:
248,124,24621,1,0,0:0:0:0:
268,224,24987,6,0,B|360:204|336:284|448:256,1,170,0|8,0:0|0:0,0:0:0:0:
504,192,26084,1,0,0:0:0:0:
504,192,26450,2,0,L|500:92,1,85
432,32,27182,1,8,0:0:0:0:
332,20,27548,1,8,0:0:0:0:
300,116,27913,6,0,B|216:96|232:184|116:144,1,170,4|8,0:0|0:0,0:0:0:0:
56,92,29011,1,0,0:0:0:0:
12,184,29377,2,0,L|20:292,1,85
92,340,30109,2,0,P|136:348|188:328,1,85,8|0,0:0|0:0,0:0:0:0:
252,272,30840,6,0,B|336:248|324:328|432:300,1,170,4|8,0:0|0:0,0:0:0:0:
504,260,31938,1,0,0:0:0:0:
500,160,32304,2,0,L|492:64,1,85,4|0,0:0|0:0,0:0:0:0:
404,24,33035,1,8,0:0:0:0:
324,88,33401,1,4,3:0:0:0:
332,188,33767,6,0,L|340:296,1,85,4|0,0:0|0:0,0:0:0:0:
264,344,34499,2,0,L|256:248,1,85,8|0,0:0|0:0,0:0:0:0:
168,216,35231,2,0,B|96:196|100:280|-12:244,1,170,0|8,0:0|0:0,0:0:0:0:
36,152,36328,2,0,L|28:84,1,42.5,8|0,0:0|0:0,0:0:0:0:
52,64,36694,6,0,P|92:48|160:60,1,85,4|0,0:0|0:0,0:0:0:0:
208,120,37426,2,0,P|252:128|308:108,1,85,8|0,0:0|0:0,0:0:0:0:
372,60,38157,1,0,0:0:0:0:
456,116,38523,1,0,0:0:0:0:
480,216,38889,2,0,L|480:280,1,42.5,8|0,0:0|0:0,0:0:0:0:
432,272,39255,2,0,L|432:332,1,42.5,8|0,0:0|0:0,0:0:0:0:
388,344,39621,6,0,P|344:332|284:344,1,85,4|0,0:0|0:0,0:0:0:0:
216,288,40353,2,0,L|204:184,1,85,8|0,0:0|0:0,0:0:0:0:
124,140,41084,2,0,P|196:92|284:136,1,170,0|8,0:0|0:0,0:0:0:0:
332,200,42182,2,0,L|332:256,1,42.5,8|0,0:0|0:0,0:0:0:0:
352,288,42548,6,0,P|432:280|488:348,2,170,12|12|12,0:0|0:0|0:0,0:0:0:0:
268,348,44377,1,0,0:0:0:0:
168,332,44743,1,8,0:0:0:0:
136,236,45109,1,8,0:0:0:0:
136,236,45474,6,0,L|124:132,1,85,4|0,0:0|0:0,0:0:0:0:
220,188,46206,2,0,L|224:84,1,85,8|0,0:0|0:0,0:0:0:0:
152,28,46938,2,0,P|224:-4|312:56,1,170,0|8,0:0|0:0,0:0:0:0:
364,116,48035,2,0,L|364:180,1,42.5,8|0,0:0|0:0,0:0:0:0:
384,204,48401,6,0,P|428:196|488:212,1,85,4|0,0:0|0:0,0:0:0:0:
432,300,49133,2,0,P|384:308|340:296,1,85,8|0,0:0|0:0,0:0:0:0:
272,232,49865,2,0,B|196:208|192:284|96:252,1,170,4|8,0:0|0:0,0:0:0:0:
40,180,50962,2,0,L|32:112,1,42.5,8|0,0:0|0:0,0:0:0:0:
28,88,51328,6,0,P|96:48|188:84,1,170,4|8,0:0|0:0,0:0:0:0:
232,160,52426,2,0,L|236:224,1,42.5,8|0,0:0|0:0,0:0:0:0:
264,244,52792,2,0,B|352:216|336:296|440:268,1,170,4|8,0:0|0:0,0:0:0:0:
484,188,53889,2,0,L|484:116,1,42.5,8|0,0:0|0:0,0:0:0:0:
484,96,54255,6,0,P|408:56|328:96,1,170,4|8,0:0|0:0,0:0:0:0:
288,176,55353,2,0,L|292:236,1,42.5,8|0,0:0|0:0,0:0:0:0:
256,256,55718,2,0,B|180:236|188:320|88:292,1,170,4|8,0:0|0:0,0:0:0:0:
40,208,56816,2,0,L|32:136,1,42.5,8|0,0:0|0:0,0:0:0:0:
32,116,57182,6,0,P|100:72|184:112,1,170,4|8,0:0|0:0,0:0:0:0:
236,184,58279,2,0,L|240:248,1,42.5,8|0,0:0|0:0,0:0:0:0:
264,272,58645,2,0,P|308:280|364:256,1,85,4|8,0:0|0:0,0:0:0:0:
436,220,59377,5,8,0:0:0:0:
428,120,59743,1,4,0:0:0:0:
256,192,60109,12,0,63401,0:0:0:0:
