osu file format v14

[General]
AudioFilename: audio.mp3
AudioLeadIn: 0
PreviewTime: 33767
Countdown: 0
SampleSet: Normal
StackLeniency: 0.4
Mode: 0
LetterboxInBreaks: 0
EpilepsyWarning: 1
WidescreenStoryboard: 1

[Editor]
Bookmarks: 7835
DistanceSpacing: 1
BeatDivisor: 8
GridSize: 4
TimelineZoom: 2.3

[Metadata]
Title:Moshi Kono Kabe no Naka ga Ikken no Ie dato Shitara
TitleUnicode:もしこの壁の中が一軒の家だとしたら
Artist:Linked Horizon
ArtistUnicode:Linked Horizon
Creator:-Aerith-
Version:Insane
Source:進撃の巨人
Tags:attack on titan 自由への進撃 Jiyuu e no Shingeki 柳麻美 Mami Yanagi Sound Horizon Revo Surono -Kyu Underdogs Hytex
BeatmapID:1433305
BeatmapSetID:486719

[Difficulty]
HPDrainRate:6
CircleSize:4.2
OverallDifficulty:7
ApproachRate:9
SliderMultiplier:2.39999990463257
SliderTickRate:1

[Events]
//Background and Video events
0,0,"BG.jpg",0,0
//Break Periods
//Storyboard Layer 0 (Background)
//Storyboard Layer 1 (Fail)
//Storyboard Layer 2 (Pass)
//Storyboard Layer 3 (Foreground)
//Storyboard Sound Samples

[TimingPoints]
10353,731.707317073171,4,1,1,55,1,0
10353,-66.6666666666667,4,1,1,55,0,0
33035,-117.647058823529,4,1,1,55,0,0
33676,-117.647058823529,4,1,1,5,0,0
33767,-55.5555555555556,4,1,1,60,0,1
42548,-117.647058823529,4,1,1,60,0,0
43188,-117.647058823529,4,1,1,5,0,0
43279,-117.647058823529,4,1,1,60,0,0
43920,-117.647058823529,4,1,1,5,0,0
44011,-117.647058823529,4,1,1,60,0,0
44651,-117.647058823529,4,1,1,5,0,0
44743,-100,4,1,1,55,0,0
45017,-100,4,1,1,5,0,0
45109,-100,4,1,1,55,0,0
45383,-100,4,1,1,5,0,0
45474,-55.5555555555556,4,1,1,60,0,1
50505,-55.5555555555556,4,1,1,5,0,1
50596,-55.5555555555556,4,1,1,60,0,1
50871,-55.5555555555556,4,1,1,5,0,1
50962,-55.5555555555556,4,1,1,60,0,1
51237,-55.5555555555556,4,1,1,5,0,1
51328,-55.5555555555556,4,1,1,60,0,1
60109,-181.818181818181,4,1,1,60,0,0
60200,-133.333333333333,4,1,1,5,0,0

[Colours]
Combo1 : 0,128,192
Combo2 : 202,202,202
Combo3 : 255,255,0
Combo4 : 0,128,0

[HitObjects]
447,273,10353,6,0,L|457:183,1,89.9999998569489,4|0,0:0|0:0,0:0:0:0:
344,92,10718,2,0,L|351:181,1,89.9999998569489
308,279,11084,2,0,B|214:253|245:349|117:313,1,179.999999713898,8|0,0:0|0:0,0:0:0:0:
66,246,11633,5,0,0:0:0:0:
66,246,11816,2,0,P|60:185|68:143,1,89.9999998569489,0|8,0:0|0:0,0:0:0:0:
0,67,12182,2,0,P|83:41|156:116,1,179.999999713898,0|8,0:0|0:0,0:0:0:0:
215,188,12731,5,0,0:0:0:0:
215,188,12913,2,0,P|220:250|215:288,1,89.9999998569489,8|0,0:0|0:0,0:0:0:0:
305,108,13279,1,0,0:0:0:0:
305,108,13645,6,0,P|301:58|308:13,1,89.9999998569489,8|0,0:0|0:0,0:0:0:0:
420,136,14011,2,0,P|423:184|418:227,1,89.9999998569489,8|0,0:0|0:0,0:0:0:0:
484,322,14377,2,0,P|392:347|321:288,1,179.999999713898,0|8,0:0|0:0,0:0:0:0:
272,189,14926,5,0,0:0:0:0:
272,189,15109,2,0,P|226:177|180:184,1,89.9999998569489,8|0,0:0|0:0,0:0:0:0:
18,262,15474,2,0,P|58:278|118:267,1,89.9999998569489,8|8,0:0|0:0,0:0:0:0:
68,164,15840,2,0,P|62:114|75:75,1,89.9999998569489,8|8,0:0|0:0,0:0:0:0:
183,23,16206,6,0,B|283:-4|247:84|365:57,1,179.999999713898,4|0,0:0|0:0,0:0:0:0:
480,24,16755,1,0,0:0:0:0:
480,24,16938,2,0,P|488:72|476:116,1,89.9999998569489,8|0,0:0|0:0,0:0:0:0:
384,176,17304,2,0,P|368:216|378:273,1,89.9999998569489,8|0,0:0|0:0,0:0:0:0:
236,312,17670,6,0,P|164:356|80:308,1,179.999999713898
160,229,18218,1,0,0:0:0:0:
160,229,18401,2,0,P|156:182|162:128,1,89.9999998569489,8|0,0:0|0:0,0:0:0:0:
120,40,18767,2,0,P|72:32|32:48,1,89.9999998569489,8|0,0:0|0:0,0:0:0:0:
267,136,19133,6,0,B|370:107|350:181|452:160,1,179.999999713898,4|0,0:0|0:0,0:0:0:0:
408,40,19682,1,0,0:0:0:0:
320,132,19865,2,0,L|316:236,1,89.9999998569489,8|0,0:0|0:0,0:0:0:0:
224,348,20231,2,0,L|216:248,1,89.9999998569489,8|0,0:0|0:0,0:0:0:0:
8,184,20596,6,0,P|76:128|168:168,1,179.999999713898,12|0,0:0|0:0,0:0:0:0:
416,96,21145,1,0,0:0:0:0:
416,96,21328,2,0,P|333:70|267:126,1,179.999999713898,12|0,0:0|0:0,0:0:0:0:
472,184,21877,1,0,0:0:0:0:
472,184,22060,6,0,L|476:284,1,89.9999998569489,4|0,0:0|0:0,0:0:0:0:
376,380,22426,2,0,L|372:288,1,89.9999998569489
276,232,22792,2,0,B|192:200|192:296|84:244,1,179.999999713898,8|0,0:0|0:0,0:0:0:0:
24,188,23340,5,0,0:0:0:0:
24,188,23523,2,0,P|20:143|24:98,1,89.9999998569489,0|8,0:0|0:0,0:0:0:0:
108,28,23889,2,0,B|200:4|180:85|284:61,1,179.999999713898,0|8,0:0|0:0,0:0:0:0:
416,28,24438,5,0,0:0:0:0:
416,28,24621,2,0,P|408:72|408:120,1,89.9999998569489,8|0,0:0|0:0,0:0:0:0:
490,209,24987,2,0,P|414:253|330:213,1,179.999999713898,0|8,0:0|0:0,0:0:0:0:
407,117,25535,5,0,0:0:0:0:
334,219,25718,2,0,L|342:309,1,89.9999998569489,8|0,0:0|0:0,0:0:0:0:
236,168,26084,2,0,B|148:140|152:224|56:192,1,179.999999713898,0|8,0:0|0:0,0:0:0:0:
100,96,26633,5,0,0:0:0:0:
212,256,26816,2,0,L|220:352,1,89.9999998569489,8|0,0:0|0:0,0:0:0:0:
324,272,27182,2,0,L|328:168,1,89.9999998569489,8|8,0:0|0:0,0:0:0:0:
408,100,27548,2,0,P|452:84|496:92,1,89.9999998569489,8|8,0:0|0:0,0:0:0:0:
256,96,27913,6,0,B|172:64|184:152|64:112,1,179.999999713898,4|0,0:0|0:0,0:0:0:0:
120,16,28462,1,0,0:0:0:0:
224,192,28645,2,0,L|232:288,1,89.9999998569489,8|0,0:0|0:0,0:0:0:0:
376,376,29011,2,0,L|380:276,1,89.9999998569489,8|0,0:0|0:0,0:0:0:0:
312,192,29377,6,0,P|392:156|464:208,1,179.999999713898
212,240,29926,1,0,0:0:0:0:
212,240,30109,2,0,P|160:236|112:240,1,89.9999998569489,8|0,0:0|0:0,0:0:0:0:
89,129,30474,2,0,P|44:128|0:136,1,89.9999998569489,8|0,0:0|0:0,0:0:0:0:
152,24,30840,6,0,B|248:-4|220:80|336:48,1,179.999999713898,4|0,0:0|0:0,0:0:0:0:
432,104,31389,1,0,0:0:0:0:
432,104,31572,2,0,L|439:208,1,89.9999998569489,8|0,0:0|0:0,0:0:0:0:
356,368,31938,2,0,L|348:268,1,89.9999998569489,8|0,0:0|0:0,0:0:0:0:
64,264,32304,6,0,B|158:290|154:212|234:230,1,179.999999713898,12|0,0:0|0:0,0:0:0:0:
488,104,32853,1,0,0:0:0:0:
488,104,33035,2,0,B|408:86|408:168|304:140,1,178.499996311665,12|0,0:0|0:0,0:0:0:0:
304,132,33767,6,0,L|296:24,1,107.999992412567,12|0,0:0|0:0,0:0:0:0:
172,108,34133,2,0,L|180:220,1,107.999992412567
0,320,34499,2,0,P|44:288|104:300,1,107.999992412567,8|0,0:0|0:0,0:0:0:0:
304,348,34865,2,0,L|196:355,1,107.999992412567,8|0,0:0|0:0,0:0:0:0:
384,380,35231,6,0,B|404:328|364:288|364:288|400:248|400:248|384:176,1,215.999984825135,12|0,0:0|0:0,0:0:0:0:
292,216,35779,1,0,0:0:0:0:
344,96,35962,2,0,B|376:80|376:80|447:87,1,107.999992412567,8|0,0:0|0:0,0:0:0:0:
292,216,36328,1,8,0:0:0:0:
248,16,36511,1,8,0:0:0:0:
292,216,36694,6,0,B|204:208|204:208|168:224,1,107.999992412567,12|0,0:0|0:0,0:0:0:0:
8,324,37060,2,0,B|96:332|96:332|132:316,1,107.999992412567
186,215,37426,2,0,L|178:103,1,107.999992412567,8|0,0:0|0:0,0:0:0:0:
308,8,37792,2,0,L|296:132,1,107.999992412567,8|0,0:0|0:0,0:0:0:0:
504,204,38157,6,0,B|536:239|536:239|368:216,1,215.999984825135,12|0,0:0|0:0,0:0:0:0:
448,124,38706,1,0,0:0:0:0:
392,320,38889,2,0,L|500:335,1,107.999992412567,8|0,0:0|0:0,0:0:0:0:
247,184,39255,1,8,0:0:0:0:
248,16,39438,1,8,0:0:0:0:
110,110,39621,6,0,B|82:102|82:102|4:116,1,107.999992412567,12|0,0:0|0:0,0:0:0:0:
247,184,39987,2,0,B|275:176|275:176|353:190,1,107.999992412567
117,348,40353,2,0,P|108:295|132:248,1,107.999992412567,8|0,0:0|0:0,0:0:0:0:
233,83,40718,2,0,P|256:130|247:183,1,107.999992412567,8|0,0:0|0:0,0:0:0:0:
328,293,41084,6,0,B|492:308|492:308|448:280,1,215.999984825135,12|0,0:0|0:0,0:0:0:0:
360,168,41633,1,0,0:0:0:0:
408,56,41816,2,0,B|436:44|436:44|524:60,1,107.999992412567,8|0,0:0|0:0,0:0:0:0:
208,228,42182,1,8,0:0:0:0:
308,0,42365,1,8,0:0:0:0:
256,108,42548,6,0,B|164:88|188:180|68:148,1,178.499996311665,12|0,0:0|0:0,0:0:0:0:
76,140,43279,2,0,B|56:104|56:104|70:240,1,178.499996311665,12|0,0:0|0:0,0:0:0:0:
76,264,44011,2,0,P|156:240|212:312,1,178.499996311665,12|0,0:0|0:0,0:0:0:0:
308,352,44743,2,0,L|408:348,1,89.9999964237214,8|0,0:0|0:0,0:0:0:0:
504,240,45109,2,0,L|412:244,1,89.9999964237214,8|0,0:0|0:0,0:0:0:0:
396,232,45474,6,0,L|388:104,1,107.999992412567,12|0,0:0|0:0,0:0:0:0:
244,12,45840,2,0,L|252:136,1,107.999992412567
156,216,46206,2,0,B|127:203|127:203|51:223,1,107.999992412567,8|0,0:0|0:0,0:0:0:0:
220,332,46572,2,0,B|248:344|248:344|332:332,1,107.999992412567,8|0,0:0|0:0,0:0:0:0:
424,108,46938,6,0,B|403:56|403:56|400:216,1,215.999984825135,12|0,0:0|0:0,0:0:0:0:
324,333,47487,1,0,0:0:0:0:
399,216,47670,2,0,P|459:204|503:220,1,107.999992412567,8|0,0:0|0:0,0:0:0:0:
292,112,48035,1,8,0:0:0:0:
324,333,48218,1,8,0:0:0:0:
292,112,48401,6,0,L|276:-8,1,107.999992412567,12|0,0:0|0:0,0:0:0:0:
168,88,48767,2,0,L|160:212,1,107.999992412567
104,288,49133,2,0,B|68:276|68:276|-8:296,1,107.999992412567,8|0,0:0|0:0,0:0:0:0:
208,348,49499,2,0,B|244:360|244:360|320:340,1,107.999992412567,8|0,0:0|0:0,0:0:0:0:
484,144,49865,6,0,P|412:92|472:220,1,377.999973443986,12|0,0:0|0:0,0:0:0:0:
412,172,50596,2,0,L|244:160,1,161.999988618851,8|0,0:0|0:0,0:0:0:0:
232,144,50962,2,0,B|156:124|156:204|64:172,1,161.999988618851
64,156,51328,6,0,L|72:276,1,107.999992412567,12|0,0:0|0:0,0:0:0:0:
200,348,51694,2,0,L|196:232,1,107.999992412567,8|0,0:0|0:0,0:0:0:0:
300,152,52060,2,0,B|420:124|384:228|500:208,1,215.999984825135,8|0,0:0|0:0,0:0:0:0:
472,96,52609,1,0,0:0:0:0:
336,252,52792,6,0,L|340:360,1,107.999992412567,12|0,0:0|0:0,0:0:0:0:
208,280,53157,2,0,L|202:160,1,107.999992412567,8|0,0:0|0:0,0:0:0:0:
0,80,53523,2,0,P|84:20|176:84,1,215.999984825135,8|0,0:0|0:0,0:0:0:0:
202,172,54072,1,0,0:0:0:0:
300,120,54255,6,0,P|352:104|420:124,1,107.999992412567,12|0,0:0|0:0,0:0:0:0:
512,236,54621,2,0,P|460:256|400:240,1,107.999992412567,8|0,0:0|0:0,0:0:0:0:
300,120,54987,2,0,B|264:76|264:76|280:236,1,215.999984825135,8|0,0:0|0:0,0:0:0:0:
410,245,55535,1,0,0:0:0:0:
236,352,55718,6,0,B|156:336|156:336|104:348,1,107.999992412567,12|0,0:0|0:0,0:0:0:0:
0,216,56084,2,0,B|80:232|80:232|132:220,1,107.999992412567,8|0,0:0|0:0,0:0:0:0:
208,168,56450,2,0,B|224:8|224:8|192:56,1,215.999984825135,8|0,0:0|0:0,0:0:0:0:
105,226,56999,1,0,0:0:0:0:
304,248,57182,6,0,B|380:264|380:264|416:252,1,107.999992412567,12|0,0:0|0:0,0:0:0:0:
512,132,57548,2,0,B|436:116|436:116|400:128,1,107.999992412567,8|0,0:0|0:0,0:0:0:0:
288,52,57913,2,0,B|260:-4|260:-4|280:156,1,215.999984825135,8|0,0:0|0:0,0:0:0:0:
407,125,58462,1,0,0:0:0:0:
216,240,58645,6,0,B|132:228|132:228|96:244,1,107.999992412567,12|0,0:0|0:0,0:0:0:0:
280,336,59011,2,0,B|364:348|364:348|400:332,1,107.999992412567,8|0,0:0|0:0,0:0:0:0:
456,244,59377,1,8,0:0:0:0:
456,244,59560,1,4,3:0:0:0:
256,224,59743,1,4,3:0:0:0:
256,224,59926,1,4,3:0:0:0:
356,188,60109,6,0,B|328:20|328:20|256:124|256:124|176:24|176:24|152:192,1,593.999994524002,4|0,0:0|0:0,0:0:0:0:
