osu file format v14

[General]
AudioFilename: OP2.mp3
AudioLeadIn: 0
PreviewTime: 45510
Countdown: 0
SampleSet: Normal
StackLeniency: 0.7
Mode: 0
LetterboxInBreaks: 1
WidescreenStoryboard: 1

[Editor]
Bookmarks: 57891
DistanceSpacing: 0.7
BeatDivisor: 6
GridSize: 4
TimelineZoom: 5.099998

[Metadata]
Title:Jiyuu no Tsubasa (TV Size)
TitleUnicode:自由の翼 (TV Size)
Artist:Linked Horizon
ArtistUnicode:Linked Horizon
Creator:Bass
Version:Insane
Source:進撃の巨人
Tags:crn caren_sk rock aot attack on titan wings of freedom eren jaeger mikasa ackerman armin arlert levy rivaille snk revo pony canyon happy30 flask wa_ shingeki no kyojin Japanese anime
BeatmapID:279477
BeatmapSetID:106440

[Difficulty]
HPDrainRate:7
CircleSize:5
OverallDifficulty:8
ApproachRate:9
SliderMultiplier:2
SliderTickRate:2

[Events]
//Background and Video events
0,0,"bg.jpg",0,0
Video,-422,"op2.mp4"
//Break Periods
//Storyboard Layer 0 (Background)
//Storyboard Layer 1 (Fail)
//Storyboard Layer 2 (Pass)
//Storyboard Layer 3 (Foreground)
//Storyboard Layer 4 (Overlay)
//Storyboard Sound Samples

[TimingPoints]
-479,441.176470588235,4,1,2,60,1,0
11873,438.756855575868,4,1,2,60,1,0
13628,380.952380952381,4,1,1,75,1,1
13723,-100,4,1,1,75,0,0
27342,-100,4,1,1,70,0,0
39532,-100,4,1,1,75,0,1
39628,-100,4,1,1,75,0,0
45628,-100,4,1,1,85,0,1
71532,-100,4,1,1,75,0,0
79151,-100,4,1,1,85,0,1
83723,-100,4,1,1,75,0,0

[Colours]
Combo1 : 255,138,21
Combo2 : 255,43,43

[HitObjects]
76,140,844,5,0,0:0:0:0:
36,192,991,1,0,0:0:0:0:
72,248,1138,1,0,0:0:0:0:
132,220,1285,2,0,P|132:280|72:316,1,133.333333333333,4|0,0:0|0:0,0:0:0:0:
72,248,1726,2,0,P|88:168|136:152,1,133.333333333333
196,152,2167,2,0,L|336:152,1,133.333333333333,4|0,0:0|0:0,0:0:0:0:
396,152,2608,1,0,0:0:0:0:
448,192,2755,1,0,0:0:0:0:
448,256,2902,1,0,0:0:0:0:
448,320,3049,2,0,P|332:332|256:156,1,333.333333333333,4|0,0:0|0:0,0:0:0:0:
256,92,3932,1,0,0:0:0:0:
256,92,4226,5,0,0:0:0:0:
256,92,4299,1,0,0:0:0:0:
256,92,4373,1,0,0:0:0:0:
192,104,4520,1,0,0:0:0:0:
124,108,4667,1,0,0:0:0:0:
64,192,4814,6,0,P|56:284|144:320,1,200,4|0,0:0|0:0,0:0:0:0:
448,192,5550,1,0,0:0:0:0:
448,192,5696,2,0,P|456:100|368:64,1,200,4|0,0:0|0:0,0:0:0:0:
304,76,6284,1,0,0:0:0:0:
256,120,6432,1,0,0:0:0:0:
211,71,6579,2,0,L|210:32,6,33.3333333333333,4|0|0|0|0|0|0,0:0|0:0|0:0|0:0|0:0|0:0|0:0,0:0:0:0:
149,84,7167,1,0,0:0:0:0:
118,144,7314,1,0,0:0:0:0:
118,144,7387,1,0,0:0:0:0:
118,144,7461,1,4,0:0:0:0:
216,248,7902,5,4,0:0:0:0:
256,300,8049,1,0,0:0:0:0:
300,248,8196,1,0,0:0:0:0:
368,248,8343,2,0,P|456:228|456:132,1,200,4|0,0:0|0:0,0:0:0:0:
348,56,9079,1,0,0:0:0:0:
348,56,9226,2,0,P|304:96|232:92,1,133.333333333333,4|0,0:0|0:0,0:0:0:0:
196,36,9667,2,0,P|168:96|200:148,1,133.333333333333
256,184,10108,2,0,B|256:236|256:236|292:296|256:360|204:376|160:348,1,200,4|0,0:0|0:0,0:0:0:0:
152,332,10696,2,0,L|92:296,1,66.6666666666667
64,240,10990,1,4,0:0:0:0:
64,240,11432,6,0,L|16:192,2,66.6666666666667
112,192,11873,2,0,P|176:164|187:100,1,133.333333333333,4|0,0:0|0:0,0:0:0:0:
192,40,12311,2,0,P|256:20|318:46,1,133.333333333333
324,108,12750,2,0,P|336:165|461:191,1,200,4|0,0:0|0:0,0:0:0:0:
256,292,13628,6,0,L|156:292,1,100,6|8,0:0|0:0,0:0:0:0:
76,152,14008,2,0,L|180:152,1,100,2|8,0:0|0:0,0:0:0:0:
24,204,14389,2,0,P|8:176|8:148,1,50,2|0,0:0|0:0,0:0:0:0:
28,60,14580,2,0,P|60:72|76:92,1,50
76,152,14770,2,0,L|176:152,1,100,2|8,0:0|0:0,0:0:0:0:
256,64,15151,2,0,L|312:64,1,50,6|0,0:0|0:0,0:0:0:0:
388,120,15342,2,0,L|336:120,1,50,10|0,0:0|0:0,0:0:0:0:
264,188,15532,2,0,L|364:188,1,100,2|10,0:0|0:0,0:0:0:0:
388,304,15913,1,2,0:0:0:0:
276,344,16104,1,10,0:0:0:0:
236,352,16199,1,0,0:0:0:0:
196,352,16294,1,2,0:0:0:0:
160,336,16389,1,0,0:0:0:0:
140,300,16485,1,10,0:0:0:0:
136,260,16580,1,0,0:0:0:0:
148,220,16675,6,0,P|112:176|72:164,1,100,4|8,0:0|0:0,0:0:0:0:
20,56,17056,2,0,L|120:40,1,100,2|10,0:0|0:0,0:0:0:0:
220,104,17437,2,0,L|276:92,1,50,2|0,0:0|0:0,0:0:0:0:
360,136,17628,2,0,L|312:148,1,50,10|0,0:0|0:0,0:0:0:0:
372,68,17818,2,0,P|416:96|428:144,1,100,2|10,0:0|0:0,0:0:0:0:
428,260,18199,2,0,L|428:312,2,50,6|0|8,0:0|0:0|0:0,0:0:0:0:
308,272,18580,2,0,P|256:288|212:276,1,100,0|10,0:0|0:0,0:0:0:0:
100,240,18961,2,0,L|88:140,1,100,6|10,0:0|0:0,0:0:0:0:
96,100,19247,1,0,0:0:0:0:
120,68,19342,1,2,0:0:0:0:
156,48,19437,1,2,0:0:0:0:
196,44,19532,1,8,0:0:0:0:
236,48,19628,1,0,0:0:0:0:
272,64,19723,6,0,L|288:164,1,100,6|8,0:0|0:0,0:0:0:0:
364,348,20104,2,0,P|440:292|452:236,1,150,2|0,0:0|0:0,0:0:0:0:
472,184,20485,2,0,P|424:188|392:232,1,100,2|10,0:0|0:0,0:0:0:0:
256,368,20866,2,0,P|256:296|152:264,1,150,2|0,0:0|0:0,0:0:0:0:
148,296,21247,2,0,P|136:240|160:204,1,100,6|10,0:0|0:0,0:0:0:0:
48,136,21628,1,2,0:0:0:0:
160,72,21818,1,10,0:0:0:0:
208,112,21913,1,0,0:0:0:0:
256,152,22008,2,0,L|356:152,1,100,2|10,0:0|0:0,0:0:0:0:
456,84,22389,2,0,P|500:168|444:248,1,200,2|6,0:0|0:0,0:0:0:0:
368,340,22961,5,10,0:0:0:0:
256,296,23151,2,0,P|192:268|116:284,1,150
76,272,23532,2,0,B|56:224|56:224|64:176,1,100,2|8,0:0|0:0,0:0:0:0:
196,28,23913,2,0,L|176:180,1,150,2|0,0:0|0:0,0:0:0:0:
176,176,24294,6,2,P|344:172|284:8,2,400,6|6|6,0:0|0:0|0:0,0:0:0:0:
256,192,26008,12,2,26961,0:0:0:0:
64,304,27342,6,0,L|164:296,1,100,4|8,0:0|0:0,0:0:0:0:
272,292,27723,1,0,0:0:0:0:
380,284,27913,1,8,0:0:0:0:
468,220,28104,2,0,P|484:176|468:124,1,100,0|8,0:0|0:0,0:0:0:0:
469,126,28389,2,0,P|416:140|376:124,1,100
376,124,28675,1,8,0:0:0:0:
268,100,28866,6,0,P|284:56|432:40,1,200,4|0,0:0|0:0,0:0:0:0:
198,186,29437,2,0,P|172:224|20:208,1,200,8|8,0:0|0:0,0:0:0:0:
108,140,30008,1,0,0:0:0:0:
204,192,30199,1,8,0:0:0:0:
204,192,30389,2,0,P|256:208|280:248,1,100,4|0,0:0|0:0,0:0:0:0:
388,240,30770,1,0,0:0:0:0:
356,344,30961,1,8,0:0:0:0:
356,344,31056,1,0,0:0:0:0:
356,344,31151,2,0,P|264:368|192:304,1,200
96,248,31723,1,8,0:0:0:0:
64,144,31913,6,0,P|48:72|104:32,2,150,2|2|10,0:0|0:0|0:0,0:0:0:0:
168,108,32675,2,0,L|268:120,1,100,4|8,0:0|0:0,0:0:0:0:
292,60,32961,2,0,P|332:116|296:180,1,150,4|8,0:0|0:0,0:0:0:0:
444,312,33437,5,4,0:0:0:0:
336,284,33628,2,0,P|244:252|168:308,1,200,8|8,0:0|0:0,0:0:0:0:
64,272,34199,1,0,0:0:0:0:
64,272,34389,2,0,L|40:172,2,100,8|0|8,0:0|0:0|0:0,0:0:0:0:
136,188,34961,2,8,L|108:88,1,100,4|8,0:0|0:0,0:0:0:0:
212,129,35342,1,0,0:0:0:0:
257,29,35532,2,0,P|349:9|413:81,1,200,12|8,0:0|0:0,0:0:0:0:
417,192,36104,1,0,0:0:0:0:
359,285,36294,1,8,0:0:0:0:
256,296,36485,6,0,P|212:272|164:280,1,100,4|0,0:0|0:0,0:0:0:0:
85,218,36866,1,0,0:0:0:0:
78,108,37056,2,0,P|123:25|216:43,1,200,8|8,0:0|0:0,0:0:0:0:
323,25,37628,1,0,0:0:0:0:
432,30,37818,1,8,0:0:0:0:
456,132,38008,6,0,P|480:224|400:268,1,200
300,320,38580,1,8,0:0:0:0:
192,296,38770,2,2,B|130:335|65:302|65:302|47:268|55:231|55:231|111:228|120:176,1,300,10|10,0:0|0:0,0:0:0:0:
59,168,39532,5,4,0:0:0:0:
196,48,39723,1,12,0:0:0:0:
264,216,39913,1,2,0:0:0:0:
140,88,40104,2,0,P|216:116|264:24,1,200,8|10,0:0|0:0,0:0:0:0:
372,296,40866,2,0,P|296:268|248:360,1,200,10|10,0:0|0:0,0:0:0:0:
68,332,41437,1,0,0:0:0:0:
192,200,41628,1,10,0:0:0:0:
312,332,41818,2,0,P|320:252|424:248,1,200,6|6,0:0|0:0,0:0:0:0:
422,246,42580,5,6,0:0:0:0:
456,72,42770,1,8,0:0:0:0:
448,96,42866,1,0,0:0:0:0:
440,120,42961,1,0,0:0:0:0:
260,124,43151,2,0,P|188:60|100:92,1,200,14|14,0:0|0:0,0:0:0:0:
252,260,43913,2,0,P|324:324|412:292,1,200,6|6,0:0|0:0,0:0:0:0:
256,192,44389,12,2,45247,0:0:0:0:
60,308,45628,6,0,L|160:308,1,100,4|8,0:0|0:0,0:0:0:0:
300,308,46008,1,0,0:0:0:0:
420,236,46199,2,0,P|372:156|272:156,1,200,8|8,0:0|0:0,0:0:0:0:
132,156,46770,2,0,L|28:156,1,100,0|8,0:0|0:0,0:0:0:0:
156,92,47151,2,0,P|200:144|124:224,1,200,4|0,0:0|0:0,0:0:0:0:
84,224,47628,1,0,0:0:0:0:
44,224,47723,2,0,P|16:308|104:336,1,200,8|8,0:0|0:0,0:0:0:0:
240,300,48294,1,0,0:0:0:0:
380,312,48485,1,8,0:0:0:0:
488,224,48675,6,0,L|480:124,1,100,4|8,0:0|0:0,0:0:0:0:
364,53,49056,1,0,0:0:0:0:
364,53,49247,2,0,P|350:131|222:128,1,200,8|8,0:0|0:0,0:0:0:0:
186,276,49818,1,0,0:0:0:0:
72,194,50008,1,8,0:0:0:0:
93,55,50199,2,0,P|182:8|261:57,1,200,12|0,1:1|1:3,0:0:0:0:
387,112,50770,1,8,0:0:0:0:
469,225,50961,2,0,P|380:272|301:223,1,200
255,357,51532,1,0,0:0:0:0:
217,337,51628,1,0,0:0:0:0:
184,316,51723,6,0,P|160:268|116:256,1,100,4|8,0:0|0:0,0:0:0:0:
48,144,52104,1,0,0:0:0:0:
176,164,52294,2,0,B|256:152|256:152|284:132|284:132|368:120,1,200,8|8,0:0|0:0,0:0:0:0:
488,200,52866,2,0,L|340:220,1,150
339,220,53247,6,0,P|320:272|344:308,1,100,4|8,0:0|0:0,0:0:0:0:
172,163,53628,2,0,P|192:112|168:76,1,100,0|8,0:0|0:0,0:0:0:0:
170,77,53913,1,0,0:0:0:0:
170,77,54008,2,0,L|68:68,1,100,0|8,0:0|0:0,0:0:0:0:
88,208,54389,2,0,P|168:256|216:236,1,150
214,237,54770,2,0,L|256:328,1,100,4|8,0:0|0:0,0:0:0:0:
404,192,55151,2,0,L|362:101,1,100,0|8,0:0|0:0,0:0:0:0:
352,300,55532,1,0,0:0:0:0:
352,300,55723,2,0,L|310:209,1,100,8|8,0:0|0:0,0:0:0:0:
256,80,56104,1,0,0:0:0:0:
116,80,56294,6,0,P|80:120|88:168,1,100,2|8,0:0|0:0,0:0:0:0:
216,320,56675,1,0,0:0:0:0:
140,136,56866,2,0,B|224:140|224:140|256:152|256:152|340:152,1,200,10|10,0:0|0:0,0:0:0:0:
380,152,57342,1,0,0:0:0:0:
418,141,57437,1,0,0:0:0:0:
456,150,57532,1,0,0:0:0:0:
487,176,57628,1,10,0:0:0:0:
501,213,57723,1,0,0:0:0:0:
497,252,57818,6,0,P|432:320|340:284,1,200,4|0,0:0|0:0,0:0:0:0:
204,316,58389,1,8,0:0:0:0:
72,264,58580,2,0,L|72:164,1,100,0|8,0:0|0:0,0:0:0:0:
256,84,58961,2,0,L|256:184,1,100,0|8,0:0|0:0,0:0:0:0:
204,316,59342,2,0,P|296:328|352:248,1,200,4|0,0:0|0:0,0:0:0:0:
476,316,59913,1,8,0:0:0:0:
476,316,60104,2,0,P|500:272|492:224,1,100,0|8,0:0|0:0,0:0:0:0:
400,72,60485,1,0,0:0:0:0:
400,72,60675,2,0,P|360:160|408:248,1,200,8|8,0:0|0:0,0:0:0:0:
276,192,61247,5,0,0:0:0:0:
276,192,61437,2,0,P|268:140|284:96,1,100,8|0,0:0|0:0,0:0:0:0:
156,40,61818,2,0,P|136:136|152:236,1,200,8|8,0:0|0:0,0:0:0:0:
252,332,62389,2,0,L|356:328,1,100,12|8,1:1|1:1,3:3:0:0:
480,272,62770,1,0,1:3:0:0:
348,228,62961,1,8,0:0:0:0:
212,264,63151,2,0,P|176:304|176:352,1,100,0|8,0:0|0:0,0:0:0:0:
44,352,63532,1,2,0:0:0:0:
14,325,63628,1,0,0:0:0:0:
0,288,63723,1,2,0:0:0:0:
4,248,63818,1,2,0:0:0:0:
28,216,63913,6,0,P|56:120|148:80,1,200,4|0,0:0|0:0,0:0:0:0:
192,184,64485,1,8,0:0:0:0:
252,296,64675,2,0,P|296:256|304:212,1,100,0|8,0:0|0:0,0:0:0:0:
432,192,65056,2,0,P|436:140|408:100,1,100
372,228,65437,2,0,P|444:264|508:180,1,200,4|8,0:0|0:0,0:0:0:0:
472,344,66008,2,0,P|376:336|304:264,1,200,8|8,0:0|0:0,0:0:0:0:
184,328,66580,1,0,0:0:0:0:
156,192,66770,1,8,0:0:0:0:
128,56,66961,2,0,L|228:36,1,100,4|8,0:0|0:0,0:0:0:0:
463,42,67342,2,0,L|364:61,1,100,0|8,0:0|0:0,0:0:0:0:
360,192,67723,1,0,0:0:0:0:
368,332,67913,5,0,0:0:0:0:
256,336,68104,1,8,0:0:0:0:
152,272,68294,1,0,0:0:0:0:
144,140,68485,2,0,P|96:120|48:128,1,100,6|8,0:0|0:0,0:0:0:0:
232,212,68866,1,0,0:0:0:0:
232,212,69056,2,0,P|320:248|396:188,1,200,10|10,0:0|0:0,0:0:0:0:
412,152,69532,1,0,0:0:0:0:
422,114,69628,1,0,0:0:0:0:
410,76,69723,1,0,0:0:0:0:
379,52,69818,1,10,0:0:0:0:
256,116,70008,6,0,B|196:104|196:104|136:64|136:64|64:56,1,200,4|0,0:0|0:0,0:0:0:0:
69,327,70580,2,0,B|136:320|136:320|196:280|196:280|256:268,1,200,8|8,0:0|0:0,0:0:0:0:
396,272,71151,2,0,P|448:192|412:100,1,200
416,96,72104,6,0,P|327:69|282:151,1,200,4|0,0:0|0:0,0:0:0:0:
256,180,72580,1,0,0:0:0:0:
225,205,72675,1,0,0:0:0:0:
188,222,72770,1,0,0:0:0:0:
147,223,72866,1,0,0:0:0:0:
108,213,72961,1,0,0:0:0:0:
84,180,73056,1,4,0:0:0:0:
256,192,73151,12,0,73818,0:0:0:0:
256,192,73913,12,0,75723,0:0:0:0:
320,192,76104,6,0,P|340:236|320:280,1,100
192,192,76485,2,0,P|172:148|192:104,1,100,6|0,0:0|0:0,0:0:0:0:
372,192,76866,6,0,P|392:236|372:280,1,100
140,192,77247,2,0,P|120:148|140:104,1,100,6|0,0:0|0:0,0:0:0:0:
320,40,77628,2,0,P|316:17|302:-5,3,50,6|0|0|0,0:0|0:0|0:0|0:0,0:0:0:0:
375,84,78008,2,0,P|404:78|443:89,3,50
401,143,78389,5,6,0:0:0:0:
398,178,78485,1,0,0:0:0:0:
375,205,78580,1,0,0:0:0:0:
364,238,78675,1,0,0:0:0:0:
371,272,78770,1,0,0:0:0:0:
388,302,78866,1,0,0:0:0:0:
393,336,78961,1,0,0:0:0:0:
372,364,79056,1,0,0:0:0:0:
336,368,79151,6,0,P|296:348|224:340,1,100,6|10,0:0|0:0,0:0:0:0:
104,196,79532,2,0,P|152:212|204:208,1,100,2|8,0:0|0:0,0:0:0:0:
176,8,79913,2,0,P|208:52|208:100,1,100,2|10,0:0|0:0,0:0:0:0:
384,196,80294,2,0,P|344:164|296:156,1,100,2|10,0:0|0:0,0:0:0:0:
116,72,80675,1,6,0:0:0:0:
116,72,80770,1,0,0:0:0:0:
116,72,80866,2,0,L|40:140,1,100,10|2,0:0|0:0,0:0:0:0:
88,332,81247,2,0,L|168:264,2,100,10|2|10,0:0|0:0|0:0,0:0:0:0:
288,304,81818,2,0,P|300:212|248:172,1,150,2|0,0:0|0:0,0:0:0:0:
220,124,82199,6,0,L|252:84,1,50,6|0,0:0|0:0,0:0:0:0:
348,56,82389,2,0,L|316:104,1,50,8|0,0:0|0:0,0:0:0:0:
360,176,82580,2,0,L|388:132,1,50,2|0,0:0|0:0,0:0:0:0:
484,112,82770,2,0,L|456:156,1,50,10|0,0:0|0:0,0:0:0:0:
457,290,82961,2,0,L|508:204,1,100,2|10,0:0|0:0,0:0:0:0:
264,336,83342,2,0,L|364:316,1,100,2|10,0:0|0:0,0:0:0:0:
256,192,83723,12,0,85056,2:0:0:0:
160,284,85247,5,6,0:0:0:0:
256,88,85437,1,14,0:0:0:0:
348,284,85628,1,6,0:0:0:0:
148,176,85818,2,6,P|56:200|48:296,2,200,14|14|14,0:0|0:0|0:0,0:0:0:0:
