osu file format v14

[General]
AudioFilename: audio.mp3
AudioLeadIn: 0
PreviewTime: -1
Countdown: 1
SampleSet: None
StackLeniency: 0.7
Mode: 0
LetterboxInBreaks: 0
WidescreenStoryboard: 0

[Editor]
Bookmarks: 77486
DistanceSpacing: 1.7
BeatDivisor: 4
GridSize: 4
TimelineZoom: 1

[Metadata]
Title:Guren no Yumiya (TV Size)
TitleUnicode:紅蓮の弓矢 (TV Size)
Artist:Linked Horizon
ArtistUnicode:Linked Horizon
Creator:Venex
Version:Heroes
Source:進撃の巨人
Tags:
BeatmapID:1597519
BeatmapSetID:759520

[Difficulty]
HPDrainRate:6.5
CircleSize:3.9
OverallDifficulty:8.7
ApproachRate:9.3
SliderMultiplier:1.7
SliderTickRate:1

[Events]
//Background and Video events
0,0,"36491452-attack-on-titan-wallpaper-hd.jpg",0,0
//Break Periods
//Storyboard Layer 0 (Background)
//Storyboard Layer 1 (Fail)
//Storyboard Layer 2 (Pass)
//Storyboard Layer 3 (Foreground)
//Storyboard Sound Samples

[TimingPoints]
112,332.078813371707,4,1,0,100,1,0
8081,-83.3333333333333,4,1,0,100,0,0
14723,-125,4,1,0,100,0,0
25349,-100,4,1,0,100,0,0
35478,-166.666666666667,4,1,0,100,0,0
35976,-100,4,1,0,100,0,0
38633,-90.9090909090909,4,1,0,100,0,0
39297,-83.3333333333333,4,1,0,100,0,0
39961,-76.9230769230769,4,1,0,100,0,0
40625,-71.4285714285714,4,1,0,100,0,0
41123,-100,4,1,0,100,0,0
43199,-100,4,1,0,5,0,0
43282,-100,4,1,0,100,0,0
43531,-100,4,1,0,5,0,0
43614,-100,4,1,0,100,0,0
46603,-76.9230769230769,4,1,0,100,0,1
51169,-76.9230769230769,4,1,0,5,0,1
51252,-76.9230769230769,4,1,0,100,0,1
51501,-76.9230769230769,4,1,0,5,0,1
51584,-76.9230769230769,4,1,0,100,0,1
65199,-100,4,1,0,100,0,0
70429,-100,4,1,0,5,0,0
70512,-100,4,1,0,100,0,0
70761,-100,4,1,0,5,0,0
70844,-100,4,1,0,100,0,0
71093,-100,4,1,0,5,0,0
71176,-100,4,1,0,100,0,0
71841,-90.9090909090909,4,1,0,100,0,0
77154,-76.9230769230769,4,1,0,100,0,1
87116,-76.9230769230769,4,1,0,100,0,0

[Colours]
Combo1 : 217,0,0
Combo2 : 255,128,0
Combo3 : 187,94,0
Combo4 : 128,0,0

[HitObjects]
252,248,112,6,0,L|336:252,1,85
296,164,444,1,0,0:0:0:0:
204,328,610,2,0,L|379:336,1,170
292,248,1108,1,0,0:0:0:0:
408,116,1274,6,0,P|376:184|408:268,1,170
474,191,1772,1,0,0:0:0:0:
334,54,1938,2,0,L|164:68,1,170
105,199,2436,1,0,0:0:0:0:
135,206,2519,1,0,0:0:0:0:
167,207,2602,1,0,0:0:0:0:
199,202,2685,1,0,0:0:0:0:
228,190,2768,6,0,L|242:318,1,127.5
247,359,3100,1,0,0:0:0:0:
409,291,3266,2,0,P|367:284|320:294,1,85
407,200,3598,2,0,P|449:207|496:197,1,85
321,94,3930,2,0,L|312:181,1,85
449,120,4262,2,0,L|440:35,1,85
312,178,4595,6,0,P|298:236|320:300,1,127.5
338,332,4927,2,0,P|257:306|175:335,1,170
158,351,5342,1,0,0:0:0:0:
140,373,5425,6,0,L|127:238,1,127.5
125,209,5757,1,0,0:0:0:0:
251,302,5923,2,0,P|262:341|253:395,1,85
210,227,6255,2,0,P|199:188|208:134,1,85
328,50,6587,2,0,B|294:73|294:73|240:73,1,85
89,91,6919,2,0,B|123:68|123:68|177:68,1,85
371,141,7251,6,0,B|407:194|407:194|388:261,1,127.5
373,295,7583,2,0,L|199:301,1,170
171,305,7998,1,0,0:0:0:0:
137,305,8081,6,0,P|109:247|138:167,1,152.999995330811
162,149,8413,1,0,0:0:0:0:
292,245,8580,2,0,P|245:230|188:242,1,101.999996887207
340,173,8912,2,0,P|387:158|444:170,1,101.999996887207
338,325,9244,1,0,0:0:0:0:
262,154,9410,1,0,0:0:0:0:
394,239,9576,1,0,0:0:0:0:
238,315,9742,1,0,0:0:0:0:
404,95,9908,6,0,P|421:145|390:243,1,152.999995330811
377,273,10240,2,0,P|458:280|407:356,1,203.999993774414
372,356,10655,1,0,0:0:0:0:
332,351,10738,6,0,L|222:342,1,101.999996887207
85,324,11070,1,0,0:0:0:0:
246,188,11236,1,0,0:0:0:0:
222,342,11402,1,0,0:0:0:0:
105,145,11568,1,0,0:0:0:0:
259,37,11734,1,0,0:0:0:0:
367,191,11900,6,0,B|391:236|391:236|377:288,1,101.999996887207
217,151,12232,2,0,B|262:127|262:127|314:141,1,101.999996887207
186,309,12564,2,0,B|162:264|162:264|176:212,1,101.999996887207
338,351,12897,2,0,B|293:375|293:375|241:361,2,101.999996887207
407,281,13395,5,0,0:0:0:0:
456,203,13561,1,0,0:0:0:0:
398,131,13727,1,0,0:0:0:0:
312,165,13893,1,0,0:0:0:0:
317,261,14059,5,0,0:0:0:0:
227,288,14225,1,0,0:0:0:0:
170,216,14391,1,0,0:0:0:0:
224,140,14557,1,0,0:0:0:0:
312,165,14723,5,0,0:0:0:0:
312,165,15055,1,0,0:0:0:0:
224,140,15221,2,0,L|148:128,1,68
293,75,15553,2,0,L|369:87,1,68
501,117,15885,1,0,0:0:0:0:
501,117,15968,1,0,0:0:0:0:
501,117,16051,1,0,0:0:0:0:
365,236,16217,6,0,L|377:160,1,68
460,219,16549,2,0,L|448:295,1,68
356,384,16881,1,0,0:0:0:0:
272,268,17048,2,0,L|261:200,1,68
240,40,17380,5,0,0:0:0:0:
240,40,17712,1,0,0:0:0:0:
261,200,17878,2,0,P|229:212|193:208,1,68
148,128,18210,2,0,P|180:116|216:120,1,68
80,216,18542,1,0,0:0:0:0:
80,216,18625,1,0,0:0:0:0:
80,216,18708,5,0,0:0:0:0:
56,44,18874,2,0,L|64:124,1,68
96,308,19206,1,0,0:0:0:0:
208,200,19372,1,0,0:0:0:0:
244,179,19455,1,0,0:0:0:0:
286,171,19538,1,0,0:0:0:0:
327,179,19621,1,0,0:0:0:0:
364,200,19704,2,0,L|372:244,1,34
276,300,19870,2,0,L|281:266,1,34
380,348,20036,5,0,0:0:0:0:
380,348,20368,1,0,0:0:0:0:
464,276,20534,2,0,L|475:208,1,68
358,167,20866,2,0,L|369:234,1,68
436,112,21199,1,0,0:0:0:0:
436,112,21282,1,0,0:0:0:0:
436,112,21365,5,0,0:0:0:0:
316,44,21531,2,0,P|284:40|248:44,1,68
168,120,21863,2,0,P|201:116|235:120,1,68
104,188,22195,1,0,0:0:0:0:
220,264,22361,2,0,L|224:192,1,68
136,348,22693,5,0,0:0:0:0:
136,348,23025,1,0,0:0:0:0:
220,264,23191,2,0,B|252:256|252:256|288:264,1,68
324,352,23523,2,0,B|292:360|292:360|256:352,1,68
136,260,23855,1,0,0:0:0:0:
136,260,23938,1,0,0:0:0:0:
136,260,24021,5,0,0:0:0:0:
168,80,24187,1,0,0:0:0:0:
88,184,24353,1,0,0:0:0:0:
245,92,24519,1,0,0:0:0:0:
344,244,24685,5,0,0:0:0:0:
357,274,24768,1,0,0:0:0:0:
359,308,24851,1,0,0:0:0:0:
348,340,24934,1,0,0:0:0:0:
326,366,25017,1,0,0:0:0:0:
287,349,25100,1,0,0:0:0:0:
245,343,25183,1,0,0:0:0:0:
203,351,25266,1,0,0:0:0:0:
166,370,25349,6,0,P|124:376|80:360,2,85
288,280,25848,1,0,0:0:0:0:
136,260,26014,1,0,0:0:0:0:
232,140,26180,2,0,P|245:99|239:58,1,85
96,112,26512,1,0,0:0:0:0:
96,112,26595,1,0,0:0:0:0:
96,112,26678,5,0,0:0:0:0:
224,220,26844,1,0,0:0:0:0:
64,272,27010,1,0,0:0:0:0:
192,136,27176,2,0,L|308:132,1,85
292,312,27508,2,0,L|176:316,1,85
348,224,27840,1,0,0:0:0:0:
348,224,27923,1,0,0:0:0:0:
348,224,28006,6,0,P|388:216|432:224,1,85
364,380,28338,1,0,0:0:0:0:
260,224,28504,1,0,0:0:0:0:
200,384,28670,1,0,0:0:0:0:
348,224,28836,2,0,P|388:216|432:224,1,85
280,320,29168,1,0,0:0:0:0:
280,320,29251,1,0,0:0:0:0:
280,320,29334,5,0,0:0:0:0:
220,144,29500,2,0,L|304:148,1,85
152,244,29833,1,0,0:0:0:0:
180,68,29999,1,0,0:0:0:0:
219,52,30082,1,0,0:0:0:0:
261,48,30165,1,0,0:0:0:0:
303,54,30248,1,0,0:0:0:0:
342,71,30331,2,0,P|360:76|384:72,1,42.5
484,152,30497,2,0,P|466:147|442:151,1,42.5
332,228,30663,6,0,P|356:192|356:148,2,85
236,344,31161,1,0,0:0:0:0:
188,204,31327,1,0,0:0:0:0:
340,324,31493,2,0,L|424:328,1,85
328,224,31825,1,0,0:0:0:0:
328,224,31908,1,0,0:0:0:0:
328,224,31991,5,0,0:0:0:0:
168,288,32157,2,0,P|128:300|88:288,1,85
124,160,32489,2,0,L|128:204,2,42.5
248,268,32821,2,0,L|244:312,2,42.5
356,144,33153,1,0,0:0:0:0:
356,144,33236,1,0,0:0:0:0:
356,144,33319,6,0,P|372:104|364:56,1,85
252,164,33651,1,0,0:0:0:0:
132,40,33817,1,0,0:0:0:0:
288,88,33984,1,0,0:0:0:0:
52,80,34150,1,0,0:0:0:0:
213,59,34316,1,0,0:0:0:0:
136,248,34482,1,0,0:0:0:0:
136,248,34565,1,0,0:0:0:0:
136,248,34648,5,0,0:0:0:0:
272,192,34814,2,0,P|312:184|356:192,1,85
264,332,35146,1,0,0:0:0:0:
184,168,35312,1,0,0:0:0:0:
412,116,35478,6,0,P|447:188|439:232,1,127.499996109009
428,256,35976,6,0,B|424:296|424:296|444:340,1,85
504,184,36308,1,0,0:0:0:0:
312,200,36474,1,0,0:0:0:0:
312,200,36557,1,0,0:0:0:0:
312,200,36640,2,0,L|224:204,1,85
44,220,36972,1,0,0:0:0:0:
168,104,37138,1,0,0:0:0:0:
136,324,37304,5,0,0:0:0:0:
97,158,37470,1,0,0:0:0:0:
263,119,37636,1,0,0:0:0:0:
302,285,37802,1,0,0:0:0:0:
168,104,37968,2,0,L|144:20,1,85
320,32,38301,1,0,0:0:0:0:
196,212,38467,1,0,0:0:0:0:
416,244,38633,6,0,P|440:179|425:111,1,140.25000428009
410,86,38965,1,0,0:0:0:0:
310,170,39131,1,0,0:0:0:0:
191,254,39297,6,0,P|164:183|177:109,1,152.999995330811
197,75,39629,1,0,0:0:0:0:
310,170,39795,1,0,0:0:0:0:
402,300,39961,6,0,P|324:329|243:314,1,165.749992412568
206,293,40293,1,0,0:0:0:0:
310,170,40459,1,0,0:0:0:0:
210,29,40625,6,0,P|293:-2|382:13,1,178.499994552612
423,37,40957,1,0,0:0:0:0:
310,170,41123,6,0,P|240:208|148:180,1,170
48,68,41621,1,0,0:0:0:0:
68,248,41787,1,0,0:0:0:0:
225,110,41953,2,0,P|225:70|207:24,1,85
52,166,42286,2,0,P|52:206|70:252,1,85
240,384,42618,5,0,0:0:0:0:
284,152,42784,1,0,0:0:0:0:
67,247,42950,1,0,0:0:0:0:
324,284,43116,6,0,L|376:292,1,42.5
336,292,43448,6,0,L|388:300,1,42.5
352,300,43780,6,0,L|439:313,1,85
376,208,44112,1,0,0:0:0:0:
336,384,44278,1,0,0:0:0:0:
211,259,44444,1,0,0:0:0:0:
376,208,44610,2,0,P|417:198|466:208,1,85
316,288,44942,1,0,0:0:0:0:
288,100,45108,1,0,0:0:0:0:
464,120,45274,5,0,0:0:0:0:
236,164,45440,1,0,0:0:0:0:
416,204,45606,5,0,0:0:0:0:
212,90,45772,1,0,0:0:0:0:
340,268,45938,5,0,0:0:0:0:
355,306,46021,1,0,0:0:0:0:
345,347,46104,1,0,0:0:0:0:
313,373,46187,1,0,0:0:0:0:
271,375,46270,1,0,0:0:0:0:
234,355,46353,1,0,0:0:0:0:
193,346,46436,1,0,0:0:0:0:
151,350,46520,1,0,0:0:0:0:
111,366,46603,6,0,L|108:300,1,55.2499974708558
164,192,46769,2,0,L|167:247,1,55.2499974708558
56,200,46935,1,0,0:0:0:0:
256,240,47101,1,0,0:0:0:0:
300,36,47267,1,0,0:0:0:0:
180,196,47433,1,0,0:0:0:0:
218,10,47599,1,0,0:0:0:0:
332,204,47765,6,0,P|348:256|332:308,1,110.499994941712
165,348,48097,1,0,0:0:0:0:
147,310,48180,1,0,0:0:0:0:
140,270,48263,1,0,0:0:0:0:
146,229,48346,1,0,0:0:0:0:
163,191,48429,2,0,L|232:96,1,110.499994941712
400,220,48761,2,0,L|331:315,1,110.499994941712
352,108,49093,1,0,0:0:0:0:
352,108,49176,1,0,0:0:0:0:
352,108,49259,5,0,0:0:0:0:
192,208,49425,1,0,0:0:0:0:
281,42,49591,1,0,0:0:0:0:
287,231,49757,2,0,L|292:352,1,110.499994941712
108,368,50089,2,0,L|103:257,1,110.499994941712
92,72,50421,6,0,P|136:52|108:120,1,165.749992412568
96,152,50754,2,0,L|100:224,1,55.2499974708558
108,368,50920,1,0,0:0:0:0:
328,328,51086,6,0,B|300:324|300:324|272:328,1,55.2499974708558
348,304,51418,6,0,B|376:300|376:300|404:304,1,55.2499974708558
496,332,51584,2,0,P|480:280|496:220,1,110.499994941712
488,200,51833,1,0,0:0:0:0:
480,172,51916,5,0,0:0:0:0:
320,41,52082,1,0,0:0:0:0:
328,236,52248,1,0,0:0:0:0:
472,32,52414,2,0,P|396:8|312:52,1,165.749992412568
300,68,52746,1,0,0:0:0:0:
408,256,52912,1,0,0:0:0:0:
224,152,53078,6,0,P|172:136|120:152,1,110.499994941712
16,312,53410,1,0,0:0:0:0:
36,104,53576,1,0,0:0:0:0:
200,332,53742,1,0,0:0:0:0:
29,210,53908,1,0,0:0:0:0:
276,200,54074,1,0,0:0:0:0:
105,322,54240,1,0,0:0:0:0:
204,116,54406,1,0,0:0:0:0:
204,116,54489,1,0,0:0:0:0:
204,116,54572,6,0,P|256:88|308:92,1,110.499994941712
168,216,54905,1,0,0:0:0:0:
303,306,55071,2,0,L|271:182,1,110.499994941712
236,40,55403,1,0,0:0:0:0:
173,246,55569,1,0,0:0:0:0:
384,198,55735,6,0,L|440:188,1,55.2499974708558
201,304,56067,2,0,P|137:332|189:256,1,220.999989883423
400,208,56565,1,0,0:0:0:0:
304,356,56731,1,0,0:0:0:0:
240,172,56897,1,0,0:0:0:0:
225,133,56980,1,0,0:0:0:0:
226,92,57063,1,0,0:0:0:0:
241,54,57146,1,0,0:0:0:0:
270,24,57229,6,0,L|332:16,1,55.2499974708558
368,104,57395,2,0,L|306:112,1,55.2499974708558
408,24,57561,1,0,0:0:0:0:
344,276,57727,1,0,0:0:0:0:
313,111,57893,1,0,0:0:0:0:
248,312,58059,1,0,0:0:0:0:
360,188,58225,1,0,0:0:0:0:
191,50,58391,6,0,P|136:40|84:60,1,110.499994941712
202,201,58723,1,0,0:0:0:0:
241,213,58806,1,0,0:0:0:0:
282,215,58889,1,0,0:0:0:0:
322,206,58972,1,0,0:0:0:0:
359,187,59055,2,0,L|368:308,1,110.499994941712
280,132,59388,2,0,L|288:11,1,110.499994941712
432,140,59720,1,0,0:0:0:0:
432,140,59803,1,0,0:0:0:0:
432,140,59886,5,0,0:0:0:0:
188,64,60052,1,0,0:0:0:0:
388,56,60218,1,0,0:0:0:0:
144,132,60384,2,0,L|136:248,1,110.499994941712
272,68,60716,1,0,0:0:0:0:
96,56,60882,1,0,0:0:0:0:
240,196,61048,6,0,P|336:228|256:160,1,276.249987354279
220,160,61546,2,0,L|148:172,1,55.2499974708558
40,240,61712,6,0,B|64:244|64:244|96:236,1,55.2499974708558
321,148,62044,6,0,B|297:144|297:144|265:152,1,55.2499974708558
172,192,62210,2,0,P|168:116|96:68,1,165.749992412568
64,52,62542,6,0,P|116:40|172:0,1,110.499994941712
304,40,62874,1,0,0:0:0:0:
212,164,63040,2,0,L|228:44,1,110.499994941712
344,156,63373,2,0,L|358:265,1,110.499994941712
448,136,63705,5,0,0:0:0:0:
276,96,63871,1,0,0:0:0:0:
428,224,64037,1,0,0:0:0:0:
468,52,64203,1,0,0:0:0:0:
276,176,64369,5,0,0:0:0:0:
448,136,64535,1,0,0:0:0:0:
188,72,64701,5,0,0:0:0:0:
360,112,64867,1,0,0:0:0:0:
377,149,64950,1,0,0:0:0:0:
380,190,65033,1,0,0:0:0:0:
368,229,65116,1,0,0:0:0:0:
341,260,65199,6,0,L|172:276,1,170
16,292,65697,1,0,0:0:0:0:
16,296,66029,5,0,0:0:0:0:
148,56,66195,1,0,0:0:0:0:
116,328,66361,1,0,0:0:0:0:
336,152,66527,6,0,P|416:144|480:204,1,170
304,340,67025,1,0,0:0:0:0:
392,220,67191,1,0,0:0:0:0:
416,368,67357,1,0,0:0:0:0:
184,300,67523,1,0,0:0:0:0:
272,136,67690,6,0,L|276:220,1,85
144,144,68022,2,0,L|148:60,1,85
288,136,68354,6,0,L|292:236,1,85
134,145,68686,2,0,L|138:44,1,85
184,224,69018,1,0,0:0:0:0:
184,224,69101,1,0,0:0:0:0:
184,224,69184,6,0,P|140:240|96:232,1,85
216,120,69516,1,0,0:0:0:0:
236,328,69682,1,0,0:0:0:0:
316,156,69848,1,0,0:0:0:0:
145,277,70014,1,0,0:0:0:0:
252,48,70180,1,0,0:0:0:0:
384,264,70346,6,0,L|392:312,1,42.5
316,156,70678,6,0,L|322:114,1,42.5
228,260,71010,6,0,L|236:308,1,42.5
160,152,71342,6,0,L|166:110,1,42.5
144,240,71508,1,0,0:0:0:0:
56,76,71674,1,0,0:0:0:0:
284,52,71841,6,0,P|324:56|360:92,1,93.5000028533936
304,224,72173,1,0,0:0:0:0:
304,224,72256,1,0,0:0:0:0:
304,224,72339,2,0,L|290:131,1,93.5000028533936
181,253,72671,2,0,L|168:346,1,93.5000028533936
296,188,73003,5,0,0:0:0:0:
88,152,73169,1,0,0:0:0:0:
364,152,73335,5,0,0:0:0:0:
156,188,73501,1,0,0:0:0:0:
420,100,73667,6,0,P|456:96|524:120,1,93.5000028533936
352,256,73999,2,0,P|307:270|261:267,1,93.5000028533936
288,92,74331,1,0,0:0:0:0:
288,92,74414,1,0,0:0:0:0:
288,92,74497,6,0,L|296:188,1,93.5000028533936
436,296,74829,1,0,0:0:0:0:
436,296,74912,1,0,0:0:0:0:
436,296,74995,2,0,L|428:202,1,93.5000028533936
304,280,75327,2,0,L|311:373,1,93.5000028533936
368,152,75659,1,0,0:0:0:0:
188,192,75825,5,0,0:0:0:0:
416,64,75992,1,0,0:0:0:0:
244,264,76158,5,0,0:0:0:0:
336,20,76324,1,0,0:0:0:0:
304,332,76490,5,0,0:0:0:0:
262,351,76573,1,0,0:0:0:0:
216,346,76656,1,0,0:0:0:0:
180,318,76739,1,0,0:0:0:0:
164,274,76822,5,0,0:0:0:0:
122,255,76905,1,0,0:0:0:0:
76,260,76988,1,0,0:0:0:0:
40,288,77071,1,0,0:0:0:0:
24,332,77154,6,0,L|16:212,1,110.499994941712
12,8,77486,5,0,0:0:0:0:
108,228,77652,1,0,0:0:0:0:
112,1,77818,5,0,0:0:0:0:
16,221,77984,1,0,0:0:0:0:
244,48,78150,5,0,0:0:0:0:
13,115,78316,1,0,0:0:0:0:
272,116,78482,5,0,0:0:0:0:
41,49,78648,1,0,0:0:0:0:
320,52,78814,5,0,0:0:0:0:
152,216,78980,2,0,L|144:100,1,110.499994941712
336,240,79312,2,0,L|328:350,1,110.499994941712
252,156,79644,1,0,0:0:0:0:
252,156,79727,1,0,0:0:0:0:
252,156,79810,6,0,P|240:100|260:40,1,110.499994941712
372,208,80142,5,0,0:0:0:0:
160,244,80309,1,0,0:0:0:0:
352,136,80475,5,0,0:0:0:0:
212,299,80641,1,0,0:0:0:0:
288,80,80807,5,0,0:0:0:0:
285,337,80973,1,0,0:0:0:0:
380,160,81139,5,0,0:0:0:0:
155,285,81305,1,0,0:0:0:0:
356,276,81471,5,0,0:0:0:0:
131,151,81637,1,0,0:0:0:0:
332,80,81803,5,0,0:0:0:0:
370,65,81886,1,0,0:0:0:0:
411,67,81969,1,0,0:0:0:0:
447,87,82052,1,0,0:0:0:0:
470,121,82135,1,0,0:0:0:0:
451,157,82218,1,0,0:0:0:0:
444,198,82301,1,0,0:0:0:0:
451,238,82384,1,0,0:0:0:0:
471,275,82467,5,0,0:0:0:0:
200,224,82633,1,0,0:0:0:0:
448,208,82799,5,0,0:0:0:0:
187,299,82965,1,0,0:0:0:0:
400,160,83131,5,0,0:0:0:0:
219,369,83297,1,0,0:0:0:0:
255,167,83463,5,0,0:0:0:0:
464,348,83629,1,0,0:0:0:0:
176,220,83795,5,0,0:0:0:0:
498,281,83961,1,0,0:0:0:0:
132,280,84127,5,0,0:0:0:0:
454,219,84293,1,0,0:0:0:0:
56,192,84460,5,0,0:0:0:0:
378,253,84626,1,0,0:0:0:0:
92,112,84792,5,0,0:0:0:0:
340,325,84958,1,0,0:0:0:0:
340,325,85041,1,0,0:0:0:0:
340,325,85124,6,0,P|388:336|448:300,1,110.499994941712
364,160,85456,2,0,L|372:216,1,55.2499974708558
372,240,85622,6,0,P|324:251|264:215,1,110.499994941712
348,75,85954,2,0,L|340:131,1,55.2499974708558
336,160,86120,5,0,0:0:0:0:
80,360,86286,1,0,0:0:0:0:
228,156,86452,5,0,0:0:0:0:
484,356,86618,1,0,0:0:0:0:
336,108,86784,5,0,0:0:0:0:
284,65,86867,1,0,0:0:0:0:
219,55,86950,1,0,0:0:0:0:
157,76,87033,1,0,0:0:0:0:
113,124,87116,5,0,0:0:0:0:
256,192,87199,12,0,89109,0:0:0:0:
