osu file format v14

[General]
AudioFilename: audio.mp3
AudioLeadIn: 0
PreviewTime: 46534
Countdown: 1
SampleSet: None
StackLeniency: 0.4
Mode: 0
LetterboxInBreaks: 0
WidescreenStoryboard: 1

[Editor]
DistanceSpacing: 1.1
BeatDivisor: 4
GridSize: 32
TimelineZoom: 2

[Metadata]
Title:Guren no Yumiya (TV Size)
TitleUnicode:紅蓮の弓矢 (TV Size)
Artist:Linked Horizon
ArtistUnicode:Linked Horizon
Creator:Sly Instinct
Version:Light Insane
Source:進撃の巨人
Tags:Shingeki no Kyojin Kiseki revo Wit studio attack on titan opening Eren Jaeger Mikasa Ackerman Armin Arlert scouting legion
BeatmapID:1816373
BeatmapSetID:869078

[Difficulty]
HPDrainRate:5.5
CircleSize:4
OverallDifficulty:7.5
ApproachRate:8.7
SliderMultiplier:2
SliderTickRate:2

[Events]
//Background and Video events
0,0,"BG.png",0,0
//Break Periods
//Storyboard Layer 0 (Background)
//Storyboard Layer 1 (Fail)
//Storyboard Layer 2 (Pass)
//Storyboard Layer 3 (Foreground)
//Storyboard Sound Samples

[TimingPoints]
126,332.078813371707,4,3,1,50,1,0
2782,-100,4,1,1,50,0,0
14737,-100,4,1,1,50,0,0
14903,-125,4,2,1,50,0,0
25363,-111.111111111111,4,3,1,50,0,0
35990,-111.111111111111,4,1,1,50,0,0
39975,-105.263157894737,4,1,1,50,0,0
40639,-100,4,1,1,50,0,0
46617,-100,4,1,1,50,0,1
48941,-100,4,1,2,50,0,1
49024,-100,4,1,1,50,0,1
51598,-100,4,1,2,50,0,1
51681,-100,4,1,1,50,0,1
54254,-100,4,1,2,50,0,1
54337,-100,4,1,1,50,0,1
59568,-100,4,1,2,50,0,1
59651,-100,4,1,1,50,0,1
65213,-133.333333333333,4,2,1,50,0,0
66541,-100,4,1,1,50,0,0
77168,-90.9090909090909,4,1,1,50,0,0
82481,-86.9565217391304,4,1,1,50,0,0
86466,-86.9565217391304,4,3,1,50,0,0

[Colours]
Combo1 : 236,179,45
Combo2 : 97,70,50
Combo3 : 153,60,49
Combo4 : 221,68,40
SliderBorder : 250,215,90

[HitObjects]
380,84,126,5,4,0:0:0:0:
449,168,292,1,0,0:0:0:0:
417,273,458,1,0,0:0:0:0:
321,327,624,2,0,P|231:332|179:245,1,200
203,139,1122,1,0,0:0:0:0:
283,63,1288,2,0,P|365:64|401:174,1,200
329,241,1786,1,0,0:0:0:0:
328,131,1952,2,0,B|223:138|223:138|183:186|210:233,1,200
217,253,2367,5,0,0:0:0:0:
231,279,2450,1,0,0:0:0:0:
251,301,2533,1,0,0:0:0:0:
274,319,2616,1,0,0:0:0:0:
299,334,2699,1,0,0:0:0:0:
328,340,2782,6,0,L|428:322,1,100,4|0,0:0|0:0,0:0:0:0:
477,224,3114,1,10,0:0:0:0:
367,230,3280,2,0,P|325:213|293:165,1,100
245,70,3612,2,0,P|196:37|142:47,1,100,0|10,0:0|0:0,0:0:0:0:
86,124,3944,2,0,L|56:229,1,100
165,193,4276,2,0,L|175:298,1,100,0|10,0:0|0:0,0:0:0:0:
268,233,4609,2,0,L|313:324,1,100
386,241,4941,2,0,L|468:329,2,100,0|10|0,0:0|0:0|0:0,0:0:0:0:
408,133,5439,6,0,P|388:85|342:63,1,100,4|0,0:0|0:0,0:0:0:0:
252,119,5771,1,10,0:0:0:0:
306,214,5937,2,0,L|410:214,1,100
470,303,6269,2,0,L|366:303,1,100,2|8,0:0|0:0,0:0:0:0:
263,332,6601,6,0,B|236:290|236:290|236:238,1,100,2|0,0:0|0:0,0:0:0:0:
116,199,6933,2,0,B|158:172|158:172|210:172,1,100,2|8,0:0|0:0,0:0:0:0:
249,52,7265,2,0,B|276:94|276:94|276:146,1,100,2|0,0:0|0:0,0:0:0:0:
396,185,7597,2,0,B|354:212|354:212|302:212,2,100,2|8|0,0:0|0:0|0:0,0:0:0:0:
440,84,8095,6,0,P|396:44|354:45,1,100,4|0,0:0|0:0,0:0:0:0:
277,119,8427,1,10,0:0:0:0:
184,58,8594,2,0,L|184:162,1,100
229,258,8926,2,0,P|187:308|145:314,1,100,0|10,0:0|0:0,0:0:0:0:
78,236,9258,2,0,L|71:133,1,100
174,173,9590,2,0,L|219:77,1,100,0|10,0:0|0:0,0:0:0:0:
301,152,9922,2,0,L|381:74,1,100
407,186,10254,2,0,L|513:169,2,100,0|10|0,0:0|0:0|0:0,0:0:0:0:
363,286,10752,6,0,P|314:307|266:300,1,100,4|0,0:0|0:0,0:0:0:0:
174,244,11084,1,10,0:0:0:0:
105,158,11250,2,0,P|154:137|202:144,1,100
302,181,11582,2,0,L|401:181,1,100,2|8,0:0|0:0,0:0:0:0:
338,91,11914,6,0,P|366:49|415:37,1,100,2|0,0:0|0:0,0:0:0:0:
399,146,12246,2,0,P|441:174|453:223,1,100,2|8,0:0|0:0,0:0:0:0:
344,206,12578,2,0,P|316:248|267:260,1,100,2|0,0:0|0:0,0:0:0:0:
284,150,12911,2,0,P|242:122|230:73,2,100,2|8|0,0:0|0:0|0:0,0:0:0:0:
385,191,13409,5,4,2:0:0:0:
493,173,13575,1,0,2:0:0:0:
459,277,13741,1,0,2:0:0:0:
385,191,13907,1,0,2:0:0:0:
351,295,14073,1,0,2:0:0:0:
277,209,14239,1,0,2:0:0:0:
243,313,14405,2,0,P|171:323|113:275,1,150,0|0,2:0|2:0,2:0:0:0:
100,237,14737,6,0,L|90:132,1,100,4|0,0:3|0:0,0:0:0:0:
149,37,15069,5,0,0:0:0:0:
223,83,15235,2,0,L|241:166,1,80
311,109,15567,2,0,L|329:192,1,80
408,152,15899,1,0,0:0:0:0:
408,152,15982,1,0,0:0:0:0:
408,152,16065,2,0,L|426:235,1,80,8|0,0:0|0:0,0:0:0:0:
370,299,16397,2,0,L|388:382,2,80
316,229,16895,2,0,P|277:214|243:227,1,80
226,238,17145,5,0,0:0:0:0:
208,248,17228,1,0,0:0:0:0:
190,257,17311,1,0,0:0:0:0:
171,265,17394,6,0,P|129:274|94:263,1,80,4|0,0:0|0:0,0:0:0:0:
51,186,17726,1,0,0:0:0:0:
74,101,17892,2,0,P|89:66|128:46,1,80
182,112,18224,2,0,P|210:143|249:154,1,80
319,106,18556,2,0,L|319:54,2,40,0|0|8,0:0|0:0|0:0,0:0:0:0:
405,121,18888,2,0,P|416:167|404:210,1,80
346,259,19220,2,0,L|260:265,1,80
246,262,19469,5,0,0:0:0:0:
227,255,19552,1,8,0:0:0:0:
209,244,19635,1,0,0:0:0:0:
194,230,19718,2,0,L|176:188,3,40
180,173,20050,6,0,L|193:93,1,80,12|0,0:0|0:0,0:0:0:0:
260,38,20382,1,0,0:0:0:0:
337,79,20548,2,0,L|422:95,1,80
448,175,20880,2,0,L|363:159,1,80
285,187,21213,2,0,L|270:229,2,40,0|0|8,0:0|0:0|0:0,0:0:0:0:
228,119,21545,2,0,L|143:103,1,80
69,142,21877,2,0,P|46:183|50:222,1,80
100,285,22209,2,0,P|128:243|127:211,1,80
124,195,22458,5,0,0:0:0:0:
118,175,22541,1,0,0:0:0:0:
111,156,22624,1,0,0:0:0:0:
104,136,22707,6,0,B|101:93|101:93|118:54,1,80,4|0,0:0|0:0,0:0:0:0:
203,54,23039,1,0,0:0:0:0:
239,134,23205,2,0,P|249:174|239:217,1,80
180,275,23537,2,0,P|170:315|180:358,1,80
265,357,23869,2,0,L|309:365,2,40,0|0|8,0:0|0:0|0:0,0:0:0:0:
252,269,24201,2,0,P|296:263|341:280,1,80
415,292,24533,2,0,P|435:253|426:212,1,80
396,136,24865,5,0,0:0:0:0:
379,118,24948,1,0,0:0:0:0:
359,104,25031,1,0,0:0:0:0:
336,95,25114,1,0,0:0:0:0:
312,89,25197,1,0,0:0:0:0:
288,88,25280,1,0,0:0:0:0:
261,93,25363,6,0,L|171:113,1,89.9999972534181,4|0,0:0|0:0,0:0:0:0:
79,144,25696,1,2,0:0:0:0:
41,235,25862,2,0,P|54:283|90:308,1,89.9999972534181
180,331,26194,2,0,L|276:317,1,89.9999972534181,0|2,0:0|0:0,0:0:0:0:
364,290,26526,1,0,0:0:0:0:
364,290,26609,1,0,0:0:0:0:
364,290,26692,1,8,0:0:0:0:
415,205,26858,2,0,P|425:165|400:120,1,89.9999972534181,0|2,0:0|0:0,0:0:0:0:
334,52,27190,2,0,L|326:2,2,44.999998626709,0|0|8,0:0|0:0|0:0,0:0:0:0:
283,137,27522,6,0,L|293:234,1,89.9999972534181,0|2,0:0|0:0,0:0:0:0:
285,248,27771,1,0,0:0:0:0:
274,268,27854,1,0,0:0:0:0:
258,284,27937,1,0,0:0:0:0:
241,298,28020,6,0,P|194:317|150:305,1,89.9999972534181,4|0,0:0|0:0,0:0:0:0:
73,254,28352,1,2,0:0:0:0:
34,162,28518,2,0,L|126:150,1,89.9999972534181
200,88,28850,2,0,P|248:80|292:100,1,89.9999972534181,0|2,0:0|0:0,0:0:0:0:
369,147,29182,1,0,0:0:0:0:
369,147,29265,1,0,0:0:0:0:
369,147,29348,1,8,0:0:0:0:
416,233,29514,2,0,B|403:280|403:280|374:313,1,89.9999972534181,0|2,0:0|0:0,0:0:0:0:
281,341,29847,2,0,L|235:365,2,44.999998626709,0|0|8,0:0|0:0|0:0,0:0:0:0:
321,250,30179,6,0,P|341:204|334:164,1,89.9999972534181,0|2,0:0|0:0,0:0:0:0:
323,146,30428,1,0,0:0:0:0:
308,128,30511,1,0,0:0:0:0:
291,112,30594,1,0,0:0:0:0:
272,99,30677,6,0,L|176:90,1,89.9999972534181,12|0,0:0|0:0,0:0:0:0:
97,141,31009,1,2,0:0:0:0:
162,214,31175,2,0,P|211:220|252:203,1,89.9999972534181,0|8,0:0|0:0,0:0:0:0:
316,134,31507,2,0,L|411:122,1,89.9999972534181,0|2,0:0|0:0,0:0:0:0:
452,219,31839,1,0,0:0:0:0:
452,219,31922,1,0,0:0:0:0:
452,219,32005,2,0,L|493:307,2,89.9999972534181,8|0|2,0:0|0:0|0:0,0:0:0:0:
353,251,32503,1,0,0:0:0:0:
353,251,32586,1,0,0:0:0:0:
353,251,32669,2,0,B|337:297|337:297|303:321,1,89.9999972534181,8|0,0:0|0:0,0:0:0:0:
204,326,33001,5,2,0:0:0:0:
183,317,33084,1,0,0:0:0:0:
165,302,33167,1,0,0:0:0:0:
151,284,33250,1,0,0:0:0:0:
142,263,33333,6,0,L|146:173,1,89.9999972534181,12|0,0:0|0:0,0:0:0:0:
181,80,33665,1,2,0:0:0:0:
259,140,33831,2,0,L|358:149,1,89.9999972534181,8|8,0:0|0:0,0:0:0:0:
439,189,34164,2,0,P|454:236|442:282,1,89.9999972534181,8|2,0:0|0:0,0:0:0:0:
353,239,34496,2,0,P|338:286|302:316,1,89.9999972534181,8|8,0:0|0:0,0:0:0:0:
251,232,34828,2,0,P|211:262|164:266,1,89.9999972534181,8|0,0:0|0:0,0:0:0:0:
102,197,35160,1,0,0:0:0:0:
296,158,35492,1,0,0:0:0:0:
296,158,35990,6,0,P|315:264|266:312,1,179.999994506836,4|8,0:0|0:0,0:0:0:0:
173,330,36488,1,0,0:0:0:0:
109,254,36654,1,8,0:0:0:0:
160,169,36820,1,0,0:0:0:0:
218,249,36986,1,8,0:0:0:0:
272,166,37152,1,0,0:0:0:0:
327,247,37318,1,8,0:0:0:0:
372,158,37484,1,0,0:0:0:0:
426,240,37650,2,0,P|489:184|463:91,2,179.999994506836,8|8|8,0:0|0:0|0:0,0:0:0:0:
377,117,38536,5,0,0:0:0:0:
377,117,38647,2,0,B|289:97|289:97|201:117,1,179.999994506836,14|0,0:0|0:0,0:0:0:0:
88,184,39200,5,0,0:0:0:0:
88,184,39311,2,0,B|176:204|176:204|264:184,1,179.999994506836,14|0,0:0|0:0,0:0:0:0:
391,151,39864,5,0,0:0:0:0:
391,151,39975,2,0,P|400:253|327:294,1,189.999994926453,14|0,0:0|0:0,0:0:0:0:
189,313,40528,5,0,0:0:0:0:
152,317,40639,2,0,L|50:325,2,100,14|0|8,0:0|0:0|0:0,0:0:0:0:
287,303,41137,6,0,P|366:258|363:149,1,200,4|0,0:0|0:0,0:0:0:0:
281,89,41635,1,8,0:0:0:0:
174,117,41801,1,0,0:0:0:0:
244,201,41967,2,0,L|344:201,1,100
416,117,42300,2,0,L|315:117,1,100,8|0,0:0|0:0,0:0:0:0:
220,62,42632,5,0,0:0:0:0:
209,171,42798,1,0,0:0:0:0:
121,104,42964,1,8,0:0:0:0:
110,213,43130,1,2,0:0:0:0:
110,213,43462,1,2,0:0:0:0:
191,286,43628,1,8,0:0:0:0:
298,309,43794,6,0,P|380:272|351:173,1,200,4|0,0:0|0:0,0:0:0:0:
269,116,44292,1,8,0:0:0:0:
178,178,44458,1,0,0:0:0:0:
267,237,44624,2,0,L|373:243,1,100
458,181,44956,1,8,0:0:0:0:
405,84,45122,1,0,0:0:0:0:
302,43,45288,6,0,L|197:60,1,100,8|0,0:0|0:0,0:0:0:0:
138,209,45620,2,0,L|243:192,1,100,8|0,0:0|0:0,0:0:0:0:
386,162,45952,5,8,0:0:0:0:
418,175,46035,1,8,0:0:0:0:
441,201,46118,1,8,0:0:0:0:
453,233,46201,1,8,0:0:0:0:
453,267,46284,2,0,L|441:317,3,50,8|8|8|8,0:0|0:0|0:0|0:0,0:0:0:0:
408,339,46617,5,4,0:0:0:0:
318,225,46783,1,0,0:0:0:0:
276,357,46949,1,8,0:0:0:0:
382,266,47115,2,0,P|419:229|424:182,1,100
379,82,47447,2,0,L|277:71,1,100,0|8,0:0|0:0,0:0:0:0:
174,103,47779,6,0,P|121:187|177:264,1,200,4|0,0:0|0:0,0:0:0:0:
280,269,48277,1,8,0:0:0:0:
208,185,48443,2,0,L|331:169,1,100
382,92,48775,2,0,P|427:180|364:252,1,200
265,279,49273,5,4,0:0:0:0:
170,222,49439,1,0,0:0:0:0:
171,112,49605,1,8,0:0:0:0:
267,59,49771,2,0,L|267:166,1,100
180,226,50103,2,0,P|132:256|119:304,1,100,0|8,0:0|0:0,0:0:0:0:
224,325,50435,6,0,P|320:358|373:288,1,200,6|0,0:0|0:0,0:0:0:0:
392,181,50934,1,8,0:0:0:0:
453,89,51100,2,0,P|414:61|359:65,1,100,6|0,0:0|0:0,0:0:0:0:
269,120,51432,2,0,B|215:136|215:136|140:105|140:105|80:125,1,200,6|0,0:0|0:0,0:0:0:0:
30,222,51930,5,4,0:0:0:0:
159,277,52096,1,0,0:0:0:0:
130,164,52262,1,8,0:0:0:0:
88,300,52428,2,0,L|195:315,1,100
296,324,52760,2,0,P|343:315|381:274,1,100,0|8,0:0|0:0,0:0:0:0:
327,181,53092,6,0,P|324:103|438:70,1,200,4|0,0:0|0:0,0:0:0:0:
500,143,53590,1,8,0:0:0:0:
390,134,53756,2,0,L|282:125,1,100
180,123,54088,2,0,P|111:204|146:281,1,200
238,336,54586,5,4,0:0:0:0:
299,244,54752,1,0,0:0:0:0:
384,314,54919,1,8,0:0:0:0:
440,219,55085,2,0,P|451:155|432:116,1,100
350,58,55417,1,0,0:0:0:0:
256,115,55583,1,8,0:0:0:0:
349,172,55749,2,0,L|348:272,1,100,4|0,0:0|0:0,0:0:0:0:
258,335,56081,6,0,L|158:355,2,100,6|8|0,0:0|0:0|0:0,0:0:0:0:
328,251,56579,2,0,L|428:231,2,100,6|0|8,0:0|0:0|0:0,0:0:0:0:
293,257,56994,1,8,0:0:0:0:
258,254,57077,1,8,0:0:0:0:
224,242,57160,1,8,0:0:0:0:
196,219,57243,5,4,0:0:0:0:
187,67,57409,1,0,0:0:0:0:
268,169,57575,1,8,0:0:0:0:
109,128,57741,2,0,P|101:187|117:228,1,100
190,303,58073,2,0,L|295:316,1,100,0|8,0:0|0:0,0:0:0:0:
395,288,58405,6,0,P|461:235|419:141,1,200,4|0,0:0|0:0,0:0:0:0:
318,103,58903,1,8,0:0:0:0:
225,163,59069,2,0,L|245:265,1,100
308,351,59402,2,0,P|361:286|308:198,1,200
207,151,59900,5,4,0:0:0:0:
115,212,60066,1,0,0:0:0:0:
215,257,60232,1,8,0:0:0:0:
125,321,60398,2,0,P|76:309|47:263,1,100
38,160,60730,2,0,P|55:116|107:88,1,100,0|8,0:0|0:0,0:0:0:0:
208,82,61062,6,0,L|410:109,1,200,6|0,0:0|0:0,0:0:0:0:
450,209,61560,1,8,0:0:0:0:
345,174,61726,2,0,B|329:222|329:222|345:270,1,100,6|0,0:0|0:0,0:0:0:0:
246,318,62058,2,0,B|262:270|262:270|246:222,1,100,6|8,0:0|0:0,0:0:0:0:
246,223,62307,1,0,0:0:0:0:
246,223,62390,1,0,0:0:0:0:
173,138,62556,5,4,0:0:0:0:
71,217,62722,1,0,0:0:0:0:
185,266,62888,1,8,0:0:0:0:
112,125,63054,2,0,L|223:104,1,100
298,40,63387,2,0,P|330:87|327:137,1,100,0|8,0:0|0:0,0:0:0:0:
255,209,63719,6,0,P|268:291|377:291,1,200,4|0,0:0|0:0,0:0:0:0:
430,206,64217,1,8,0:0:0:0:
382,106,64383,2,0,L|282:106,1,100
177,141,64715,5,8,0:0:0:0:
157,170,64798,1,8,0:0:0:0:
149,204,64881,1,8,0:0:0:0:
153,238,64964,1,8,0:0:0:0:
167,269,65047,1,8,0:0:0:0:
191,294,65130,1,8,0:0:0:0:
222,308,65213,1,12,0:0:0:0:
279,315,66043,5,0,0:0:0:0:
304,309,66126,1,0,0:0:0:0:
329,303,66209,1,0,0:0:0:0:
354,297,66292,1,0,0:0:0:0:
379,291,66375,1,0,0:0:0:0:
404,285,66458,1,0,0:0:0:0:
429,278,66541,6,0,P|443:229|428:184,1,100,4|0,0:0|0:0,0:0:0:0:
350,106,66873,1,8,0:0:0:0:
302,205,67039,2,0,P|258:230|206:224,1,100
139,141,67371,2,0,P|183:116|235:122,1,100,0|8,0:0|0:0,0:0:0:0:
327,173,67704,2,0,L|380:268,1,100
265,256,68036,2,0,L|265:355,1,100,0|8,0:0|0:0,0:0:0:0:
175,292,68368,2,0,L|79:339,1,100
84,226,68700,2,0,P|68:176|78:127,2,100,0|10|0,0:0|0:0|0:0,0:0:0:0:
188,258,69198,6,0,L|304:266,1,100,4|0,0:0|0:0,0:0:0:0:
371,193,69530,1,10,0:0:0:0:
420,290,69696,2,0,P|463:264|479:217,1,100
428,121,70028,2,0,L|324:111,1,100,2|8,0:0|0:0,0:0:0:0:
218,101,70360,6,0,B|176:54|176:54|130:43,1,100,2|0,0:0|0:0,0:0:0:0:
155,154,70692,2,0,B|108:196|108:196|97:242,1,100,2|8,0:0|0:0,0:0:0:0:
208,215,71024,2,0,B|250:262|250:262|296:273,1,100,2|0,0:0|0:0,0:0:0:0:
272,161,71356,2,0,B|319:119|319:119|330:73,2,100,2|8|0,0:0|0:0|0:0,0:0:0:0:
177,217,71855,6,0,L|152:322,1,100,4|0,0:0|0:0,0:0:0:0:
261,293,72187,1,10,0:0:0:0:
337,214,72353,2,0,L|435:245,1,100
422,134,72685,2,0,L|324:103,1,100,0|10,0:0|0:0,0:0:0:0:
222,69,73017,2,0,P|174:54|128:75,1,100
207,151,73349,2,0,P|162:174|144:221,1,100,0|10,0:0|0:0,0:0:0:0:
254,220,73681,2,0,P|238:268|259:314,1,100
360,272,74013,2,0,L|468:284,2,100,0|10|0,0:0|0:0|0:0,0:0:0:0:
309,174,74511,6,0,L|201:162,1,100,4|0,0:0|0:0,0:0:0:0:
108,119,74843,1,10,0:0:0:0:
35,202,75009,2,0,P|76:235|125:237,1,100
231,249,75341,2,0,L|339:261,1,100,2|8,0:0|0:0,0:0:0:0:
435,227,75673,1,2,0:0:0:0:
389,326,75839,5,8,0:0:0:0:
359,344,75922,1,0,0:0:0:0:
325,355,76006,1,2,0:0:0:0:
290,353,76089,1,0,0:0:0:0:
255,345,76172,2,0,L|199:330,3,50,8|0|2|0,0:0|0:0|0:0|0:0,0:0:0:0:
187,302,76504,2,0,L|128:318,3,50,8|0|2|0,0:0|0:0|0:0|0:0,0:0:0:0:
106,329,76836,2,0,L|52:312,3,50,8|0|0|0,0:0|0:0|0:0|0:0,0:0:0:0:
37,281,77168,5,12,0:0:0:0:
37,281,77334,1,0,0:0:0:0:
67,164,77500,2,0,L|185:150,1,110.000003356934,10|0,0:0|0:0,0:0:0:0:
238,254,77832,5,8,0:0:0:0:
238,254,77998,1,0,0:0:0:0:
268,137,78164,2,0,L|386:123,1,110.000003356934,10|0,0:0|0:0,0:0:0:0:
497,111,78496,5,8,0:0:0:0:
497,111,78662,1,0,0:0:0:0:
467,228,78828,2,0,L|349:242,1,110.000003356934,10|0,0:0|0:0,0:0:0:0:
296,138,79160,5,8,0:0:0:0:
296,138,79326,1,0,0:0:0:0:
266,255,79492,2,0,L|148:269,1,110.000003356934,10|0,0:0|0:0,0:0:0:0:
61,193,79824,6,0,P|54:138|82:93,1,110.000003356934,12|0,0:0|0:0,0:0:0:0:
194,50,80156,1,10,0:0:0:0:
126,151,80323,2,0,P|173:185|223:178,1,110.000003356934,0|8,0:0|0:0,0:0:0:0:
311,97,80655,2,0,L|424:97,1,110.000003356934,2|8,0:0|0:0,0:0:0:0:
470,207,80987,6,0,P|416:240|365:234,1,110.000003356934,2|0,0:0|0:0,0:0:0:0:
324,347,81319,2,0,P|291:293|297:242,1,110.000003356934,2|8,0:0|0:0,0:0:0:0:
182,201,81651,2,0,P|236:168|287:174,1,110.000003356934,2|0,0:0|0:0,0:0:0:0:
331,61,81983,2,0,P|364:115|358:166,1,110.000003356934,2|8,0:0|0:0,0:0:0:0:
347,196,82232,5,0,0:0:0:0:
325,227,82315,1,0,0:0:0:0:
294,248,82398,1,0,0:0:0:0:
255,260,82481,2,0,L|138:258,1,115.000002193451,6|0,0:0|0:0,0:0:0:0:
66,155,82813,5,10,0:0:0:0:
170,83,82979,2,0,P|199:136|185:186,1,115.000002193451,0|8,0:0|0:0,0:0:0:0:
118,293,83311,5,0,0:0:0:0:
242,314,83477,1,10,0:0:0:0:
242,314,83643,2,0,P|271:261|257:211,1,115.000002193451,0|8,0:0|0:0,0:0:0:0:
193,101,83975,5,0,0:0:0:0:
317,80,84141,1,10,0:0:0:0:
317,80,84307,2,0,P|346:133|332:183,1,115.000002193451,0|8,0:0|0:0,0:0:0:0:
231,260,84640,5,0,0:0:0:0:
139,173,84806,2,0,L|261:173,1,115.000002193451,10|0,0:0|0:0,0:0:0:0:
370,248,85138,6,0,P|401:149|296:118,1,230.000004386902,14|2,0:0|0:0,0:0:0:0:
332,182,85636,2,0,P|367:77|275:45,1,230.000004386902,14|2,0:0|0:0,0:0:0:0:
302,114,86134,2,0,P|215:42|135:111,1,230.000004386902,14|8,0:0|0:0,0:0:0:0:
132,143,86549,5,8,0:0:0:0:
136,183,86632,1,8,0:0:0:0:
147,221,86715,1,8,0:0:0:0:
169,254,86798,1,8,0:0:0:0:
198,281,86881,1,8,0:0:0:0:
234,297,86964,2,0,L|295:311,2,57.5000010967255,8|8|6,0:0|0:0|1:0,0:0:0:0:
256,192,87213,12,0,89123,2:0:0:0:
