osu file format v14

[General]
AudioFilename: audio.mp3
AudioLeadIn: 0
PreviewTime: 46534
Countdown: 1
SampleSet: Normal
StackLeniency: 0.5
Mode: 0
LetterboxInBreaks: 0
WidescreenStoryboard: 1

[Editor]
DistanceSpacing: 1.2
BeatDivisor: 2
GridSize: 32
TimelineZoom: 1.6

[Metadata]
Title:Guren no Yumiya (TV Size)
TitleUnicode:紅蓮の弓矢 (TV Size)
Artist:Linked Horizon
ArtistUnicode:Linked Horizon
Creator:Sly Instinct
Version:Easy
Source:進撃の巨人
Tags:Shingeki no Kyojin Kiseki revo Wit studio attack on titan opening Eren Jaeger Mikasa Ackerman Armin Arlert scouting legion
BeatmapID:1816368
BeatmapSetID:869078

[Difficulty]
HPDrainRate:3
CircleSize:3
OverallDifficulty:3
ApproachRate:3
SliderMultiplier:0.699999999999999
SliderTickRate:1

[Events]
//Background and Video events
0,0,"BG.png",0,0
//Break Periods
//Storyboard Layer 0 (Background)
//Storyboard Layer 1 (Fail)
//Storyboard Layer 2 (Pass)
//Storyboard Layer 3 (Foreground)
//Storyboard Sound Samples

[TimingPoints]
126,332.078813371707,4,3,1,50,1,0
2782,-100,4,1,1,50,0,0
14903,-100,4,2,1,50,0,0
16065,-100,4,2,2,50,0,0
16231,-100,4,2,1,50,0,0
18722,-100,4,2,2,50,0,0
18888,-100,4,2,1,50,0,0
21379,-100,4,2,2,50,0,0
21545,-100,4,2,1,50,0,0
24035,-100,4,2,2,50,0,0
24201,-100,4,2,1,50,0,0
25363,-100,4,3,1,50,0,0
35990,-100,4,1,1,50,0,0
36322,-100,4,1,2,50,0,0
36820,-100,4,1,1,50,0,0
42964,-100,4,1,2,50,0,0
43130,-100,4,1,1,50,0,0
45620,-100,4,1,2,50,0,0
45786,-100,4,1,1,50,0,0
46617,-100,4,1,1,50,0,1
46949,-100,4,1,2,50,0,1
47115,-100,4,1,1,50,0,1
49605,-100,4,1,2,50,0,1
49771,-100,4,1,1,50,0,1
52262,-100,4,1,2,50,0,1
52428,-100,4,1,1,50,0,1
54919,-100,4,1,2,50,0,1
55085,-100,4,1,1,50,0,1
57575,-100,4,1,2,50,0,1
57741,-100,4,1,1,50,0,1
60232,-100,4,1,2,50,0,1
60398,-100,4,1,1,50,0,1
62888,-100,4,1,2,50,0,1
63054,-100,4,1,1,50,0,1
65213,-100,4,1,1,50,0,0
66873,-100,4,1,2,50,0,0
67039,-100,4,1,1,50,0,0
67537,-100,4,1,2,50,0,0
67704,-100,4,1,1,50,0,0
68202,-100,4,1,2,50,0,0
68368,-100,4,1,1,50,0,0
68866,-100,4,1,2,50,0,0
69032,-100,4,1,1,50,0,0
77168,-100,4,1,2,50,0,0
85138,-100,4,1,1,50,0,0

[Colours]
Combo1 : 236,179,45
Combo2 : 97,70,50
Combo3 : 153,60,49
Combo4 : 221,68,40
SliderBorder : 250,215,90

[HitObjects]
213,176,126,6,0,P|231:286|346:284,2,245,4|0|0,0:0|0:0|0:0,0:0:0:0:
271,115,2782,5,4,0:0:0:0:
352,94,3114,2,0,P|396:147|390:221,2,140,8|8|8,0:0|0:0|0:0,0:0:0:0:
183,94,5107,2,0,L|40:130,1,140,8|8,0:0|0:0,0:0:0:0:
80,249,6269,1,0,0:0:0:0:
132,314,6601,6,0,L|204:314,1,69.9999999999999,2|2,0:0|0:0,0:0:0:0:
277,277,7265,2,0,L|349:277,1,69.9999999999999,2|2,0:0|0:0,0:0:0:0:
440,192,8095,5,4,0:0:0:0:
375,138,8427,2,0,L|244:196,2,140,8|8|8,0:0|0:0|0:0,0:0:0:0:
446,290,10420,2,0,P|382:306|323:263,1,140,8|8,0:0|0:0,0:0:0:0:
272,151,11582,1,0,0:0:0:0:
200,107,11914,6,0,L|125:117,1,69.9999999999999,2|2,0:0|0:0,0:0:0:0:
126,200,12578,2,0,L|201:190,1,69.9999999999999,2|2,0:0|0:0,0:0:0:0:
320,173,13409,6,0,P|386:177|320:316,1,280,4|4,2:0|0:3,2:0:0:0:
266,281,15069,6,0,B|179:233|179:233|189:195|170:156|135:139|135:139|100:122|58:132|34:163,1,315
97,217,16895,1,0,0:0:0:0:
222,204,17394,6,0,B|337:179|337:179|365:65|365:65|436:197,1,384.999999999999,4|0,0:0|0:0,0:0:0:0:
378,257,19552,1,0,0:0:0:0:
285,342,20050,6,0,P|134:274|210:106,1,384.999999999999,4|0,0:0|0:0,0:0:0:0:
287,85,22209,1,0,0:0:0:0:
382,166,22707,6,0,B|382:200|360:230|328:239|328:239|295:248|260:233|243:204|243:204|228:233|193:249|161:240|161:240|128:231|107:201|109:167,1,384.999999999999,4|0,0:0|0:0,0:0:0:0:
185,138,24865,1,0,0:0:0:0:
299,84,25363,6,0,L|408:84,1,105,4|0,0:0|0:0,0:0:0:0:
463,143,26194,1,0,0:0:0:0:
382,166,26526,2,0,P|357:234|379:302,1,140
435,354,27522,1,0,0:0:0:0:
309,345,28020,6,0,L|204:326,1,105,4|0,0:0|0:0,0:0:0:0:
149,263,28850,1,0,0:0:0:0:
75,221,29182,2,0,P|131:182|203:192,1,140
262,245,30179,1,0,0:0:0:0:
323,134,30677,6,0,L|214:107,1,105,12|0,0:0|0:0,0:0:0:0:
139,89,31507,1,0,0:0:0:0:
76,145,31839,2,0,P|55:215|83:276,1,140
140,332,32835,1,0,0:0:0:0:
140,206,33333,6,0,L|250:206,1,105,12|8,0:0|0:0,0:0:0:0:
300,269,34164,1,8,0:0:0:0:
378,298,34496,2,0,P|419:246|411:173,1,140,8|0,0:0|0:0,0:0:0:0:
349,119,35492,1,0,0:0:0:0:
236,61,35990,6,0,B|129:86|129:86|81:186,1,210,4|8,0:0|0:0,0:0:0:0:
110,256,37318,2,0,L|181:256,1,69.9999999999999,8|8,0:0|0:0,0:0:0:0:
348,259,38315,6,0,L|274:259,1,69.9999999999999,8|14,0:0|0:0,0:0:0:0:
164,134,39311,1,14,0:0:0:0:
165,301,39975,1,14,0:0:0:0:
272,171,40639,1,14,0:0:0:0:
309,50,41137,6,0,P|380:96|400:181,1,175,4|0,0:0|0:0,0:0:0:0:
380,261,42300,1,8,0:0:0:0:
330,329,42632,2,0,L|222:329,1,105,0|2,0:0|0:0,0:0:0:0:
167,268,43462,1,2,0:0:0:0:
92,229,43794,6,0,P|164:181|235:217,1,175,4|0,0:0|0:0,0:0:0:0:
265,296,44956,1,8,0:0:0:0:
343,326,45288,2,0,P|412:323|453:265,1,140,8|8,0:0|0:0,0:0:0:0:
405,108,46617,6,0,L|302:125,1,105,4|0,0:0|0:0,0:0:0:0:
223,155,47447,1,0,0:0:0:0:
139,145,47779,2,0,P|155:215|219:241,1,140,4|0,0:0|0:0,0:0:0:0:
290,209,48775,1,0,0:0:0:0:
414,189,49273,6,0,L|407:306,1,105,4|0,0:0|0:0,0:0:0:0:
339,343,50103,1,0,0:0:0:0:
327,259,50435,2,0,P|270:224|200:247,1,140,6|6,0:0|0:0,0:0:0:0:
259,306,51432,1,6,0:0:0:0:
133,306,51930,6,0,P|112:262|116:203,1,105,4|0,0:0|0:0,0:0:0:0:
174,147,52760,1,0,0:0:0:0:
102,102,53092,2,0,B|144:63|144:63|227:63,1,140,4|0,0:0|0:0,0:0:0:0:
306,89,54088,1,0,0:0:0:0:
420,140,54586,6,0,P|444:194|436:243,1,105,4|0,0:0|0:0,0:0:0:0:
378,297,55417,2,0,L|308:327,1,69.9999999999999,0|4,0:0|0:0,0:0:0:0:
233,298,56081,2,0,L|124:298,1,105,6|6,0:0|0:0,0:0:0:0:
48,149,57243,6,0,L|157:149,1,105,4|0,0:0|0:0,0:0:0:0:
236,138,58073,1,0,0:0:0:0:
309,97,58405,2,0,P|377:89|437:133,1,140,4|0,0:0|0:0,0:0:0:0:
471,203,59402,1,0,0:0:0:0:
419,317,59900,6,0,L|390:212,1,105,4|0,0:0|0:0,0:0:0:0:
365,135,60730,1,0,0:0:0:0:
308,197,61062,2,0,P|251:215|195:165,1,140,4|4,0:0|0:0,0:0:0:0:
225,87,62058,1,4,0:0:0:0:
350,101,62556,6,0,L|333:214,1,105,4|0,0:0|0:0,0:0:0:0:
303,283,63387,1,0,0:0:0:0:
225,250,63719,2,0,B|151:251|151:251|85:283,1,140,4|0,0:0|0:0,0:0:0:0:
34,218,64715,2,0,L|134:170,1,105,8|4,0:0|2:0,0:0:0:0:
128,172,66541,6,0,P|238:264|347:209,2,280,4|0|4,0:0|0:0|0:0,0:0:0:0:
184,109,69530,2,0,L|274:163,1,105,8|0,0:0|0:0,0:0:0:0:
346,210,70360,6,0,L|346:287,1,69.9999999999999,2|2,0:0|0:0,0:0:0:0:
428,295,71024,2,0,L|428:225,1,69.9999999999999,2|2,0:0|0:0,0:0:0:0:
408,101,71855,5,4,0:0:0:0:
336,57,72187,2,0,L|192:57,2,140,8|8|8,0:0|0:0|0:0,0:0:0:0:
456,174,74179,2,0,P|478:240|460:306,1,140,8|8,0:0|0:0,0:0:0:0:
337,336,75341,1,0,0:0:0:0:
261,298,75673,6,0,L|237:226,1,69.9999999999999,2|2,0:0|0:0,0:0:0:0:
164,271,76338,2,0,L|140:199,1,69.9999999999999,2|2,0:0|0:0,0:0:0:0:
78,95,77168,5,12,0:0:0:0:
152,56,77500,2,0,L|224:56,1,69.9999999999999,10|8,0:0|0:0,0:0:0:0:
302,80,78164,2,0,L|374:80,1,69.9999999999999,10|8,0:0|0:0,0:0:0:0:
445,119,78828,2,0,P|455:155|447:187,1,69.9999999999999,10|8,0:0|0:0,0:0:0:0:
364,195,79492,2,0,L|222:169,1,140,10|10,0:0|0:0,0:0:0:0:
102,147,80655,1,2,0:0:0:0:
57,218,80987,6,0,L|104:282,1,69.9999999999999,2|2,0:0|0:0,0:0:0:0:
168,320,81651,2,0,L|246:332,1,69.9999999999999,2|2,0:0|0:0,0:0:0:0:
362,340,82481,5,14,0:0:0:0:
409,270,82813,2,0,P|417:237|409:199,1,69.9999999999999,10|8,0:0|0:0,0:0:0:0:
331,231,83477,2,0,P|323:198|331:160,1,69.9999999999999,10|8,0:0|0:0,0:0:0:0:
353,82,84141,2,0,L|284:82,1,69.9999999999999,10|8,0:0|0:0,0:0:0:0:
200,98,84806,1,10,0:0:0:0:
123,132,85138,6,0,P|95:176|103:233,2,105,14|14|14,0:0|0:0|0:0,0:0:0:0:
256,192,87130,12,0,89123,2:0:0:0:
