osu file format v14

[General]
AudioFilename: Linked Horizon - Guren no Yumiya (TV Size).mp3
AudioLeadIn: 0
PreviewTime: 46624
Countdown: 0
SampleSet: Soft
StackLeniency: 0.7
Mode: 3
LetterboxInBreaks: 0
SpecialStyle: 0
WidescreenStoryboard: 0

[Editor]
DistanceSpacing: 0.8
BeatDivisor: 4
GridSize: 8
TimelineZoom: 1.9

[Metadata]
Title:Guren no Yumiya (TV Size ver.)
TitleUnicode:紅蓮の弓矢(TVサイズ ver.)
Artist:Linked Horizon
ArtistUnicode:Linked Horizon
Creator:SpectorDG
Version:Hard
Source:進撃の巨人
Tags:sound revo jiyuu e no shingeki kyojin titan Pharos21 Muu-chan Opening OP 1
BeatmapID:709437
BeatmapSetID:243364

[Difficulty]
HPDrainRate:7.5
CircleSize:4
OverallDifficulty:7.5
ApproachRate:5
SliderMultiplier:1.4
SliderTickRate:1

[Events]
//Background and Video events
Video,-200,"Video.avi"
0,0,"BG.jpg",0,0
//Break Periods
//Storyboard Layer 0 (Background)
//Storyboard Layer 1 (Fail)
//Storyboard Layer 2 (Pass)
//Storyboard Layer 3 (Foreground)
//Storyboard Sound Samples

[TimingPoints]
132,332.078813371707,4,2,1,55,1,0
46623,-100,4,2,1,55,0,1
65219,-100,4,2,1,55,0,0

[HitObjects]
448,192,132,5,4,0:0:0:0:
64,192,132,128,0,2788:0:0:0:0:
320,192,132,1,0,0:0:0:0:
448,192,2788,1,2,0:0:0:0:
192,192,2788,1,4,0:0:0:0:
192,192,3120,1,8,0:0:0:0:
320,192,3120,1,0,0:0:0:0:
448,192,3286,1,2,0:0:0:0:
64,192,3286,1,0,0:0:0:0:
192,192,3452,1,0,0:0:0:0:
320,192,3618,1,2,0:0:0:0:
448,192,3618,1,0,0:0:0:0:
64,192,3784,1,8,0:0:0:0:
448,192,3950,1,0,0:0:0:0:
192,192,3950,1,2,0:0:0:0:
320,192,4116,1,0,0:0:0:0:
192,192,4282,1,2,0:0:0:0:
64,192,4282,1,0,0:0:0:0:
320,192,4449,1,8,0:0:0:0:
64,192,4615,1,2,0:0:0:0:
448,192,4615,1,4,0:0:0:0:
192,192,4781,1,0,0:0:0:0:
64,192,4947,1,2,0:0:0:0:
320,192,4947,128,0,5445:0:0:0:0:
448,192,5445,1,4,0:0:0:0:
192,192,5445,1,2,0:0:0:0:
64,192,5777,1,0,0:0:0:0:
192,192,5777,1,8,0:0:0:0:
320,192,5943,1,2,0:0:0:0:
448,192,5943,1,0,0:0:0:0:
192,192,6109,1,0,0:0:0:0:
64,192,6275,1,0,0:0:0:0:
448,192,6275,1,2,0:0:0:0:
320,192,6441,1,8,0:0:0:0:
448,192,6607,1,2,0:0:0:0:
64,192,6607,1,0,0:0:0:0:
192,192,6773,1,0,0:0:0:0:
64,192,6939,1,0,0:0:0:0:
320,192,6939,1,2,0:0:0:0:
192,192,7105,1,8,0:0:0:0:
448,192,7271,1,2,0:0:0:0:
64,192,7271,1,4,0:0:0:0:
320,192,7437,1,0,0:0:0:0:
448,192,7603,128,0,8101:0:0:0:0:
192,192,7603,1,2,0:0:0:0:
64,192,8101,1,2,0:0:0:0:
320,192,8101,1,4,0:0:0:0:
192,192,8433,1,8,0:0:0:0:
320,192,8433,1,0,0:0:0:0:
64,192,8600,1,0,0:0:0:0:
448,192,8600,1,2,0:0:0:0:
320,192,8766,1,0,0:0:0:0:
192,192,8932,1,2,0:0:0:0:
448,192,8932,1,0,0:0:0:0:
320,192,9098,1,8,0:0:0:0:
64,192,9264,1,0,0:0:0:0:
448,192,9264,1,2,0:0:0:0:
320,192,9430,1,0,0:0:0:0:
192,192,9596,1,2,0:0:0:0:
64,192,9596,1,0,0:0:0:0:
448,192,9762,1,8,0:0:0:0:
320,192,9928,1,2,0:0:0:0:
64,192,9928,1,4,0:0:0:0:
448,192,10094,1,0,0:0:0:0:
192,192,10260,1,2,0:0:0:0:
64,192,10260,128,0,10758:0:0:0:0:
448,192,10758,1,4,0:0:0:0:
320,192,10758,1,2,0:0:0:0:
192,192,11090,1,0,0:0:0:0:
320,192,11090,1,8,0:0:0:0:
448,192,11256,1,2,0:0:0:0:
64,192,11256,1,0,0:0:0:0:
320,192,11422,1,0,0:0:0:0:
64,192,11588,1,2,0:0:0:0:
192,192,11588,1,0,0:0:0:0:
320,192,11754,1,8,0:0:0:0:
448,192,11920,1,2,0:0:0:0:
64,192,11920,1,4,0:0:0:0:
192,192,12086,1,0,0:0:0:0:
448,192,12252,1,0,0:0:0:0:
320,192,12252,1,2,0:0:0:0:
192,192,12418,1,8,0:0:0:0:
448,192,12584,1,0,0:0:0:0:
64,192,12584,1,2,0:0:0:0:
320,192,12750,1,0,0:0:0:0:
448,192,12917,128,0,13415:0:0:0:0:
192,192,12917,1,2,0:0:0:0:
320,192,13415,1,4,0:0:0:0:
64,192,13415,1,2,0:0:0:0:
192,192,13581,1,2,0:0:0:0:
320,192,13747,1,2,0:0:0:0:
448,192,13913,1,2,0:0:0:0:
320,192,14079,1,0,0:0:0:0:
64,192,14079,128,2,14411:0:0:0:0:
448,192,14411,128,2,14743:0:0:0:0:
192,192,14411,1,8,0:0:0:0:
64,192,14743,1,4,0:0:0:0:
320,192,14743,1,2,0:0:0:0:
192,192,14909,1,0,0:0:0:0:
448,192,15075,1,2,0:0:0:0:
192,192,15241,1,0,0:0:0:0:
448,192,15407,1,2,0:0:0:0:
192,192,15573,1,0,0:0:0:0:
448,192,15739,1,2,0:0:0:0:
320,192,15905,1,8,0:0:0:0:
192,192,15988,1,8,0:0:0:0:
64,192,16071,1,2,0:0:0:0:
320,192,16237,1,0,0:0:0:0:
64,192,16403,1,2,0:0:0:0:
320,192,16569,1,0,0:0:0:0:
64,192,16735,1,2,0:0:0:0:
320,192,16901,1,0,0:0:0:0:
192,192,17068,1,2,0:0:0:0:
320,192,17151,1,0,0:0:0:0:
448,192,17234,1,0,0:0:0:0:
192,192,17400,1,2,0:0:0:0:
448,192,17566,1,0,0:0:0:0:
192,192,17732,1,2,0:0:0:0:
448,192,17898,1,0,0:0:0:0:
192,192,18064,1,2,0:0:0:0:
448,192,18230,1,0,0:0:0:0:
192,192,18396,1,2,0:0:0:0:
64,192,18562,1,8,0:0:0:0:
192,192,18645,1,8,0:0:0:0:
320,192,18728,1,2,0:0:0:0:
64,192,18894,1,0,0:0:0:0:
320,192,19060,1,2,0:0:0:0:
64,192,19226,1,0,0:0:0:0:
320,192,19392,1,2,0:0:0:0:
448,192,19558,1,8,0:0:0:0:
320,192,19641,1,0,0:0:0:0:
64,192,19724,1,2,0:0:0:0:
192,192,19807,1,0,0:0:0:0:
320,192,19890,1,0,0:0:0:0:
448,192,19973,1,0,0:0:0:0:
64,192,20056,1,4,0:0:0:0:
192,192,20056,1,2,0:0:0:0:
448,192,20222,1,0,0:0:0:0:
64,192,20388,1,2,0:0:0:0:
448,192,20554,1,0,0:0:0:0:
64,192,20720,1,2,0:0:0:0:
448,192,20886,1,0,0:0:0:0:
64,192,21052,1,2,0:0:0:0:
448,192,21219,1,8,0:0:0:0:
320,192,21302,1,8,0:0:0:0:
192,192,21385,1,2,0:0:0:0:
320,192,21551,1,0,0:0:0:0:
192,192,21717,1,2,0:0:0:0:
320,192,21883,1,0,0:0:0:0:
192,192,22049,1,2,0:0:0:0:
320,192,22215,1,0,0:0:0:0:
192,192,22381,1,2,0:0:0:0:
320,192,22464,1,0,0:0:0:0:
448,192,22547,1,0,0:0:0:0:
64,192,22713,1,2,0:0:0:0:
320,192,22879,1,0,0:0:0:0:
64,192,23045,1,2,0:0:0:0:
320,192,23211,1,0,0:0:0:0:
64,192,23377,1,2,0:0:0:0:
320,192,23543,1,0,0:0:0:0:
64,192,23709,1,2,0:0:0:0:
192,192,23875,1,8,0:0:0:0:
320,192,23958,1,8,0:0:0:0:
448,192,24041,1,2,0:0:0:0:
64,192,24207,1,0,0:0:0:0:
448,192,24373,1,2,0:0:0:0:
64,192,24539,1,0,0:0:0:0:
448,192,24705,1,2,0:0:0:0:
320,192,24871,1,8,0:0:0:0:
192,192,24871,128,0,25369:0:0:0:0:
64,192,25369,1,4,0:0:0:0:
448,192,25369,1,2,0:0:0:0:
320,192,25536,1,0,0:0:0:0:
448,192,25702,1,2,0:0:0:0:
192,192,25868,1,0,0:0:0:0:
448,192,26034,1,2,0:0:0:0:
64,192,26200,1,0,0:0:0:0:
448,192,26366,1,2,0:0:0:0:
192,192,26532,1,8,0:0:0:0:
320,192,26615,1,8,0:0:0:0:
448,192,26698,1,2,0:0:0:0:
64,192,26864,1,0,0:0:0:0:
448,192,27030,1,2,0:0:0:0:
64,192,27196,1,8,0:0:0:0:
192,192,27279,1,8,0:0:0:0:
320,192,27362,1,2,0:0:0:0:
448,192,27528,1,8,0:0:0:0:
320,192,27611,1,8,0:0:0:0:
192,192,27694,1,2,0:0:0:0:
64,192,27860,1,8,0:0:0:0:
192,192,27943,1,8,0:0:0:0:
320,192,28026,1,2,0:0:0:0:
192,192,28192,1,0,0:0:0:0:
448,192,28358,1,2,0:0:0:0:
64,192,28524,1,8,0:0:0:0:
448,192,28690,1,2,0:0:0:0:
192,192,28856,1,0,0:0:0:0:
448,192,29022,1,2,0:0:0:0:
64,192,29188,1,8,0:0:0:0:
320,192,29271,1,8,0:0:0:0:
448,192,29354,1,2,0:0:0:0:
320,192,29520,1,0,0:0:0:0:
64,192,29687,1,2,0:0:0:0:
192,192,29853,1,8,0:0:0:0:
320,192,29936,1,8,0:0:0:0:
448,192,30019,1,2,0:0:0:0:
64,192,30185,1,8,0:0:0:0:
192,192,30351,1,2,0:0:0:0:
448,192,30517,1,8,0:0:0:0:
64,192,30600,1,8,0:0:0:0:
320,192,30683,1,2,0:0:0:0:
192,192,30849,1,0,0:0:0:0:
448,192,31015,1,2,0:0:0:0:
64,192,31181,1,8,0:0:0:0:
192,192,31264,1,8,0:0:0:0:
448,192,31347,1,2,0:0:0:0:
320,192,31513,1,0,0:0:0:0:
64,192,31679,1,2,0:0:0:0:
320,192,31845,1,8,0:0:0:0:
192,192,31928,1,8,0:0:0:0:
64,192,32011,1,2,0:0:0:0:
448,192,32177,1,0,0:0:0:0:
64,192,32343,1,2,0:0:0:0:
192,192,32509,1,8,0:0:0:0:
320,192,32592,1,8,0:0:0:0:
448,192,32675,1,2,0:0:0:0:
192,192,32841,1,8,0:0:0:0:
64,192,32924,1,8,0:0:0:0:
320,192,33007,1,2,0:0:0:0:
448,192,33173,1,8,0:0:0:0:
64,192,33256,1,8,0:0:0:0:
192,192,33339,1,2,0:0:0:0:
320,192,33505,1,0,0:0:0:0:
64,192,33671,1,2,0:0:0:0:
448,192,33837,1,8,0:0:0:0:
320,192,33921,1,8,0:0:0:0:
192,192,34004,1,2,0:0:0:0:
64,192,34170,1,8,0:0:0:0:
192,192,34336,1,2,0:0:0:0:
64,192,34502,1,0,0:0:0:0:
448,192,34502,1,8,0:0:0:0:
320,192,34668,1,2,0:0:0:0:
64,192,34834,1,8,0:0:0:0:
448,192,34834,1,0,0:0:0:0:
192,192,35000,1,2,0:0:0:0:
320,192,35166,1,8,0:0:0:0:
448,192,35166,1,0,0:0:0:0:
192,192,35332,1,0,0:0:0:0:
64,192,35332,1,2,0:0:0:0:
320,192,35498,128,0,35996:0:0:0:0:
64,192,35996,1,8,0:0:0:0:
448,192,35996,1,4,0:0:0:0:
192,192,35996,1,0,0:0:0:0:
320,192,36162,1,0,0:0:0:0:
64,192,36328,1,8,0:0:0:0:
320,192,36494,1,0,0:0:0:0:
64,192,36660,1,8,0:0:0:0:
320,192,36826,1,0,0:0:0:0:
192,192,36992,1,8,0:0:0:0:
320,192,37158,1,0,0:0:0:0:
64,192,37324,1,4,0:0:0:0:
448,192,37324,1,8,0:0:0:0:
192,192,37490,1,0,0:0:0:0:
64,192,37656,1,8,0:0:0:0:
448,192,37822,1,0,0:0:0:0:
192,192,37988,1,8,0:0:0:0:
320,192,38155,1,0,0:0:0:0:
64,192,38321,1,0,0:0:0:0:
64,192,38570,1,0,0:0:0:0:
448,192,38653,1,0,0:0:0:0:
320,192,38653,1,4,0:0:0:0:
192,192,38985,1,0,0:0:0:0:
192,192,39234,1,0,0:0:0:0:
448,192,39317,1,4,0:0:0:0:
64,192,39317,1,0,0:0:0:0:
320,192,39649,1,0,0:0:0:0:
320,192,39898,1,0,0:0:0:0:
192,192,39981,1,4,0:0:0:0:
64,192,39981,1,0,0:0:0:0:
448,192,40313,1,0,0:0:0:0:
448,192,40562,1,0,0:0:0:0:
192,192,40645,1,0,0:0:0:0:
320,192,40645,1,4,0:0:0:0:
320,192,40977,1,8,0:0:0:0:
64,192,41143,1,4,0:0:0:0:
448,192,41143,1,0,0:0:0:0:
192,192,41143,1,0,0:0:0:0:
64,192,41475,1,2,0:0:0:0:
448,192,41641,1,8,0:0:0:0:
192,192,41641,1,0,0:0:0:0:
64,192,41973,1,2,0:0:0:0:
320,192,42139,1,2,0:0:0:0:
192,192,42306,1,0,0:0:0:0:
64,192,42306,1,8,0:0:0:0:
448,192,42638,1,2,0:0:0:0:
448,192,42804,1,2,0:0:0:0:
64,192,42970,1,0,0:0:0:0:
192,192,42970,1,8,0:0:0:0:
448,192,43136,1,0,0:0:0:0:
320,192,43136,1,2,0:0:0:0:
192,192,43468,1,0,0:0:0:0:
320,192,43468,1,2,0:0:0:0:
448,192,43800,1,4,0:0:0:0:
64,192,43800,1,0,0:0:0:0:
192,192,43800,1,0,0:0:0:0:
64,192,44132,1,2,0:0:0:0:
192,192,44298,1,8,0:0:0:0:
448,192,44298,1,0,0:0:0:0:
320,192,44630,1,2,0:0:0:0:
192,192,44796,1,2,0:0:0:0:
64,192,44962,1,8,0:0:0:0:
448,192,44962,1,0,0:0:0:0:
320,192,45294,1,8,0:0:0:0:
64,192,45294,1,0,0:0:0:0:
448,192,45460,1,0,0:0:0:0:
64,192,45626,1,0,0:0:0:0:
192,192,45626,1,8,0:0:0:0:
320,192,45792,1,0,0:0:0:0:
448,192,45958,1,8,0:0:0:0:
320,192,46041,1,0,0:0:0:0:
192,192,46124,1,0,0:0:0:0:
64,192,46207,1,0,0:0:0:0:
448,192,46290,1,8,0:0:0:0:
320,192,46373,1,0,0:0:0:0:
192,192,46456,1,0,0:0:0:0:
64,192,46540,1,0,0:0:0:0:
448,192,46623,1,4,0:0:0:0:
320,192,46623,1,0,0:0:0:0:
192,192,46623,1,0,0:0:0:0:
64,192,46789,1,0,0:0:0:0:
320,192,46955,1,8,0:0:0:0:
448,192,46955,1,0,0:0:0:0:
192,192,47121,1,0,0:0:0:0:
320,192,47287,1,2,0:0:0:0:
64,192,47287,1,0,0:0:0:0:
192,192,47453,1,0,0:0:0:0:
448,192,47453,1,2,0:0:0:0:
448,192,47619,1,0,0:0:0:0:
320,192,47619,1,8,0:0:0:0:
192,192,47785,1,2,0:0:0:0:
64,192,47785,1,0,0:0:0:0:
448,192,47951,1,0,0:0:0:0:
64,192,48117,1,2,0:0:0:0:
320,192,48117,1,0,0:0:0:0:
192,192,48283,1,0,0:0:0:0:
448,192,48283,1,8,0:0:0:0:
320,192,48449,1,0,0:0:0:0:
192,192,48615,1,2,0:0:0:0:
64,192,48615,1,0,0:0:0:0:
320,192,48781,1,2,0:0:0:0:
448,192,48781,1,0,0:0:0:0:
448,192,48947,1,8,0:0:0:0:
192,192,48947,1,0,0:0:0:0:
320,192,49113,1,2,0:0:0:0:
192,192,49279,1,4,0:0:0:0:
448,192,49279,1,0,0:0:0:0:
64,192,49279,1,0,0:0:0:0:
320,192,49445,1,0,0:0:0:0:
192,192,49611,1,8,0:0:0:0:
64,192,49611,1,0,0:0:0:0:
448,192,49777,1,0,0:0:0:0:
320,192,49943,1,2,0:0:0:0:
64,192,49943,1,0,0:0:0:0:
448,192,50109,1,2,0:0:0:0:
192,192,50109,1,0,0:0:0:0:
64,192,50275,1,0,0:0:0:0:
192,192,50275,1,8,0:0:0:0:
448,192,50441,1,2,0:0:0:0:
320,192,50441,1,0,0:0:0:0:
64,192,50441,1,4,0:0:0:0:
64,192,50774,1,2,0:0:0:0:
320,192,50774,1,0,0:0:0:0:
448,192,50940,1,0,0:0:0:0:
192,192,50940,1,8,0:0:0:0:
320,192,51106,1,2,0:0:0:0:
64,192,51106,1,0,0:0:0:0:
448,192,51438,1,2,0:0:0:0:
192,192,51438,128,0,51936:0:0:0:0:
448,192,51936,1,4,0:0:0:0:
64,192,51936,1,0,0:0:0:0:
320,192,51936,1,0,0:0:0:0:
192,192,52102,1,0,0:0:0:0:
320,192,52268,1,0,0:0:0:0:
448,192,52268,1,8,0:0:0:0:
64,192,52434,1,0,0:0:0:0:
192,192,52600,1,2,0:0:0:0:
448,192,52600,1,0,0:0:0:0:
320,192,52766,1,2,0:0:0:0:
64,192,52766,1,0,0:0:0:0:
448,192,52932,1,0,0:0:0:0:
320,192,52932,1,8,0:0:0:0:
64,192,53098,1,0,0:0:0:0:
192,192,53098,1,2,0:0:0:0:
448,192,53264,1,0,0:0:0:0:
320,192,53430,1,2,0:0:0:0:
192,192,53430,1,0,0:0:0:0:
64,192,53596,1,0,0:0:0:0:
448,192,53596,1,8,0:0:0:0:
192,192,53762,1,0,0:0:0:0:
448,192,53928,1,2,0:0:0:0:
320,192,53928,1,0,0:0:0:0:
64,192,54094,1,0,0:0:0:0:
192,192,54094,1,2,0:0:0:0:
448,192,54260,1,0,0:0:0:0:
64,192,54260,1,8,0:0:0:0:
320,192,54426,1,2,0:0:0:0:
448,192,54592,1,0,0:0:0:0:
192,192,54592,1,4,0:0:0:0:
64,192,54592,1,0,0:0:0:0:
320,192,54758,1,0,0:0:0:0:
64,192,54925,1,0,0:0:0:0:
448,192,54925,1,8,0:0:0:0:
192,192,55091,1,0,0:0:0:0:
64,192,55257,1,2,0:0:0:0:
320,192,55257,1,0,0:0:0:0:
448,192,55423,1,0,0:0:0:0:
192,192,55423,1,2,0:0:0:0:
448,192,55589,1,0,0:0:0:0:
320,192,55589,1,8,0:0:0:0:
192,192,55755,1,2,0:0:0:0:
64,192,55755,1,0,0:0:0:0:
448,192,56087,1,0,0:0:0:0:
192,192,56087,1,8,0:0:0:0:
320,192,56087,128,0,56585:0:0:0:0:
192,192,56585,1,0,0:0:0:0:
448,192,56585,1,8,0:0:0:0:
64,192,56585,128,0,56917:0:0:0:0:
320,192,56917,1,8,0:0:0:0:
192,192,56917,1,0,0:0:0:0:
448,192,56917,128,0,57249:0:0:0:0:
192,192,57249,1,4,0:0:0:0:
320,192,57249,1,0,0:0:0:0:
64,192,57249,1,0,0:0:0:0:
448,192,57415,1,0,0:0:0:0:
192,192,57581,1,0,0:0:0:0:
64,192,57581,1,8,0:0:0:0:
320,192,57747,1,0,0:0:0:0:
192,192,57913,1,2,0:0:0:0:
448,192,57913,1,0,0:0:0:0:
320,192,58079,1,2,0:0:0:0:
64,192,58079,1,0,0:0:0:0:
320,192,58245,1,0,0:0:0:0:
448,192,58245,1,8,0:0:0:0:
192,192,58411,1,0,0:0:0:0:
64,192,58411,1,2,0:0:0:0:
448,192,58577,1,0,0:0:0:0:
192,192,58743,1,2,0:0:0:0:
320,192,58743,1,0,0:0:0:0:
448,192,58909,1,8,0:0:0:0:
64,192,58909,1,0,0:0:0:0:
192,192,59075,1,0,0:0:0:0:
64,192,59242,1,2,0:0:0:0:
320,192,59242,1,0,0:0:0:0:
192,192,59408,1,2,0:0:0:0:
448,192,59408,1,0,0:0:0:0:
448,192,59574,1,8,0:0:0:0:
320,192,59574,1,0,0:0:0:0:
64,192,59740,1,2,0:0:0:0:
448,192,59906,1,4,0:0:0:0:
192,192,59906,1,0,0:0:0:0:
320,192,59906,1,0,0:0:0:0:
64,192,60072,1,0,0:0:0:0:
320,192,60238,1,0,0:0:0:0:
448,192,60238,1,8,0:0:0:0:
192,192,60404,1,0,0:0:0:0:
320,192,60570,1,2,0:0:0:0:
64,192,60570,1,0,0:0:0:0:
192,192,60736,1,2,0:0:0:0:
448,192,60736,1,0,0:0:0:0:
64,192,60902,1,0,0:0:0:0:
320,192,60902,1,8,0:0:0:0:
448,192,61068,1,2,0:0:0:0:
192,192,61068,1,0,0:0:0:0:
64,192,61068,1,4,0:0:0:0:
192,192,61400,1,2,0:0:0:0:
320,192,61400,1,0,0:0:0:0:
448,192,61566,1,8,0:0:0:0:
64,192,61566,1,0,0:0:0:0:
320,192,61732,1,2,0:0:0:0:
192,192,61732,1,0,0:0:0:0:
64,192,62064,1,2,0:0:0:0:
320,192,62064,128,0,62562:0:0:0:0:
64,192,62562,1,4,0:0:0:0:
448,192,62562,1,0,0:0:0:0:
192,192,62562,1,0,0:0:0:0:
320,192,62728,1,0,0:0:0:0:
448,192,62894,1,8,0:0:0:0:
64,192,62894,1,0,0:0:0:0:
192,192,63060,1,0,0:0:0:0:
320,192,63226,1,2,0:0:0:0:
448,192,63226,1,0,0:0:0:0:
192,192,63393,1,2,0:0:0:0:
64,192,63393,1,0,0:0:0:0:
192,192,63559,1,8,0:0:0:0:
448,192,63559,1,0,0:0:0:0:
64,192,63725,1,2,0:0:0:0:
320,192,63725,1,0,0:0:0:0:
448,192,63891,1,0,0:0:0:0:
64,192,64057,1,2,0:0:0:0:
192,192,64057,1,0,0:0:0:0:
448,192,64223,1,8,0:0:0:0:
320,192,64223,1,0,0:0:0:0:
192,192,64389,1,0,0:0:0:0:
64,192,64555,1,2,0:0:0:0:
448,192,64555,1,0,0:0:0:0:
320,192,64721,1,8,0:0:0:0:
192,192,64804,1,8,0:0:0:0:
448,192,64887,1,2,0:0:0:0:
64,192,64970,1,2,0:0:0:0:
320,192,65053,1,2,0:0:0:0:
192,192,65136,1,2,0:0:0:0:
64,192,65219,1,2,0:0:0:0:
448,192,65219,1,8,0:0:0:0:
192,192,65883,1,0,0:0:0:0:
64,192,66049,1,8,0:0:0:0:
448,192,66132,1,0,0:0:0:0:
192,192,66215,1,8,0:0:0:0:
320,192,66298,1,0,0:0:0:0:
192,192,66381,1,8,0:0:0:0:
320,192,66464,1,0,0:0:0:0:
64,192,66547,1,4,0:0:0:0:
448,192,66547,1,2,0:0:0:0:
192,192,66879,1,0,0:0:0:0:
320,192,66879,1,8,0:0:0:0:
448,192,67045,1,0,0:0:0:0:
64,192,67045,1,2,0:0:0:0:
192,192,67211,1,0,0:0:0:0:
448,192,67377,1,0,0:0:0:0:
320,192,67377,1,2,0:0:0:0:
64,192,67543,1,8,0:0:0:0:
448,192,67710,1,0,0:0:0:0:
192,192,67710,1,2,0:0:0:0:
320,192,67876,1,0,0:0:0:0:
192,192,68042,1,2,0:0:0:0:
64,192,68042,1,0,0:0:0:0:
320,192,68208,1,8,0:0:0:0:
64,192,68374,1,4,0:0:0:0:
448,192,68374,1,2,0:0:0:0:
192,192,68540,1,0,0:0:0:0:
320,192,68706,128,0,69204:0:0:0:0:
64,192,68706,1,2,0:0:0:0:
448,192,69204,1,4,0:0:0:0:
192,192,69204,1,2,0:0:0:0:
64,192,69536,1,0,0:0:0:0:
192,192,69536,1,8,0:0:0:0:
320,192,69702,1,2,0:0:0:0:
448,192,69702,1,0,0:0:0:0:
192,192,69868,1,0,0:0:0:0:
64,192,70034,1,0,0:0:0:0:
448,192,70034,1,2,0:0:0:0:
320,192,70200,1,8,0:0:0:0:
448,192,70366,1,2,0:0:0:0:
64,192,70366,1,0,0:0:0:0:
192,192,70532,1,0,0:0:0:0:
64,192,70698,1,0,0:0:0:0:
320,192,70698,1,2,0:0:0:0:
192,192,70864,1,8,0:0:0:0:
448,192,71030,1,2,0:0:0:0:
64,192,71030,1,0,0:0:0:0:
320,192,71196,1,0,0:0:0:0:
448,192,71362,128,0,71861:0:0:0:0:
192,192,71362,1,2,0:0:0:0:
64,192,71861,1,2,0:0:0:0:
320,192,71861,1,4,0:0:0:0:
64,192,72193,1,8,0:0:0:0:
320,192,72193,1,0,0:0:0:0:
192,192,72359,1,0,0:0:0:0:
448,192,72359,1,2,0:0:0:0:
320,192,72525,1,0,0:0:0:0:
64,192,72691,1,2,0:0:0:0:
448,192,72691,1,0,0:0:0:0:
192,192,72857,1,8,0:0:0:0:
64,192,73023,1,0,0:0:0:0:
448,192,73023,1,2,0:0:0:0:
320,192,73189,1,0,0:0:0:0:
192,192,73355,1,2,0:0:0:0:
64,192,73355,1,0,0:0:0:0:
448,192,73521,1,8,0:0:0:0:
320,192,73687,1,2,0:0:0:0:
64,192,73687,1,4,0:0:0:0:
448,192,73853,1,0,0:0:0:0:
192,192,74019,1,2,0:0:0:0:
64,192,74019,128,0,74517:0:0:0:0:
448,192,74517,1,4,0:0:0:0:
320,192,74517,1,2,0:0:0:0:
192,192,74849,1,0,0:0:0:0:
320,192,74849,1,8,0:0:0:0:
448,192,75015,1,2,0:0:0:0:
64,192,75015,1,0,0:0:0:0:
320,192,75181,1,0,0:0:0:0:
64,192,75347,1,2,0:0:0:0:
192,192,75347,1,0,0:0:0:0:
320,192,75513,1,8,0:0:0:0:
448,192,75679,1,2,0:0:0:0:
64,192,75679,1,0,0:0:0:0:
192,192,75845,1,8,0:0:0:0:
448,192,76012,1,0,0:0:0:0:
320,192,76012,1,2,0:0:0:0:
192,192,76178,1,8,0:0:0:0:
448,192,76344,1,0,0:0:0:0:
64,192,76344,1,2,0:0:0:0:
320,192,76510,1,0,0:0:0:0:
192,192,76510,1,8,0:0:0:0:
448,192,76676,128,2,77174:0:0:0:0:
64,192,76842,1,8,0:0:0:0:
320,192,76842,1,0,0:0:0:0:
192,192,77174,1,8,0:0:0:0:
64,192,77174,1,4,0:0:0:0:
320,192,77340,1,0,0:0:0:0:
64,192,77506,1,0,0:0:0:0:
448,192,77506,1,8,0:0:0:0:
192,192,77672,1,0,0:0:0:0:
448,192,77838,1,8,0:0:0:0:
320,192,77838,1,0,0:0:0:0:
64,192,78004,1,0,0:0:0:0:
448,192,78170,1,8,0:0:0:0:
192,192,78170,1,0,0:0:0:0:
320,192,78336,1,0,0:0:0:0:
192,192,78502,1,0,0:0:0:0:
64,192,78502,1,8,0:0:0:0:
448,192,78668,1,0,0:0:0:0:
320,192,78834,1,0,0:0:0:0:
64,192,78834,1,8,0:0:0:0:
192,192,79000,1,0,0:0:0:0:
320,192,79166,1,8,0:0:0:0:
448,192,79166,1,0,0:0:0:0:
64,192,79332,128,0,79830:0:0:0:0:
192,192,79498,1,8,0:0:0:0:
320,192,79498,1,0,0:0:0:0:
448,192,79830,1,8,0:0:0:0:
192,192,79830,1,4,0:0:0:0:
320,192,79996,1,0,0:0:0:0:
192,192,80162,1,8,0:0:0:0:
64,192,80162,1,0,0:0:0:0:
320,192,80329,1,0,0:0:0:0:
64,192,80495,1,8,0:0:0:0:
448,192,80495,1,0,0:0:0:0:
192,192,80661,1,0,0:0:0:0:
64,192,80827,1,8,0:0:0:0:
320,192,80827,1,0,0:0:0:0:
448,192,80993,1,0,0:0:0:0:
320,192,81159,1,8,0:0:0:0:
192,192,81159,1,0,0:0:0:0:
64,192,81325,1,0,0:0:0:0:
320,192,81491,1,8,0:0:0:0:
448,192,81491,1,0,0:0:0:0:
192,192,81657,1,0,0:0:0:0:
64,192,81823,1,8,0:0:0:0:
448,192,81823,1,0,0:0:0:0:
192,192,81989,1,0,0:0:0:0:
320,192,82155,1,8,0:0:0:0:
448,192,82155,1,0,0:0:0:0:
64,192,82238,1,0,0:0:0:0:
192,192,82321,1,0,0:0:0:0:
320,192,82404,1,0,0:0:0:0:
64,192,82487,1,4,0:0:0:0:
448,192,82487,1,8,0:0:0:0:
192,192,82487,1,0,0:0:0:0:
320,192,82653,1,0,0:0:0:0:
192,192,82819,1,0,0:0:0:0:
448,192,82819,1,8,0:0:0:0:
320,192,82985,1,0,0:0:0:0:
64,192,82985,1,0,0:0:0:0:
192,192,83151,1,8,0:0:0:0:
320,192,83317,1,0,0:0:0:0:
448,192,83317,1,0,0:0:0:0:
192,192,83483,1,8,0:0:0:0:
448,192,83649,1,0,0:0:0:0:
64,192,83649,1,0,0:0:0:0:
320,192,83815,1,8,0:0:0:0:
192,192,83981,1,0,0:0:0:0:
64,192,83981,1,0,0:0:0:0:
448,192,84147,1,8,0:0:0:0:
320,192,84313,1,0,0:0:0:0:
64,192,84313,1,0,0:0:0:0:
192,192,84480,1,8,0:0:0:0:
64,192,84646,1,0,0:0:0:0:
448,192,84646,1,0,0:0:0:0:
320,192,84812,1,8,0:0:0:0:
192,192,84978,1,0,0:0:0:0:
64,192,85144,1,8,0:0:0:0:
448,192,85144,128,2,85476:0:0:0:0:
320,192,85476,1,2,0:0:0:0:
192,192,85476,1,8,0:0:0:0:
64,192,85642,128,0,85974:0:0:0:0:
448,192,85642,1,2,0:0:0:0:
192,192,85974,1,0,0:0:0:0:
320,192,85974,1,2,0:0:0:0:
448,192,86140,128,8,86472:0:0:0:0:
64,192,86140,1,2,0:0:0:0:
192,192,86472,1,2,0:0:0:0:
320,192,86555,1,2,0:0:0:0:
448,192,86638,1,2,0:0:0:0:
320,192,86721,1,2,0:0:0:0:
192,192,86804,1,2,0:0:0:0:
64,192,86887,1,2,0:0:0:0:
192,192,86970,1,2,0:0:0:0:
320,192,87053,1,2,0:0:0:0:
448,192,87136,128,4,89129:0:0:0:0:
64,192,87136,1,8,0:0:0:0:
