osu file format v14

[General]
AudioFilename: audio.mp3
AudioLeadIn: 0
PreviewTime: -1
Countdown: 1
SampleSet: Soft
StackLeniency: 0.7
Mode: 0
LetterboxInBreaks: 0
WidescreenStoryboard: 0

[Editor]
Bookmarks: 66035,77160,82473,89115
DistanceSpacing: 0.6
BeatDivisor: 8
GridSize: 4
TimelineZoom: 1

[Metadata]
Title:Guren no Yumiya
TitleUnicode:Guren no Yumiya
Artist:Linked Horizon
ArtistUnicode:Linked Horizon
Creator:Ameyy
Version:mikasa bae
Source:
Tags:
BeatmapID:1386539
BeatmapSetID:654104

[Difficulty]
HPDrainRate:7
CircleSize:4
OverallDifficulty:7
ApproachRate:9.2
SliderMultiplier:2.3
SliderTickRate:1

[Events]
//Background and Video events
0,0,"thumb-1920-463601.jpg",0,0
//Break Periods
//Storyboard Layer 0 (Background)
//Storyboard Layer 1 (Fail)
//Storyboard Layer 2 (Pass)
//Storyboard Layer 3 (Foreground)
//Storyboard Sound Samples

[TimingPoints]
118,332.078813371707,4,1,0,100,1,0
118,-111.111111111111,4,2,0,100,0,0
2276,-111.111111111111,4,1,0,100,0,0
2774,-100,4,2,0,100,0,0
7755,-100,4,1,0,100,0,0
8087,-90.9090909090909,4,2,0,100,0,0
10412,-111.111111111111,4,2,0,100,0,0
10744,-90.9090909090909,4,2,0,100,0,0
11906,-83.3333333333333,4,2,0,100,0,0
12903,-111.111111111111,4,2,0,100,0,0
13401,-111.111111111111,4,2,0,70,0,0
14729,-111.111111111111,4,3,0,80,0,0
15061,-142.857142857143,4,3,0,80,0,0
24857,-200,4,3,0,80,0,0
25355,-100,4,2,0,100,0,0
35484,-166.666666666667,4,2,0,100,0,0
35982,-100,4,2,0,100,0,0
38639,-90.9090909090909,4,2,0,100,0,0
40631,-83.3333333333333,4,2,0,100,0,0
40963,-100,4,2,0,100,0,0
43122,-90.9090909090909,4,2,0,100,0,0
43620,-100,4,2,0,100,0,0
46276,-100,4,1,0,100,0,0
46609,-83.3333333333333,4,1,0,100,0,1
65039,-83.3333333333333,4,1,0,100,0,0
66533,-100,4,2,0,100,0,0
71680,-100,4,1,0,100,0,0
71847,-90.9090909090909,4,2,0,100,0,0
74171,-111.111111111111,4,2,0,100,0,0
74503,-90.9090909090909,4,2,0,100,0,0
76994,-90.9090909090909,4,1,0,100,0,0
77160,-90.9090909090909,4,2,0,100,0,0
77160,-83.3333333333333,4,2,0,100,0,0
79484,-111.111111111111,4,2,0,100,0,0
79733,-83.3333333333333,4,2,0,100,0,0
84798,-111.111111111111,4,2,0,100,0,0
87122,-200,4,2,0,100,0,0

[HitObjects]
76,84,118,6,0,B|80:148|152:176|152:176|172:128|260:140,1,206.999993682862,4|8,0:0|0:0,0:0:0:0:
296,84,616,1,0,0:0:0:0:
151,171,782,2,0,P|189:206|272:186,1,103.499996841431
382,243,1114,1,8,0:0:0:0:
396,262,1197,1,0,0:0:0:0:
409,277,1280,2,0,L|308:300,1,103.499996841431
486,229,1612,5,0,0:0:0:0:
416,167,1778,1,8,0:0:0:0:
390,379,1944,2,0,L|411:269,1,103.499996841431
487,124,2276,5,0,0:0:0:0:
467,107,2359,1,0,0:0:0:0:
444,93,2442,1,8,0:0:0:0:
418,89,2525,1,0,0:0:0:0:
392,93,2608,1,0,0:0:0:0:
369,105,2691,1,0,0:0:0:0:
347,123,2774,6,0,L|283:246,1,115,4|0,0:0|0:0,0:0:0:0:
303,59,3106,2,0,P|370:47|419:89,1,115,8|0,0:0|0:0,0:0:0:0:
512,288,3438,2,0,P|445:300|396:258,1,115
466,182,3770,1,8,0:0:0:0:
321,263,3936,1,0,0:0:0:0:
378,182,4102,5,0,0:0:0:0:
220,221,4268,1,0,0:0:0:0:
359,55,4435,2,0,L|374:173,1,115,8|0,0:0|0:0,0:0:0:0:
138,169,4767,2,0,L|153:55,1,115
361,260,5099,6,0,B|294:252|256:295|256:295|220:254|120:250,1,230,8|0,0:0|0:0,0:0:0:0:
255,192,5597,5,0,0:0:0:0:
429,217,5763,2,0,P|435:289|392:336,1,115,8|0,0:0|0:0,0:0:0:0:
366,155,6095,2,0,P|431:130|502:169,1,115
327,245,6427,5,8,0:0:0:0:
255,192,6593,1,0,0:0:0:0:
345,48,6759,5,0,0:0:0:0:
358,136,6925,5,0,0:0:0:0:
198,94,7091,1,8,0:0:0:0:
420,81,7257,1,0,0:0:0:0:
116,88,7423,2,0,P|136:151|181:174,1,115
171,21,7755,5,8,0:0:0:0:
145,7,7838,1,0,0:0:0:0:
116,3,7921,1,0,0:0:0:0:
87,7,8004,1,0,0:0:0:0:
58,20,8087,6,0,L|17:143,1,126.500003860474,4|0,0:0|0:0,0:0:0:0:
119,204,8419,1,8,0:0:0:0:
10,231,8586,1,0,0:0:0:0:
262,143,8752,6,0,L|277:283,1,126.500003860474
186,320,9084,1,8,0:0:0:0:
286,370,9250,1,0,0:0:0:0:
472,316,9416,2,0,L|345:292,1,126.500003860474
501,198,9748,2,0,L|355:208,1,126.500003860474,8|0,0:0|0:0,0:0:0:0:
361,112,10080,5,0,0:0:0:0:
338,288,10246,1,0,0:0:0:0:
437,86,10412,2,0,P|394:39|282:103,1,206.999993682862,8|0,0:0|0:0,0:0:0:0:
187,26,10910,5,0,0:0:0:0:
283,94,11076,2,0,L|181:187,1,126.500003860474,8|0,0:0|0:0,0:0:0:0:
136,264,11408,1,0,0:0:0:0:
36,286,11574,1,0,0:0:0:0:
66,186,11740,1,8,0:0:0:0:
109,44,11906,6,0,L|72:177,1,137.999995788574
444,153,12238,2,0,L|486:286,1,137.999995788574,0|8,0:0|0:0,0:0:0:0:
483,64,12570,2,0,P|401:64|346:123,1,137.999995788574
103,193,12903,2,0,P|169:247|318:172,1,258.749992103577
317,169,13401,5,0,0:0:0:0:
175,94,13567,1,0,0:0:0:0:
324,169,13733,1,8,0:0:0:0:
454,105,13899,1,0,0:0:0:0:
219,26,14065,1,0,0:0:0:0:
251,239,14231,1,0,0:0:0:0:
413,29,14397,1,8,0:0:0:0:
381,242,14563,1,0,0:0:0:0:
488,97,14729,2,0,B|417:129|389:135|389:135|347:104|320:104,1,155.249995262146
311,100,15061,5,8,0:0:0:0:
219,143,15227,2,0,L|191:227,1,80.499997543335
94,191,15559,2,0,L|57:289,1,80.499997543335,0|8,0:0|0:0,0:0:0:0:
23,125,15891,5,8,0:0:0:0:
48,107,15974,1,8,0:0:0:0:
77,93,16057,2,0,P|129:100|164:123,1,80.499997543335
213,296,16389,2,0,P|161:289|126:266,1,80.499997543335,8|0,0:0|0:0,0:0:0:0:
275,234,16721,1,0,0:0:0:0:
299,323,16887,1,0,0:0:0:0:
456,231,17054,2,0,L|365:187,1,80.499997543335,8|0,0:0|0:0,0:0:0:0:
352,108,17303,5,8,0:0:0:0:
352,108,17386,2,0,L|237:121,1,80.499997543335
403,42,17718,1,8,0:0:0:0:
403,42,17884,2,0,P|435:100|426:143,1,80.499997543335
227,184,18216,2,0,P|195:126|204:83,1,80.499997543335,0|8,0:0|0:0,0:0:0:0:
241,273,18548,5,8,0:0:0:0:
257,296,18631,1,8,0:0:0:0:
272,317,18714,2,0,L|177:332,1,80.499997543335
36,257,19046,2,0,L|130:289,1,80.499997543335,8|0,0:0|0:0,0:0:0:0:
74,134,19378,1,0,0:0:0:0:
0,177,19544,1,0,0:0:0:0:
183,80,19710,6,0,L|160:182,1,80.499997543335,8|0,0:0|0:0,0:0:0:0:
257,197,19959,1,8,0:0:0:0:
278,199,20042,2,0,L|283:287,1,80.499997543335
306,102,20374,1,8,0:0:0:0:
389,158,20540,2,0,P|441:115|454:86,1,80.499997543335
232,72,20872,2,0,P|235:137|257:165,1,80.499997543335,0|8,0:0|0:0,0:0:0:0:
333,294,21205,5,8,0:0:0:0:
361,294,21288,1,8,0:0:0:0:
385,291,21371,2,0,L|343:199,1,80.499997543335
374,369,21703,2,0,P|432:360|459:328,1,80.499997543335,8|0,0:0|0:0,0:0:0:0:
471,237,22035,2,0,L|481:137,1,80.499997543335
398,48,22367,2,0,L|400:158,1,80.499997543335,8|0,0:0|0:0,0:0:0:0:
303,149,22616,5,8,0:0:0:0:
303,149,22699,2,0,P|225:135|194:147,1,80.499997543335
147,96,23031,1,8,0:0:0:0:
203,241,23197,2,0,P|281:255|312:243,1,80.499997543335
138,104,23529,2,0,L|120:200,1,80.499997543335,0|8,0:0|0:0,0:0:0:0:
26,193,23861,5,8,0:0:0:0:
31,226,23944,1,8,0:0:0:0:
34,256,24027,2,0,L|47:348,1,80.499997543335
195,348,24359,1,8,0:0:0:0:
129,278,24525,1,0,0:0:0:0:
324,311,24691,2,0,L|369:280,1,40.2499987716675
281,232,24857,2,0,L|448:232,1,143.75
453,227,25355,5,0,0:0:0:0:
352,121,25522,1,0,0:0:0:0:
208,205,25688,2,0,P|207:270|265:312,1,115,8|0,0:0|0:0,0:0:0:0:
251,126,26020,1,0,0:0:0:0:
157,115,26186,1,0,0:0:0:0:
211,40,26352,1,8,0:0:0:0:
423,64,26518,5,0,0:0:0:0:
423,64,26601,1,0,0:0:0:0:
423,64,26684,2,0,B|359:54|341:73|293:48,1,115
512,83,27016,1,8,0:0:0:0:
446,149,27182,1,0,0:0:0:0:
475,345,27348,2,0,B|474:308|474:308|462:272|462:272|458:195,1,115
374,207,27680,1,8,0:0:0:0:
214,183,27846,6,0,L|270:231,1,57.5
238,108,28012,2,0,P|157:126|133:168,1,115
95,277,28344,1,8,0:0:0:0:
37,210,28510,1,0,0:0:0:0:
31,116,28676,2,0,L|51:-7,2,115,0|0|8,0:0|0:0|0:0,0:0:0:0:
115,222,29174,5,0,0:0:0:0:
118,245,29257,1,0,0:0:0:0:
122,265,29340,2,0,L|101:394,1,115
308,208,29673,2,0,B|260:176|260:176|188:188,1,115,8|0,0:0|0:0,0:0:0:0:
288,336,30005,2,0,B|336:368|336:368|408:356,1,115
416,240,30337,5,8,0:0:0:0:
416,240,30420,1,0,0:0:0:0:
416,240,30503,1,0,0:0:0:0:
363,109,30669,1,0,0:0:0:0:
510,141,30835,1,0,0:0:0:0:
308,37,31001,1,8,0:0:0:0:
308,37,31167,2,0,P|275:91|298:175,1,115
94,236,31499,2,0,P|127:182|104:98,1,115,0|8,0:0|0:0,0:0:0:0:
24,289,31831,5,0,0:0:0:0:
38,317,31914,1,0,0:0:0:0:
56,343,31997,2,0,L|186:352,1,115
341,350,32329,2,0,L|456:343,1,115,8|0,0:0|0:0,0:0:0:0:
308,227,32661,1,0,0:0:0:0:
308,227,32827,2,0,P|222:251|192:299,1,115,0|8,0:0|0:0,0:0:0:0:
409,163,33159,5,0,0:0:0:0:
409,163,33242,1,0,0:0:0:0:
409,163,33325,2,0,L|350:43,1,115
503,159,33657,1,8,0:0:0:0:
503,159,33823,2,0,P|480:231|430:260,1,115
305,226,34156,1,0,0:0:0:0:
365,352,34322,1,8,0:0:0:0:
209,180,34488,5,0,0:0:0:0:
179,191,34571,1,0,0:0:0:0:
152,203,34654,2,0,B|108:195|80:227|27:191,1,115
157,90,34986,1,8,0:0:0:0:
141,298,35152,1,0,0:0:0:0:
331,206,35318,1,0,0:0:0:0:
45,32,35484,2,0,B|-6:105|84:141|26:220,1,172.499994735718
34,279,35982,6,0,P|98:256|117:203,1,115,4|0,0:0|0:0,0:0:0:0:
214,111,36314,1,8,0:0:0:0:
122,210,36480,1,0,0:0:0:0:
262,247,36646,1,0,0:0:0:0:
154,53,36812,1,0,0:0:0:0:
306,83,36978,1,8,0:0:0:0:
201,191,37144,1,0,0:0:0:0:
316,84,37310,6,0,B|357:84|357:84|385:104|385:104|456:104,1,115
375,192,37642,1,8,0:0:0:0:
485,37,37808,1,0,0:0:0:0:
381,271,37974,2,0,P|326:253|299:197,1,115
469,269,38307,2,0,P|452:335|395:361,1,115,8|0,0:0|0:0,0:0:0:0:
288,351,38639,6,2,B|196:372|196:321|48:358,1,189.750005790711
10,278,38971,2,2,P|71:234|182:274,1,189.750005790711,10|2,0:0|0:0,0:0:0:0:
99,348,39303,2,2,L|83:142,1,189.750005790711
171,63,39635,1,10,0:0:0:0:
171,63,39801,2,2,L|206:152,1,63.2500019302369
286,152,39967,6,2,B|319:183|319:183|278:334,1,189.750005790711
205,267,40299,2,2,P|285:228|365:283,1,189.750005790711,10|2,0:0|0:0,0:0:0:0:
203,353,40631,2,2,P|132:308|229:165,1,275.999991577149
159,85,41046,2,8,L|65:140,1,57.5
251,88,41212,6,0,L|401:129,1,115
473,58,41461,1,0,0:0:0:0:
388,203,41627,1,8,0:0:0:0:
486,161,41793,1,0,0:0:0:0:
354,34,41959,1,0,0:0:0:0:
465,243,42125,1,0,0:0:0:0:
465,243,42292,2,0,P|410:287|343:269,1,115,8|0,0:0|0:0,0:0:0:0:
194,246,42624,5,0,0:0:0:0:
298,344,42790,1,0,0:0:0:0:
299,154,42956,1,8,0:0:0:0:
116,220,43122,2,0,L|74:389,1,126.500003860474
303,147,43454,2,0,L|334:4,1,126.500003860474,0|8,0:0|0:0,0:0:0:0:
225,158,43786,6,0,P|275:224|384:146,1,230
390,312,44284,1,8,0:0:0:0:
226,308,44450,1,0,0:0:0:0:
310,376,44616,1,0,0:0:0:0:
164,246,44782,1,0,0:0:0:0:
164,246,44948,2,0,P|136:309|157:361,1,115,8|0,0:0|0:0,0:0:0:0:
98,118,45280,5,0,0:0:0:0:
26,219,45446,1,0,0:0:0:0:
258,178,45612,5,8,0:0:0:0:
227,60,45778,1,0,0:0:0:0:
451,158,45944,5,0,0:0:0:0:
379,259,46110,1,0,0:0:0:0:
225,347,46276,5,8,0:0:0:0:
197,338,46359,1,0,0:0:0:0:
172,323,46442,1,0,0:0:0:0:
148,306,46526,1,0,0:0:0:0:
133,274,46609,6,0,L|164:134,1,137.999995788574,4|0,0:0|0:0,0:0:0:0:
304,57,46941,1,8,0:0:0:0:
68,72,47107,2,0,L|53:157,1,68.9999978942872
5,205,47273,1,0,0:0:0:0:
253,156,47439,2,0,L|399:201,1,137.999995788574,0|8,0:0|0:0,0:0:0:0:
231,47,47771,5,0,0:0:0:0:
265,265,47937,1,0,0:0:0:0:
365,86,48103,1,0,0:0:0:0:
394,278,48269,1,8,0:0:0:0:
414,22,48435,2,0,P|442:100|415:151,1,137.999995788574
215,332,48767,2,0,P|187:254|214:203,1,137.999995788574,0|8,0:0|0:0,0:0:0:0:
435,335,49099,5,0,0:0:0:0:
435,335,49182,1,0,0:0:0:0:
435,335,49265,2,0,L|276:353,1,137.999995788574
208,206,49597,1,8,0:0:0:0:
286,258,49763,1,0,0:0:0:0:
83,188,49929,2,0,B|84:137|84:137|98:102|98:102|99:50,1,137.999995788574
330,66,50261,5,8,0:0:0:0:
348,85,50344,1,0,0:0:0:0:
368,107,50427,2,0,P|300:149|222:126,1,137.999995788574,4|0,0:0|0:0,0:0:0:0:
461,95,50760,1,0,0:0:0:0:
369,239,50926,1,8,0:0:0:0:
466,109,51092,6,0,L|478:249,1,137.999995788574
379,384,51424,2,0,L|367:244,1,137.999995788574,0|8,0:0|0:0,0:0:0:0:
474,368,51756,5,0,0:0:0:0:
429,379,51839,1,0,0:0:0:0:
379,384,51922,2,0,P|274:381|224:362,1,137.999995788574
179,183,52254,1,8,0:0:0:0:
246,274,52420,1,0,0:0:0:0:
296,170,52586,1,0,0:0:0:0:
106,149,52752,1,0,0:0:0:0:
347,276,52918,1,8,0:0:0:0:
217,57,53084,1,0,0:0:0:0:
154,300,53250,5,0,0:0:0:0:
357,119,53416,1,0,0:0:0:0:
91,148,53582,1,8,0:0:0:0:
95,158,53748,2,0,P|167:196|231:181,1,137.999995788574
365,114,54080,2,0,P|293:76|229:91,1,137.999995788574,0|8,0:0|0:0,0:0:0:0:
109,264,54412,5,0,0:0:0:0:
137,290,54495,1,0,0:0:0:0:
167,317,54578,2,0,B|218:301|253:342|311:312,1,137.999995788574
434,243,54911,1,8,0:0:0:0:
382,348,55077,1,0,0:0:0:0:
336,143,55243,1,0,0:0:0:0:
511,228,55409,1,0,0:0:0:0:
332,239,55575,1,8,0:0:0:0:
448,104,55741,1,0,0:0:0:0:
251,245,55907,6,0,P|295:316|366:311,1,137.999995788574,0|4,0:0|0:0,0:0:0:0:
448,104,56239,1,8,0:0:0:0:
427,81,56322,1,0,0:0:0:0:
405,59,56405,1,0,0:0:0:0:
263,123,56571,6,0,B|179:157|139:196|139:196|111:133|24:132,1,275.999991577149,4|8,0:0|0:0,0:0:0:0:
162,26,57069,2,0,L|157:109,1,68.9999978942872
141,192,57235,1,0,0:0:0:0:
263,249,57401,1,0,0:0:0:0:
383,170,57567,1,8,0:0:0:0:
261,128,57733,1,0,0:0:0:0:
266,306,57899,1,0,0:0:0:0:
443,234,58065,2,0,P|466:164|423:95,1,137.999995788574,0|8,0:0|0:0,0:0:0:0:
214,258,58397,5,0,0:0:0:0:
240,284,58480,1,0,0:0:0:0:
266,306,58563,2,0,B|321:343|321:343|412:323,1,137.999995788574
137,218,58895,2,0,L|116:357,1,137.999995788574,8|0,0:0|0:0,0:0:0:0:
50,182,59228,1,0,0:0:0:0:
229,146,59394,1,0,0:0:0:0:
127,29,59560,1,8,0:0:0:0:
225,55,59726,1,0,0:0:0:0:
263,64,59809,1,0,0:0:0:0:
302,74,59892,5,0,0:0:0:0:
471,125,60058,1,0,0:0:0:0:
318,181,60224,1,8,0:0:0:0:
404,21,60390,1,0,0:0:0:0:
362,252,60556,2,0,P|279:258|240:199,1,137.999995788574
479,342,60888,1,8,0:0:0:0:
479,342,60971,1,0,0:0:0:0:
479,342,61054,2,0,L|323:355,1,137.999995788574
247,221,61386,1,0,0:0:0:0:
199,370,61552,1,8,0:0:0:0:
366,261,61718,5,0,0:0:0:0:
268,134,61884,1,0,0:0:0:0:
167,232,62050,1,0,0:0:0:0:
348,170,62216,1,8,0:0:0:0:
270,351,62382,1,0,0:0:0:0:
190,126,62548,6,0,L|24:175,1,137.999995788574
132,43,62880,1,8,0:0:0:0:
83,252,63046,1,0,0:0:0:0:
269,71,63212,1,0,0:0:0:0:
52,63,63379,2,0,P|103:121|187:97,1,137.999995788574,0|8,0:0|0:0,0:0:0:0:
489,183,63711,6,0,B|425:141|359:171|359:171|351:89|246:64,1,275.999991577149
423,71,64209,1,8,0:0:0:0:
413,278,64375,1,0,0:0:0:0:
253,174,64541,1,0,0:0:0:0:
429,295,64707,2,0,L|290:344,1,137.999995788574,0|8,0:0|0:0,0:0:0:0:
130,173,65039,5,0,0:0:0:0:
148,200,65122,1,0,0:0:0:0:
168,223,65205,1,0,0:0:0:0:
188,245,65288,1,0,0:0:0:0:
191,107,66035,5,0,0:0:0:0:
159,92,66118,1,0,0:0:0:0:
125,85,66201,1,8,0:0:0:0:
91,94,66284,1,0,0:0:0:0:
62,112,66367,1,0,0:0:0:0:
44,141,66450,1,0,0:0:0:0:
53,174,66533,6,0,P|71:246|65:285,1,115,4|0,0:0|0:0,0:0:0:0:
202,218,66865,2,0,P|184:146|190:107,1,115,8|0,0:0|0:0,0:0:0:0:
341,167,67197,1,0,0:0:0:0:
265,49,67363,1,0,0:0:0:0:
343,184,67529,2,0,L|312:317,1,115,8|0,0:0|0:0,0:0:0:0:
363,370,67862,5,0,0:0:0:0:
454,294,68028,1,0,0:0:0:0:
339,368,68194,2,0,P|267:353|245:292,1,115,8|0,0:0|0:0,0:0:0:0:
258,204,68526,1,0,0:0:0:0:
415,221,68692,1,0,0:0:0:0:
240,204,68858,2,0,B|177:211|143:258|143:258|110:196|8:197,1,230,8|0,0:0|0:0,0:0:0:0:
152,84,69356,5,0,0:0:0:0:
249,58,69522,2,0,L|244:205,1,115,8|0,0:0|0:0,0:0:0:0:
338,207,69854,1,0,0:0:0:0:
154,309,70020,1,0,0:0:0:0:
68,295,70186,1,8,0:0:0:0:
68,295,70352,6,0,P|86:371|134:391,1,115
412,227,70684,2,0,P|394:151|346:131,1,115,0|8,0:0|0:0,0:0:0:0:
55,190,71016,2,0,L|192:224,1,115
445,321,71348,2,0,L|308:287,1,115,0|8,0:0|0:0,0:0:0:0:
218,133,71680,5,0,0:0:0:0:
233,157,71764,1,0,0:0:0:0:
250,183,71847,2,0,P|252:244|81:266,1,253.000007720947,4|8,0:0|0:0,0:0:0:0:
144,64,72345,1,0,0:0:0:0:
227,31,72511,1,0,0:0:0:0:
303,86,72677,2,0,B|349:86|349:86|376:104|376:104|461:106,1,126.500003860474,0|8,0:0|0:0,0:0:0:0:
293,217,73009,1,0,0:0:0:0:
210,184,73175,1,0,0:0:0:0:
134,239,73341,2,0,B|64:254|-17:226,1,126.500003860474,0|8,0:0|0:0,0:0:0:0:
77,128,73673,5,0,0:0:0:0:
111,336,73839,1,0,0:0:0:0:
210,184,74005,1,0,0:0:0:0:
2,101,74171,2,0,P|61:49|157:123,1,206.999993682861,8|0,0:0|0:0,0:0:0:0:
371,113,74669,5,0,0:0:0:0:
345,230,74835,2,0,L|315:363,1,126.500003860474,8|0,0:0|0:0,0:0:0:0:
454,226,75167,1,0,0:0:0:0:
371,113,75333,1,0,0:0:0:0:
345,231,75499,1,8,0:0:0:0:
345,231,75665,6,0,L|203:171,1,126.500003860474
42,198,75998,2,0,L|175:249,1,126.500003860474,0|8,0:0|0:0,0:0:0:0:
148,137,76330,1,8,0:0:0:0:
242,275,76496,1,8,0:0:0:0:
262,98,76662,1,8,0:0:0:0:
159,246,76828,1,8,0:0:0:0:
362,108,76994,6,0,L|342:169,1,63.2500019302369
414,225,77160,2,4,L|450:375,1,137.999995788574,4|0,0:0|0:0,0:0:0:0:
266,156,77492,2,4,L|309:13,1,137.999995788574,12|0,0:0|0:0,0:0:0:0:
151,232,77824,2,4,L|187:382,1,137.999995788574,4|0,0:0|0:0,0:0:0:0:
30,156,78156,2,4,L|73:13,1,137.999995788574,12|0,0:0|0:0,0:0:0:0:
108,359,78488,2,4,L|68:226,1,137.999995788574,4|0,0:0|0:0,0:0:0:0:
222,17,78820,2,4,L|189:151,1,137.999995788574,12|0,0:0|0:0,0:0:0:0:
345,359,79152,2,4,L|305:226,1,137.999995788574,4|0,0:0|0:0,0:0:0:0:
485,24,79484,2,4,L|438:247,1,206.999993682861,4|0,0:0|0:0,0:0:0:0:
356,140,79982,5,0,0:0:0:0:
337,280,80148,1,12,0:0:0:0:
232,75,80315,1,0,0:0:0:0:
230,328,80481,1,0,0:0:0:0:
107,135,80647,1,0,0:0:0:0:
126,275,80813,1,12,0:0:0:0:
370,145,80979,6,0,L|418:291,1,137.999995788574
58,278,81311,2,0,L|101:146,1,137.999995788574,0|12,0:0|0:0,0:0:0:0:
486,284,81643,2,0,P|430:351|372:333,1,137.999995788574
28,138,81975,2,0,P|86:72|145:89,1,137.999995788574,0|12,0:0|0:0,0:0:0:0:
255,193,82307,5,0,0:0:0:0:
255,193,82390,1,0,0:0:0:0:
255,193,82473,1,0,0:0:0:0:
353,150,82639,1,0,0:0:0:0:
157,144,82805,1,12,0:0:0:0:
316,276,82971,1,0,0:0:0:0:
252,65,83137,1,0,0:0:0:0:
193,272,83303,1,0,0:0:0:0:
374,141,83469,5,12,0:0:0:0:
139,133,83635,1,0,0:0:0:0:
329,295,83801,1,0,0:0:0:0:
250,39,83967,1,0,0:0:0:0:
177,293,84133,1,12,0:0:0:0:
395,134,84299,5,0,0:0:0:0:
113,127,84465,1,0,0:0:0:0:
338,314,84631,1,0,0:0:0:0:
249,20,84798,2,0,B|284:90|202:142|269:238,1,206.999993682861,12|0,0:0|0:0,0:0:0:0:
469,241,85420,5,0,0:0:0:0:
338,314,85586,1,0,0:0:0:0:
43,241,85918,5,0,0:0:0:0:
174,314,86084,1,0,0:0:0:0:
259,207,86292,5,0,0:0:0:0:
327,316,86458,5,0,0:0:0:0:
301,315,86541,1,0,0:0:0:0:
275,314,86624,1,0,0:0:0:0:
249,314,86707,1,0,0:0:0:0:
223,314,86790,1,8,0:0:0:0:
197,315,86873,1,0,0:0:0:0:
174,314,86956,1,0,0:0:0:0:
77,293,87122,6,0,P|256:57|424:302,1,690,0|4,0:0|0:0,0:0:0:0:
