osu file format v14

[General]
AudioFilename: audio.mp3
AudioLeadIn: 0
PreviewTime: 21054
Countdown: 0
SampleSet: Soft
StackLeniency: 0.7
Mode: 0
LetterboxInBreaks: 0
WidescreenStoryboard: 0

[Editor]
Bookmarks: 24043,35997,46624,57250,67877,78503,86473,87802,99757,110383,121010,142263,152889,163516,184769,195395,203365,207350,217977,228603,249856,260483,271109,280407,291034,300996,306310
DistanceSpacing: 0.4
BeatDivisor: 4
GridSize: 4
TimelineZoom: 1.8

[Metadata]
Title:Guren no Yumiya
TitleUnicode:紅蓮の弓矢
Artist:Linked Horizon
ArtistUnicode:Linked Horizon
Creator:Free Hong Kong
Version:Titan
Source:進撃の巨人
Tags:Attack on Titan Shingeki no Kyojin Revo Sound anime japanese opening op bor movement mapper
BeatmapID:2182766
BeatmapSetID:1044124

[Difficulty]
HPDrainRate:5
CircleSize:4
OverallDifficulty:9.7
ApproachRate:9.8
SliderMultiplier:1.85
SliderTickRate:1

[Events]
//Background and Video events
0,0,"guren no yujmiay.jpg",0,0
//Break Periods
//Storyboard Layer 0 (Background)
//Storyboard Layer 1 (Fail)
//Storyboard Layer 2 (Pass)
//Storyboard Layer 3 (Foreground)
//Storyboard Layer 4 (Overlay)
//Storyboard Sound Samples

[TimingPoints]
2790,332.078813371707,4,2,1,50,1,0
2790,-200,4,2,1,50,0,0
22714,-125,4,2,1,50,0,0
23046,-111.111111111111,4,2,1,50,0,0
23378,-100,4,2,1,50,0,0
24043,-58.8235294117647,4,2,1,70,0,0
27861,-40,4,2,1,70,0,0
28526,-35.7142857142857,4,2,1,70,0,0
29356,-50,4,2,1,70,0,0
32012,-45.4545454545455,4,2,1,70,0,0
33175,-35.7142857142857,4,2,1,70,0,0
33839,-33.3333333333333,4,2,1,70,0,0
34669,-66.6666666666667,4,2,1,70,0,0
35001,-58.8235294117647,4,2,1,70,0,0
35333,-54.054054054054,4,2,1,70,0,0
35997,-100,4,2,1,55,0,0
46126,-66.6666666666667,4,2,1,50,0,0
46292,-66.6666666666667,4,2,1,55,0,0
50526,-66.6666666666667,4,2,1,50,0,0
50609,-66.6666666666667,4,2,1,55,0,0
51937,-60.6060606060606,4,2,1,55,0,0
52850,-60.6060606060606,4,2,1,50,0,0
52933,-60.6060606060606,4,2,1,55,0,0
56752,-60.6060606060606,4,2,1,50,0,0
57250,-50,4,2,1,65,0,0
61235,-45.4545454545455,4,2,1,75,0,0
61900,-41.6666666666667,4,2,1,75,0,0
62896,-55.5555555555556,4,2,1,65,0,0
67877,-43.4782608695652,4,2,1,80,0,0
71696,-40,4,2,1,80,0,0
73522,-35.7142857142857,4,2,1,80,0,0
74352,-41.6666666666667,4,2,1,80,0,0
78503,-40,4,2,1,80,0,0
80911,-40,4,2,1,50,0,0
80994,-40,4,2,1,80,0,0
81824,-40,4,2,1,50,0,0
81990,-40,4,2,1,80,0,0
82239,-40,4,2,1,50,0,0
82322,-40,4,2,1,80,0,0
84149,-35.7142857142857,4,2,1,80,0,0
84979,-40,4,2,1,80,0,0
86473,-55.5555555555556,4,2,1,80,0,0
91621,-40,4,2,1,80,0,0
92285,-35.7142857142857,4,2,1,80,0,0
93115,-50,4,2,1,80,0,0
95772,-45.4545454545455,4,2,1,80,0,0
96934,-43.4782608695652,4,2,1,80,0,0
97598,-40.8163265306122,4,2,1,80,0,0
98428,-57.1428571428571,4,2,1,70,0,0
103741,-41.6666666666667,4,2,1,75,0,0
104240,-50,4,2,1,75,0,0
107726,-45.4545454545455,4,2,1,75,0,0
110383,-52.6315789473684,4,2,1,70,0,0
112957,-52.6315789473684,4,2,1,50,0,0
113040,-52.6315789473684,4,2,1,70,0,0
119598,-52.6315789473684,4,2,1,50,0,0
119681,-52.6315789473684,4,2,1,70,0,0
131636,-46.5116279069767,4,2,1,75,0,0
135455,-35.7142857142857,4,2,1,75,0,0
136949,-45.4545454545455,4,2,1,75,0,0
142263,-62.5,4,2,1,70,0,0
148406,-62.5,4,2,1,50,0,0
148572,-62.5,4,2,1,70,0,0
152889,-52.6315789473684,4,2,1,70,0,0
163516,-43.4782608695652,4,2,1,80,0,0
169050,-43.4782608695652,4,2,1,80,0,0
169493,-43.4782608695652,4,2,1,80,0,0
175470,-40,4,2,1,80,0,0
184437,-35.7142857142857,4,2,1,90,0,0
184935,-35.7142857142857,4,2,1,80,0,0
190082,-35.7142857142857,4,2,1,85,0,0
195395,-76.9230769230769,4,2,1,60,0,0
203365,-76.9230769230769,4,2,1,70,0,0
204693,-76.9230769230769,4,2,1,80,0,0
207350,-76.9230769230769,4,2,1,60,0,0
216648,-50,4,2,1,60,0,0
217977,-66.6666666666667,4,2,1,60,0,0
227275,-50,4,2,1,75,0,0
228603,-58.8235294117647,4,2,1,55,0,0
239230,-58.8235294117647,4,2,1,65,0,0
249856,-47.6190476190476,4,2,0,50,0,0
250188,-47.6190476190476,4,2,1,70,0,0
255003,-45.4545454545455,4,2,1,75,0,0
257660,-41.6666666666667,4,2,1,75,0,0
269947,-38.4615384615385,4,2,1,85,0,0
287796,-38.4615384615385,4,2,1,50,0,0
287879,-38.4615384615385,4,2,1,85,0,0
287962,-38.4615384615385,4,2,1,50,0,0
288045,-38.4615384615385,4,2,1,85,0,0
290287,-38.4615384615385,4,2,1,50,0,0
290370,-38.4615384615385,4,2,1,85,0,0
291034,-35.7142857142857,4,2,1,92,0,0
293275,-35.7142857142857,4,2,1,50,0,0
293358,-35.7142857142857,4,2,1,92,0,0
299004,-33.3333333333333,4,2,1,100,0,0
300332,-33.3333333333333,4,2,1,90,0,0

[Colours]
Combo1 : 149,176,179
Combo2 : 203,146,146
Combo3 : 151,211,217
Combo4 : 196,102,104

[HitObjects]
381,114,2790,5,4,3:0:0:0:
164,32,5446,2,0,L|59:51,1,92.5,4|4,0:3|0:3,0:0:0:0:
421,162,7439,1,8,0:0:0:0:
165,316,8103,5,4,1:2:0:0:
504,266,10759,2,0,L|513:364,1,92.5,4|4,0:3|0:3,0:0:0:0:
136,371,12752,1,8,0:0:0:0:
200,61,13416,5,4,1:2:0:0:
113,270,16073,2,0,L|6:253,1,92.5,4|4,0:3|0:3,0:0:0:0:
199,47,18065,1,8,0:0:0:0:
330,255,18729,5,4,1:2:0:0:
60,20,20058,1,4,3:0:0:0:
256,192,20141,12,4,21386,1:0:0:0:
157,204,22714,6,0,L|213:219,3,37,0|0|0|0,3:3|3:0|3:0|3:0,3:0:0:0:
290,156,23046,2,0,L|340:192,3,41.6249987297059,0|0|0|0,3:3|3:0|3:0|3:0,3:0:0:0:
437,253,23378,2,0,L|452:314,1,46.25,6|0,3:0|0:0,0:0:0:0:
479,287,23544,2,0,L|464:361,1,46.25,6|0,3:0|0:0,0:0:0:0:
480,107,23710,1,8,0:0:0:0:
482,93,23793,1,8,0:0:0:0:
485,79,23877,1,8,0:0:0:0:
488,65,23960,1,8,0:0:0:0:
382,148,24043,6,0,P|280:111|233:-4,1,235.875004498959,4|0,1:0|0:0,0:0:0:0:
200,261,24375,2,0,P|188:302|141:377,1,78.6250014996529,4|0,3:0|0:0,0:0:0:0:
36,201,24541,2,0,P|109:125|195:112,1,157.250002999306,2|0,3:2|0:0,0:0:0:0:
320,283,24873,2,0,L|400:253,1,78.6250014996529,2|0,0:0|0:0,0:0:0:0:
477,222,25039,1,8,0:0:0:0:
341,141,25205,6,0,P|407:78|453:-16,1,157.250002999306,4|0,1:3|0:0,0:0:0:0:
464,188,25537,2,0,P|443:220|427:267,1,78.6250014996529,2|0,0:0|0:0,0:0:0:0:
445,346,25703,1,8,0:0:0:0:
377,15,25869,2,0,P|323:121|327:197,1,157.250002999306,4|0,0:0|0:0,0:0:0:0:
235,378,26201,2,0,P|221:334|199:272,1,78.6250014996529,4|0,3:0|0:0,0:0:0:0:
68,252,26367,1,2,3:0:0:0:
50,267,26450,1,2,3:0:0:0:
39,288,26533,1,2,3:0:0:0:
35,311,26616,1,2,3:0:0:0:
102,372,26699,6,0,P|189:238|176:128,1,235.875004498959,4|0,1:2|0:0,0:0:0:0:
5,20,27031,2,0,P|0:59|1:114,1,78.6250014996529,4|0,3:0|0:0,0:0:0:0:
156,223,27197,2,0,P|109:107|66:68,1,157.250002999306,2|0,3:2|0:0,0:0:0:0:
230,345,27529,1,4,3:0:0:0:
230,345,27612,1,2,3:0:0:0:
275,369,27695,2,0,P|317:376|374:373,1,78.6250014996529,2|0,3:0|0:0,0:0:0:0:
512,254,27861,6,0,B|452:297|452:297|370:316|370:316|263:373,1,231.25,6|0,1:0|0:0,0:0:0:0:
467,269,28194,6,0,B|439:197|439:197|429:98|429:98|408:34,1,231.25,2|0,1:0|0:0,0:0:0:0:
399,237,28526,6,0,B|339:276|339:276|235:328|235:328|184:396,1,258.999992095948,2|0,1:0|0:0,0:0:0:0:
328,236,28858,6,0,B|311:172|311:172|243:68|243:68|233:-8,1,258.999992095948,2|0,1:0|0:0,0:0:0:0:
165,43,29107,1,8,0:0:0:0:
165,43,29190,1,8,0:0:0:0:
165,43,29273,1,8,0:0:0:0:
265,156,29356,6,0,B|184:127|184:127|101:51|101:51|21:26,1,277.5,4|0,1:0|0:0,0:0:0:0:
16,322,29688,2,0,L|148:269,1,92.5,4|0,3:0|0:0,0:0:0:0:
279,252,29854,2,0,P|171:317|121:397,1,185,2|0,3:2|0:0,0:0:0:0:
441,336,30186,2,0,L|439:224,1,92.5,2|0,0:0|0:0,0:0:0:0:
439,131,30352,1,8,0:0:0:0:
312,258,30518,6,0,P|284:154|237:70,1,185,4|0,1:3|0:0,0:0:0:0:
480,7,30850,2,0,P|436:34|373:55,1,92.5,2|0,0:0|0:0,0:0:0:0:
304,23,31016,1,8,0:0:0:0:
64,118,31182,2,0,B|195:112|195:112|295:93,1,185,4|0,0:0|0:0,0:0:0:0:
437,296,31514,1,4,3:0:0:0:
307,182,31680,2,0,B|282:246|282:246|280:290,1,92.5,2|2,3:0|3:0,0:0:0:0:
191,369,31846,2,0,B|181:339|181:339|144:270,1,92.5,2|2,3:0|3:0,0:0:0:0:
73,174,32012,6,0,P|96:315|261:273,1,305.250009315491,4|0,1:2|0:0,0:0:0:0:
336,176,32345,2,0,P|427:107|470:99,1,101.750003105164,4|0,3:0|0:0,0:0:0:0:
501,307,32511,2,0,B|458:169|458:169|458:87,1,203.500006210327,2|0,3:2|0:0,0:0:0:0:
316,370,32843,1,4,3:0:0:0:
443,354,33009,2,0,L|322:328,1,101.750003105164,2|0,3:0|0:0,0:0:0:0:
68,338,33175,6,0,B|152:305|152:305|270:306|270:306|362:283,1,258.999992095948,6|0,1:0|0:0,0:0:0:0:
138,284,33507,6,0,B|189:210|189:210|206:113|206:113|265:10,1,258.999992095948,2|0,1:0|0:0,0:0:0:0:
434,89,33839,6,0,B|327:81|327:81|211:51|211:51|144:43,1,277.500010585785,2|0,1:0|0:0,0:0:0:0:
348,117,34171,6,0,B|302:199|302:199|269:318|269:318|215:373,1,277.500010585785,2|0,1:0|0:0,0:0:0:0:
125,366,34420,1,8,0:0:0:0:
125,366,34503,1,8,0:0:0:0:
125,366,34586,1,8,0:0:0:0:
46,300,34669,6,0,L|64:215,1,69.3750026464463,2|0,0:0|0:0,0:0:0:0:
128,265,34835,2,0,L|183:191,1,69.3750026464463,2|0,0:0|0:0,0:0:0:0:
284,180,35001,6,0,L|255:70,1,78.6250014996529,2|0,0:0|0:0,0:0:0:0:
180,150,35167,2,0,L|128:71,1,78.6250014996529,2|0,0:0|0:0,0:0:0:0:
40,9,35333,6,0,L|7:103,1,85.562499673605,2|0,3:0|0:0,0:0:0:0:
119,105,35499,2,0,L|131:192,1,85.562499673605,2|0,3:0|0:0,0:0:0:0:
275,280,35665,1,4,3:0:0:0:
253,293,35748,1,4,3:0:0:0:
231,306,35831,1,4,3:0:0:0:
209,319,35914,1,4,3:0:0:0:
134,383,35997,5,4,1:1:0:0:
342,338,36163,2,0,L|242:322,1,92.5,2|0,0:0|0:0,0:0:0:0:
423,276,36495,2,0,L|527:232,1,92.5,2|4,0:0|3:0,0:0:0:0:
308,205,36828,2,0,L|212:245,1,92.5,0|4,0:0|3:0,0:0:0:0:
358,112,37160,2,0,L|451:176,1,92.5,2|8,0:0|0:0,0:0:0:0:
236,112,37492,2,0,L|219:18,1,92.5,2|4,0:0|3:0,0:0:0:0:
321,188,37824,2,0,L|222:259,1,92.5,2|4,0:0|3:0,0:0:0:0:
129,178,38156,2,0,L|132:122,1,46.25,4|0,3:0|0:0,0:0:0:0:
58,65,38322,1,4,3:0:0:0:
58,65,38405,1,4,3:0:0:0:
58,65,38488,1,4,3:0:0:0:
58,65,38571,1,4,3:0:0:0:
8,130,38654,5,4,3:0:0:0:
126,251,38820,2,0,L|7:237,1,92.5,2|0,0:0|0:0,0:0:0:0:
216,290,39152,2,0,L|323:250,1,92.5,2|4,0:0|3:0,0:0:0:0:
144,337,39484,2,0,L|50:397,1,92.5,0|4,0:0|3:0,0:0:0:0:
254,163,39816,1,2,3:0:0:0:
254,163,39899,1,2,3:0:0:0:
254,163,39982,1,8,0:0:0:0:
344,236,40148,2,0,L|470:267,1,92.5,2|4,0:0|3:0,0:0:0:0:
329,315,40480,2,0,L|223:373,1,92.5,2|4,0:0|3:0,0:0:0:0:
237,219,40813,2,0,L|240:150,1,46.25,4|0,3:0|0:0,0:0:0:0:
282,144,40979,2,0,L|294:204,1,46.25,4|4,3:0|3:0,0:0:0:0:
344,180,41145,2,0,L|360:128,1,46.25,4|4,3:0|3:0,0:0:0:0:
451,68,41311,6,0,B|442:120|442:120|435:199,1,92.5,4|2,3:0|0:0,0:0:0:0:
487,257,41643,1,0,0:0:0:0:
417,328,41809,2,0,L|515:382,1,92.5,2|4,0:0|3:0,0:0:0:0:
332,355,42141,2,0,B|267:372|267:372|220:382,1,92.5,0|4,0:0|3:0,0:0:0:0:
318,130,42473,1,2,3:0:0:0:
318,130,42556,1,2,3:0:0:0:
318,130,42639,1,8,0:0:0:0:
373,201,42805,2,0,L|471:134,1,92.5,2|4,0:0|3:0,0:0:0:0:
282,149,43137,2,0,L|247:237,1,92.5,2|4,0:0|3:0,0:0:0:0:
202,93,43469,2,0,L|168:-4,1,92.5,4|4,3:0|3:0,0:0:0:0:
161,114,43718,1,4,3:0:0:0:
161,114,43801,1,4,3:0:0:0:
161,114,43884,1,4,3:0:0:0:
69,65,43967,6,0,B|46:93|46:93|4:172,1,92.5,4|2,3:0|0:0,0:0:0:0:
88,230,44299,1,0,0:0:0:0:
194,226,44465,2,0,L|294:184,1,92.5,2|4,0:0|3:0,0:0:0:0:
116,275,44797,2,0,L|10:229,1,92.5,0|4,0:0|3:0,0:0:0:0:
272,358,45130,1,2,3:0:0:0:
272,358,45213,1,2,3:0:0:0:
272,358,45296,1,8,0:0:0:0:
203,256,45462,2,0,B|185:309|185:309|171:366,1,92.5,2|4,0:0|3:0,0:0:0:0:
294,184,45794,2,0,L|295:82,1,92.5,2|4,0:0|3:0,0:0:0:0:
351,235,46126,6,0,L|327:45,1,138.750005292893,0|4,0:0|3:0,0:0:0:0:
377,25,46375,1,4,3:0:0:0:
411,25,46458,1,4,3:0:0:0:
438,45,46541,1,4,3:0:0:0:
473,127,46624,5,4,1:0:0:0:
361,181,46790,1,2,0:0:0:0:
474,226,46956,2,0,L|386:274,1,69.3750026464463,4|0,3:0|0:0,0:0:0:0:
327,350,47122,2,0,L|481:327,1,138.750005292893,8|2,0:0|0:0,0:0:0:0:
239,243,47454,1,2,0:0:0:0:
182,337,47620,1,0,3:0:0:0:
127,223,47786,2,0,B|142:280|142:280|138:390,1,138.750005292893,2|8,0:0|0:0,0:0:0:0:
74,145,48118,2,0,L|28:218,1,69.3750026464463,2|0,0:0|0:0,0:0:0:0:
14,277,48284,1,4,3:0:0:0:
234,108,48450,1,2,3:0:0:0:
234,108,48533,1,2,3:0:0:0:
234,108,48616,1,8,0:0:0:0:
114,35,48782,2,0,L|214:16,1,69.3750026464463,2|0,0:0|0:0,0:0:0:0:
250,99,48948,2,0,L|171:87,1,69.3750026464463,4|0,3:0|0:0,0:0:0:0:
119,170,49114,2,0,L|214:152,1,69.3750026464463,2|0,0:0|0:0,0:0:0:0:
280,259,49281,6,0,L|102:236,1,138.750005292893,4|2,0:0|0:0,0:0:0:0:
138,373,49613,2,0,L|205:322,1,69.3750026464463,4|0,3:0|0:0,0:0:0:0:
318,198,49779,2,0,B|301:261|301:261|288:360,1,138.750005292893,8|2,0:0|0:0,0:0:0:0:
441,363,50111,1,2,0:0:0:0:
391,278,50277,1,0,3:0:0:0:
497,185,50443,1,2,0:0:0:0:
497,185,50526,1,0,0:0:0:0:
497,185,50609,1,8,0:0:0:0:
372,112,50775,2,0,L|520:62,1,138.750005292893,2|4,0:0|3:0,0:0:0:0:
280,30,51107,1,2,3:0:0:0:
280,30,51190,1,2,3:0:0:0:
280,30,51273,1,8,0:0:0:0:
314,176,51439,2,0,L|296:98,1,69.3750026464463,2|0,0:0|0:0,0:0:0:0:
231,55,51605,2,0,L|209:168,1,69.3750026464463,4|0,3:0|0:0,0:0:0:0:
159,187,51771,2,0,L|134:106,1,69.3750026464463,2|0,0:0|0:0,0:0:0:0:
58,91,51937,6,0,B|43:150|43:150|16:264,1,152.625001455545,4|2,1:0|0:0,0:0:0:0:
193,335,52269,2,0,L|87:360,1,76.3125007277727,4|0,3:0|0:0,0:0:0:0:
0,294,52435,2,0,B|99:334|99:334|153:336,1,152.625001455545,8|2,0:0|0:0,0:0:0:0:
298,279,52767,1,2,0:0:0:0:
298,279,52850,1,0,0:0:0:0:
298,279,52933,1,0,3:0:0:0:
393,359,53099,2,0,B|388:243|388:243|378:194,1,152.625001455545,2|8,0:0|0:0,0:0:0:0:
222,180,53432,2,0,L|300:164,1,76.3125007277727,2|0,0:0|0:0,0:0:0:0:
390,150,53598,1,4,3:0:0:0:
512,0,53764,1,2,3:0:0:0:
512,0,53847,1,2,3:0:0:0:
512,0,53930,1,8,0:0:0:0:
499,103,54096,2,0,L|427:55,1,76.3125007277727,2|0,0:0|0:0,0:0:0:0:
316,71,54262,2,0,L|401:161,1,76.3125007277727,4|0,3:0|0:0,0:0:0:0:
377,214,54428,2,0,L|266:182,1,76.3125007277727,2|0,0:0|0:0,0:0:0:0:
203,269,54594,6,0,B|269:354|269:354|320:397,1,152.625001455545,4|0,1:2|0:0,0:0:0:0:
123,317,54926,1,4,3:0:0:0:
29,248,55092,1,2,3:0:0:0:
50,216,55175,1,2,3:0:0:0:
71,184,55258,1,12,0:0:0:0:
26,16,55424,1,2,0:0:0:0:
75,93,55590,2,0,B|146:79|146:79|208:-1,1,152.625001455545,4|0,3:0|0:0,0:0:0:0:
79,336,55922,2,0,L|251:283,1,152.625001455545,4|0,0:0|0:0,0:0:0:0:
369,384,56254,2,0,L|520:328,1,152.625001455545,4|0,0:0|0:0,0:0:0:0:
361,153,56586,1,8,0:0:0:0:
502,90,56752,2,0,B|487:73|487:73|445:52,11,38.1562503638864,0|0|0|0|0|0|0|0|0|0|0|0,0:0|0:0|0:0|0:0|0:0|0:0|0:0|0:0|0:0|0:0|0:0|0:0,0:0:0:0:
489,209,57250,6,0,B|349:184|215:92|215:92|174:28,1,370,4|8,1:0|0:0,0:0:0:0:
5,267,57749,1,2,0:0:0:0:
85,375,57915,2,0,B|133:263|133:263|143:169,1,185,4|0,3:0|0:0,0:0:0:0:
31,62,58164,1,4,3:0:0:0:
15,39,58247,2,0,B|90:17|90:17|216:11,1,185,8|0,0:0|0:0,0:0:0:0:
445,89,58579,5,4,0:0:0:0:
254,194,58745,1,2,0:0:0:0:
445,19,58911,2,0,P|421:65|368:106,1,92.5,8|0,0:0|0:0,0:0:0:0:
324,70,59077,1,2,0:0:0:0:
464,187,59243,2,0,L|346:201,1,92.5,8|0,0:0|0:0,0:0:0:0:
282,173,59409,1,2,0:0:0:0:
417,345,59575,6,0,L|269:294,1,123.333333333333,4|0,3:0|0:0,0:0:0:0:
78,206,59796,1,2,0:0:0:0:
87,370,59907,2,0,P|153:250|-12:271,1,370,4|4,1:2|3:0,0:0:0:0:
170,246,60350,5,2,0:0:0:0:
92,113,60461,1,2,0:0:0:0:
256,88,60571,2,0,P|202:192|106:35,1,370,4|4,1:2|3:0,0:0:0:0:
242,219,61014,5,2,0:0:0:0:
397,45,61125,1,2,0:0:0:0:
375,219,61235,2,0,P|522:140|387:10,1,407.000012420655,4|4,1:0|3:0,0:0:0:0:
262,140,61678,5,2,2:0:0:0:
370,336,61789,1,2,2:0:0:0:
134,373,61900,2,0,P|107:160|284:244,1,443.999986450196,4|2,1:2|0:0,0:0:0:0:
16,6,62398,6,0,P|102:120|426:133,1,443.999986450196,6|4,1:0|3:0,0:0:0:0:
480,12,62896,1,12,0:0:0:0:
433,242,63062,1,2,0:0:0:0:
274,50,63228,2,0,B|396:40|396:40|470:15,1,166.499994918823,4|0,3:0|0:0,0:0:0:0:
159,274,63560,1,8,0:0:0:0:
209,339,63892,6,0,L|34:247,1,166.499994918823,4|0,0:0|0:0,0:0:0:0:
304,369,64224,1,8,0:0:0:0:
220,133,64390,2,0,L|216:231,1,83.2499974594117,4|2,3:2|3:0,0:0:0:0:
198,92,64722,2,0,L|115:129,1,83.2499974594117,4|2,3:2|3:0,0:0:0:0:
497,16,65054,6,0,P|404:191|258:167,1,332.999989837647,4|0,1:2|3:0,0:0:0:0:
143,17,65552,2,0,P|164:53|183:114,1,83.2499974594117,8|0,0:0|0:0,0:0:0:0:
136,180,65718,1,2,0:0:0:0:
81,384,65884,2,0,B|59:254|59:254|32:187,1,166.499994918823,4|0,3:0|0:0,0:0:0:0:
280,267,66217,1,8,0:0:0:0:
226,383,66383,1,2,0:0:0:0:
369,212,66549,5,0,3:0:0:0:
386,221,66632,1,0,3:0:0:0:
399,235,66715,1,0,3:0:0:0:
411,250,66798,1,0,3:0:0:0:
427,213,66881,1,2,3:0:0:0:
460,184,66964,1,2,3:0:0:0:
470,200,67047,1,2,3:0:0:0:
477,218,67130,1,2,3:0:0:0:
420,293,67213,5,2,3:0:0:0:
398,271,67296,1,2,3:0:0:0:
382,244,67379,1,2,3:0:0:0:
370,215,67462,1,2,3:0:0:0:
451,173,67545,1,8,0:0:0:0:
475,129,67628,1,8,0:0:0:0:
471,78,67711,1,8,0:0:0:0:
435,42,67794,1,8,0:0:0:0:
243,122,67877,6,0,B|161:99|105:70|105:70|39:15,1,212.750004057884,4|0,1:1|0:0,0:0:0:0:
15,261,68209,2,0,P|-9:320|12:376,1,106.375002028942,8|0,0:0|0:0,0:0:0:0:
242,321,68375,2,0,P|184:189|123:133,1,212.750004057884,6|0,3:0|0:0,0:0:0:0:
403,19,68707,2,0,L|364:168,1,106.375002028942,4|0,3:0|0:0,0:0:0:0:
324,305,68873,1,8,0:0:0:0:
486,319,69039,6,0,B|386:280|249:274|249:274|226:314|238:375,1,319.125006086826,4|0,0:0|0:0,0:0:0:0:
34,345,69371,2,0,P|87:334|155:291,1,106.375002028942,2|0,0:0|0:0,0:0:0:0:
252,187,69537,1,8,0:0:0:0:
151,0,69703,2,0,B|128:153|128:153|154:190|181:224,1,212.750004057884,4|0,1:3|0:0,0:0:0:0:
453,379,70035,2,0,L|417:250,1,106.375002028942,4|0,3:0|0:0,0:0:0:0:
376,105,70201,1,8,0:0:0:0:
478,86,70368,1,4,3:0:0:0:
432,56,70451,1,4,3:0:0:0:
312,0,70534,6,0,B|260:44|185:78|185:78|160:108|141:178,1,212.750004057884,4|0,1:2|0:0,0:0:0:0:
60,384,70866,2,0,P|100:353|133:305,1,106.375002028942,8|0,0:0|0:0,0:0:0:0:
41,46,71032,2,0,P|8:187|175:167,1,319.125006086826,4|0,1:2|0:0,0:0:0:0:
309,108,71364,2,0,P|349:138|396:227,1,106.375002028942,4|0,1:3|0:0,0:0:0:0:
407,384,71530,1,8,0:0:0:0:
407,384,71696,6,0,B|416:298|416:298|468:149|468:149|452:29,1,346.875,4|0,1:0|0:0,0:0:0:0:
329,0,72028,2,0,B|299:60|299:60|288:143,1,115.625,2|0,0:0|0:0,0:0:0:0:
271,207,72194,2,0,B|235:166|235:166|172:119,1,115.625,8|0,0:0|0:0,0:0:0:0:
86,216,72360,2,0,B|125:270|125:270|217:346|217:346|262:419,1,231.25,8|0,1:2|0:0,0:0:0:0:
70,297,72692,2,0,B|42:114|42:114|47:39,1,231.25,8|2,1:2|0:0,0:0:0:0:
171,12,72941,1,2,0:0:0:0:
171,12,73024,1,2,0:0:0:0:
171,12,73107,1,2,0:0:0:0:
0,0,73190,6,0,B|94:34|170:45|170:45|238:77,1,231.25,4|0,1:0|0:0,0:0:0:0:
400,170,73439,1,2,3:0:0:0:
369,0,73522,2,0,P|320:50|319:152,1,129.499996047974,2|0,1:0|0:0,0:0:0:0:
486,258,73688,2,0,P|464:98|409:9,1,258.999992095948,4|4,0:0|3:0,0:0:0:0:
275,342,74020,1,2,0:0:0:0:
512,287,74186,1,8,0:0:0:0:
310,371,74352,6,0,B|220:343|220:343|177:328|122:284|122:284|62:270|-6:268,1,332.999989837647,4|0,0:0|0:0,0:0:0:0:
68,149,74685,2,0,P|26:113|-1:64,1,110.999996612549,4|0,3:0|0:0,0:0:0:0:
135,241,74851,2,0,P|172:281|199:330,1,110.999996612549,8|0,0:0|0:0,0:0:0:0:
21,356,75017,2,0,P|24:205|79:109,1,221.999993225098,2|2,0:0|0:0,0:0:0:0:
392,0,75349,2,0,P|272:67|150:60,1,221.999993225098,4|8,3:0|0:0,0:0:0:0:
74,29,75598,1,2,0:0:0:0:
74,29,75681,1,2,0:0:0:0:
74,29,75764,1,2,0:0:0:0:
185,203,75847,6,0,P|259:95|208:3,1,221.999993225098,4|2,1:2|0:0,0:0:0:0:
11,318,76179,2,0,P|52:358|109:387,1,110.999996612549,8|0,0:0|0:0,0:0:0:0:
359,365,76345,2,0,L|123:342,1,221.999993225098,4|0,3:0|0:0,0:0:0:0:
470,247,76677,1,4,1:3:0:0:
380,381,76843,1,2,1:2:0:0:
490,162,77009,2,0,P|473:64|384:111,1,221.999993225098,4|0,3:0|0:0,0:0:0:0:
336,307,77341,6,0,P|491:235|425:8,1,443.999986450196,6|0,1:0|1:0,0:0:0:0:
215,128,77839,1,8,0:0:0:0:
172,115,77922,1,8,0:0:0:0:
138,85,78005,1,8,0:0:0:0:
121,43,78088,1,8,0:0:0:0:
206,0,78171,2,2,P|257:24|295:75,1,110.999996612549,12|0,0:0|0:0,0:1:0:0:
58,175,78337,2,0,P|17:223|-4:291,1,110.999996612549,2|0,1:0|0:0,0:0:0:0:
182,384,78503,6,0,B|177:304|151:211|151:211|107:120,1,231.25,4|0,1:1|0:0,0:0:0:0:
383,35,78836,2,0,P|440:9|508:4,1,115.625,8|0,0:0|0:0,0:0:0:0:
475,202,79002,2,0,P|362:76|337:8,1,231.25,6|0,3:0|0:0,0:0:0:0:
281,289,79334,2,0,P|241:321|172:356,1,115.625,4|0,3:0|0:0,0:0:0:0:
0,381,79500,1,8,0:0:0:0:
187,241,79666,6,0,P|48:186|130:3,1,346.875,4|0,0:0|0:0,0:0:0:0:
279,240,79998,2,0,P|311:294|387:333,1,115.625,2|0,0:0|0:0,0:0:0:0:
512,256,80164,1,8,0:0:0:0:
446,0,80330,2,0,B|426:69|426:69|421:189|410:262,1,231.25,4|0,1:3|0:0,0:0:0:0:
234,384,80662,2,0,B|187:329|144:258|144:258|63:200,1,231.25,4|8,3:0|0:0,0:0:0:0:
12,268,80911,1,0,0:0:0:0:
12,268,80994,1,4,3:0:0:0:
12,268,81077,1,4,3:0:0:0:
185,145,81160,6,0,P|128:23|12:15,1,231.25,4|0,1:2|0:0,0:0:0:0:
124,361,81492,2,0,L|155:234,1,115.625,8|0,0:0|0:0,0:0:0:0:
280,107,81658,2,0,B|308:292|308:292|327:356,1,231.25,4|0,1:2|0:0,0:0:0:0:
512,63,81990,2,0,L|377:24,1,115.625,4|0,1:3|0:0,0:0:0:0:
290,151,82156,2,0,L|420:142,1,115.625,8|0,0:0|0:0,0:0:0:0:
511,293,82322,6,0,B|313:278|257:249|257:249|205:280|181:382,1,346.875,4|0,1:0|0:0,0:0:0:0:
62,384,82654,2,0,P|20:335|-2:258,1,115.625,2|0,0:0|0:0,0:0:0:0:
88,82,82820,1,8,0:0:0:0:
24,38,82987,2,0,B|165:94|165:94|216:104|287:112,1,231.25,8|0,1:2|0:0,0:0:0:0:
122,0,83319,2,0,B|91:181|91:181|58:262,1,231.25,8|2,1:2|0:0,0:0:0:0:
0,367,83568,1,2,0:0:0:0:
0,367,83651,1,2,0:0:0:0:
0,367,83734,1,2,0:0:0:0:
247,380,83817,6,0,P|314:280|310:95,1,231.25,4|0,1:0|0:0,0:0:0:0:
251,24,84066,1,2,3:0:0:0:
398,138,84149,2,0,P|338:201|232:225,1,129.499996047974,2|0,1:0|0:0,0:0:0:0:
71,121,84315,2,0,B|157:92|249:26|249:26|328:11,1,258.999992095948,4|4,0:0|3:0,0:0:0:0:
505,205,84647,1,2,0:0:0:0:
429,22,84813,1,8,0:0:0:0:
505,247,84979,6,0,B|412:284|412:284|272:361|272:361|173:374,1,346.875,4|0,0:0|0:0,0:0:0:0:
16,223,85311,2,0,P|68:196|143:199,1,115.625,4|0,3:0|0:0,0:0:0:0:
271,276,85477,1,8,0:0:0:0:
209,358,85643,2,0,B|204:300|204:300|158:195|158:195|143:105,1,231.25,2|2,0:0|0:0,0:0:0:0:
375,274,85975,1,8,0:0:0:0:
376,233,86058,1,8,0:0:0:0:
400,193,86141,1,8,0:0:0:0:
398,146,86224,1,8,0:0:0:0:
378,104,86307,1,8,0:0:0:0:
396,61,86390,1,8,0:0:0:0:
431,31,86473,5,8,1:2:0:0:
450,30,87138,1,2,3:0:0:0:
471,44,87304,1,4,3:0:0:0:
460,88,87387,1,4,3:0:0:0:
377,157,87470,2,0,B|314:164|314:164|268:176,1,83.2499974594117,2|0,1:0|0:0,0:0:0:0:
395,266,87636,2,0,P|453:290|487:323,1,83.2499974594117,2|0,1:0|0:0,0:0:0:0:
310,360,87802,6,0,P|252:273|264:108,1,249.749992378235,4|0,1:0|0:0,0:0:0:0:
122,9,88134,2,0,L|57:99,1,83.2499974594117,4|0,3:0|0:0,0:0:0:0:
75,212,88300,2,0,L|30:40,1,166.499994918823,2|0,3:2|0:0,0:0:0:0:
229,259,88632,2,0,P|184:277|150:309,1,83.2499974594117,2|0,0:0|0:0,0:0:0:0:
90,384,88798,1,8,0:0:0:0:
301,210,88964,6,0,P|305:59|328:6,1,166.499994918823,4|0,1:3|0:0,0:0:0:0:
511,270,89296,2,0,P|488:308|447:343,1,83.2499974594117,2|0,0:0|0:0,0:0:0:0:
362,372,89462,1,8,0:0:0:0:
174,299,89628,2,0,L|395:263,1,166.499994918823,4|0,0:0|0:0,0:0:0:0:
191,55,89960,2,0,L|123:140,1,83.2499974594117,4|0,3:0|0:0,0:0:0:0:
72,228,90126,1,2,3:0:0:0:
115,204,90209,1,2,3:0:0:0:
141,161,90292,1,2,3:0:0:0:
142,111,90375,1,2,3:0:0:0:
68,8,90458,6,0,P|187:85|297:77,1,249.749992378235,4|0,1:2|0:0,0:0:0:0:
490,167,90790,2,0,L|470:45,1,83.2499974594117,4|0,3:0|0:0,0:0:0:0:
328,4,90956,2,0,B|313:54|313:54|312:210,1,166.499994918823,2|0,3:2|0:0,0:0:0:0:
470,352,91289,2,0,L|378:264,1,83.2499974594117,4|2,3:0|3:0,0:0:0:0:
281,266,91455,1,2,3:0:0:0:
43,374,91621,6,0,B|112:362|112:362|224:364|224:364|324:326,1,231.25,6|0,1:0|0:0,0:0:0:0:
122,327,91953,6,0,B|154:265|154:265|176:157|176:157|218:75,1,231.25,2|0,1:0|0:0,0:0:0:0:
192,286,92285,6,0,B|288:273|288:273|388:238|388:238|459:237,1,258.999992095948,2|0,1:0|0:0,0:0:0:0:
269,233,92617,6,0,B|323:168|323:168|349:54|349:54|391:-2,1,258.999992095948,2|0,1:0|0:0,0:0:0:0:
504,31,92866,1,8,0:0:0:0:
504,31,92949,1,8,0:0:0:0:
504,31,93032,1,8,0:0:0:0:
413,177,93115,6,0,P|260:81|285:-16,1,277.5,4|0,1:0|0:0,0:0:0:0:
78,138,93447,2,0,L|102:270,1,92.5,4|0,3:0|0:0,0:0:0:0:
202,353,93613,2,0,B|123:321|123:321|31:249,1,185,2|0,3:2|0:0,0:0:0:0:
224,0,93945,2,0,L|239:152,1,92.5,2|0,0:0|0:0,0:0:0:0:
243,188,94111,1,8,0:0:0:0:
415,83,94277,6,0,B|390:141|390:141|344:295,1,185,4|0,1:3|0:0,0:0:0:0:
512,384,94609,2,0,B|443:349|443:349|407:339,1,92.5,2|0,0:0|0:0,0:0:0:0:
288,341,94775,1,8,0:0:0:0:
48,376,94941,2,0,P|143:283|102:162,1,185,4|0,0:0|0:0,0:0:0:0:
31,0,95273,2,0,P|10:39|2:129,1,92.5,4|0,3:0|0:0,0:0:0:0:
160,159,95439,1,2,3:0:0:0:
201,137,95523,1,2,3:0:0:0:
231,102,95606,1,2,3:0:0:0:
247,58,95689,1,2,3:0:0:0:
417,4,95772,6,0,P|447:132|267:191,1,305.250009315491,4|0,1:2|0:0,0:0:0:0:
106,338,96104,2,0,P|177:317|263:307,1,101.750003105164,4|0,3:0|0:0,0:0:0:0:
430,337,96270,2,0,B|281:366|281:366|184:372,1,203.500006210327,2|0,3:2|0:0,0:0:0:0:
510,126,96602,2,0,B|387:18|387:18|302:-27,1,203.500006210327,4|2,3:0|3:0,0:0:0:0:
51,93,96934,6,0,B|198:77|198:77|268:39,1,212.750004057884,6|0,1:0|0:0,0:0:0:0:
402,384,97266,2,0,B|256:345|256:345|170:345,1,212.750004057884,2|0,1:0|0:0,0:0:0:0:
0,280,97598,2,0,B|72:334|72:334|213:370,1,226.625002161264,2|0,1:0|0:0,0:0:0:0:
392,91,97930,2,0,B|320:37|320:37|179:1,1,226.625002161264,2|0,1:0|0:0,0:0:0:0:
272,146,98179,1,8,0:0:0:0:
316,139,98262,1,8,0:0:0:0:
360,132,98345,1,8,0:0:0:0:
420,63,98428,6,0,L|467:200,1,80.9375007718802,2|0,0:0|0:0,0:0:0:0:
393,81,98594,2,0,L|278:27,1,80.9375007718802,2|0,0:0|0:0,0:0:0:0:
376,154,98760,2,0,L|442:257,1,80.9375007718802,2|0,0:0|0:0,0:0:0:0:
286,152,98926,2,0,L|176:106,1,80.9375007718802,2|0,0:0|0:0,0:0:0:0:
37,21,99092,6,0,L|48:152,1,80.9375007718802,2|0,3:0|0:0,0:0:0:0:
105,221,99258,2,0,L|142:118,1,80.9375007718802,2|0,3:0|0:0,0:0:0:0:
223,56,99424,1,4,3:0:0:0:
223,56,99507,1,4,3:0:0:0:
223,56,99590,1,4,3:0:0:0:
223,56,99673,1,4,3:0:0:0:
225,160,99757,5,4,1:2:0:0:
282,205,99840,1,2,0:0:0:0:
352,186,99923,1,2,0:0:0:0:
377,126,100006,1,2,0:0:0:0:
346,77,100089,1,10,0:0:0:0:
334,29,100172,1,2,0:0:0:0:
355,0,100255,5,4,3:0:0:0:
423,25,100338,1,2,0:0:0:0:
449,92,100421,1,2,0:0:0:0:
406,140,100504,1,2,0:0:0:0:
399,196,100587,1,4,3:0:0:0:
431,232,100670,1,2,0:0:0:0:
467,249,100753,5,8,0:0:0:0:
441,317,100836,1,2,0:0:0:0:
370,336,100919,1,2,0:0:0:0:
312,306,101002,1,2,0:0:0:0:
259,284,101085,1,4,3:0:0:0:
212,297,101168,1,2,0:0:0:0:
183,325,101251,5,2,0:0:0:0:
110,332,101334,1,2,0:0:0:0:
73,269,101417,1,8,0:0:0:0:
108,215,101500,1,2,0:0:0:0:
120,159,101583,1,4,3:0:0:0:
94,117,101666,1,2,0:0:0:0:
56,101,101749,5,2,1:0:0:0:
29,168,101832,1,2,0:0:0:0:
65,231,101915,1,2,0:0:0:0:
131,261,101998,1,2,0:0:0:0:
241,227,102081,5,2,1:0:0:0:
320,241,102164,1,2,1:2:0:0:
381,293,102247,1,2,1:0:0:0:
422,362,102330,1,2,1:2:0:0:
512,278,102413,6,0,P|406:246|509:118,1,323.750003087521,4|8,0:0|0:0,0:1:0:0:
291,19,102911,1,4,3:0:0:0:
395,19,103077,2,0,B|405:72|405:72|377:139,1,107.91666769584,2|0,0:0|0:0,0:0:0:0:
238,203,103299,2,0,B|185:176|185:176|158:120,1,107.91666769584,2|8,0:0|0:0,0:0:0:0:
259,5,103520,2,0,B|311:0|311:0|378:41,1,107.91666769584,2|0,0:0|0:0,0:0:0:0:
422,155,103686,1,2,1:0:0:0:
422,155,103741,6,0,B|353:173|260:165|217:98|215:93|212:88|170:11|95:-6|14:54,1,443.999986450196,6|8,1:0|0:0,0:0:0:0:
176,285,104240,2,0,P|48:204|179:72,1,370,4|0,3:0|0:0,0:0:0:0:
265,312,104655,1,4,3:0:0:0:
190,362,104738,2,0,L|495:342,1,277.5,8|0,0:0|0:0,0:0:0:0:
490,186,105070,6,0,B|449:263|429:309|429:309|416:369,1,185,4|0,0:0|0:0,0:0:0:0:
401,152,105319,1,2,0:0:0:0:
462,95,105402,1,8,0:0:0:0:
451,31,105485,1,2,0:0:0:0:
408,11,105568,1,2,0:0:0:0:
371,12,105651,1,2,0:0:0:0:
338,28,105734,5,2,0:0:0:0:
292,38,105817,1,2,0:0:0:0:
246,32,105900,1,4,3:0:0:0:
206,7,105983,1,2,0:0:0:0:
178,44,106066,1,8,0:0:0:0:
122,46,106149,1,2,0:0:0:0:
77,79,106232,1,2,0:0:0:0:
70,134,106315,1,2,0:0:0:0:
113,168,106398,5,4,3:0:0:0:
121,232,106481,1,2,0:0:0:0:
68,251,106564,1,2,0:0:0:0:
39,214,106647,1,2,0:0:0:0:
94,174,106730,5,10,0:0:0:0:
121,232,106813,1,2,0:0:0:0:
63,278,106896,1,6,3:0:0:0:
1,221,106979,1,2,0:0:0:0:
50,154,107062,6,0,B|117:139|189:166|224:229|227:237|230:242|266:299|344:313|410:263,1,370,2|8,1:0|0:0,0:0:0:0:
490,200,107477,1,4,3:0:0:0:
426,212,107560,1,4,3:0:0:0:
392,267,107643,1,4,3:0:0:0:
482,300,107726,6,0,P|500:258|504:186,1,101.750003105164,2|0,1:0|0:0,0:0:0:0:
373,59,107892,2,0,P|365:179|470:96,1,305.250009315491,2|0,1:0|0:0,0:0:0:0:
256,82,108225,1,2,0:0:0:0:
225,122,108308,1,2,0:0:0:0:
205,212,108391,2,0,P|209:268|243:317,1,101.750003105164,2|0,1:0|0:0,0:0:0:0:
341,300,108557,2,0,B|309:279|250:280|197:305|188:310|181:315|137:361|94:363|34:356,1,305.250009315491,2|0,1:0|0:0,0:0:0:0:
24,236,108889,1,2,0:0:0:0:
73,313,108972,1,2,0:0:0:0:
4,200,109055,6,0,L|29:89,1,101.750003105164,4|0,1:0|0:0,0:0:0:0:
138,14,109221,2,0,L|134:152,1,101.750003105164,4|0,3:0|0:0,0:0:0:0:
201,264,109387,2,0,L|229:146,1,101.750003105164,8|0,0:0|0:0,0:0:0:0:
319,94,109553,2,0,L|326:205,1,101.750003105164,4|0,3:0|0:0,0:0:0:0:
443,234,109719,6,0,L|408:112,1,101.750003105164,4|0,1:3|0:0,0:0:0:0:
315,200,109885,2,0,L|283:314,1,101.750003105164,4|0,1:3|0:0,0:0:0:0:
127,344,110051,1,2,3:0:0:0:
80,323,110134,1,2,3:0:0:0:
51,280,110217,1,8,0:0:0:0:
48,229,110300,1,8,0:0:0:0:
154,151,110383,6,0,P|151:67|-8:40,1,263.624992960453,4|0,1:0|0:0,0:0:0:0:
0,222,110715,2,0,P|28:258|76:303,1,87.8749976534844,8|0,0:0|0:0,0:0:0:0:
223,269,110881,2,0,P|123:295|67:365,1,175.749995306969,2|0,0:0|0:0,0:0:0:0:
388,372,111213,2,0,P|403:329|400:259,1,87.8749976534844,4|0,3:0|0:0,0:0:0:0:
260,179,111379,2,0,L|452:208,1,175.749995306969,8|0,0:0|0:0,0:0:0:0:
403,3,111711,6,0,P|296:82|418:143,1,263.624992960453,4|0,3:0|0:0,0:0:0:0:
512,264,112043,2,0,P|481:298|418:328,1,87.8749976534844,8|0,0:0|0:0,0:0:0:0:
247,264,112209,2,0,L|438:280,1,175.749995306969,2|0,0:0|0:0,0:0:0:0:
188,120,112542,2,0,L|301:84,1,87.8749976534844,4|0,3:0|0:0,0:0:0:0:
399,54,112708,2,0,P|211:42|152:-7,1,263.624992960453,8|0,0:0|0:0,0:0:0:0:
48,72,113040,6,0,P|149:141|54:189,1,263.624992960453,4|0,2:0|0:0,0:0:0:0:
85,371,113372,2,0,L|39:274,1,87.8749976534844,8|0,0:0|0:0,0:0:0:0:
83,131,113538,2,0,P|160:182|187:296,1,175.749995306969,2|0,0:0|0:0,0:0:0:0:
419,359,113870,2,0,L|442:238,1,87.8749976534844,4|0,3:0|0:0,0:0:0:0:
363,206,114036,2,0,L|317:319,1,87.8749976534844,8|0,0:0|0:0,0:0:0:0:
246,358,114202,1,2,0:0:0:0:
246,358,114368,6,0,L|229:226,1,87.8749976534844,4|0,3:0|0:0,0:0:0:0:
206,77,114534,2,0,P|342:86|330:198,1,263.624992960453,2|0,1:2|0:0,0:0:0:0:
224,232,114866,2,0,B|163:241|114:186|114:186|67:123|-25:138,1,263.624992960453,4|0,3:0|0:0,0:0:0:0:
34,3,115198,2,0,P|52:42|120:87,1,87.8749976534844,4|0,3:0|0:0,0:0:0:0:
267,40,115364,1,2,3:0:0:0:
297,8,115447,1,2,3:0:0:0:
340,1,115530,1,8,0:0:0:0:
383,8,115613,1,8,0:0:0:0:
454,104,115696,6,0,P|326:157|369:270,1,263.624992960453,4|0,1:0|0:0,0:0:0:0:
478,333,116028,2,0,L|448:221,1,87.8749976534844,8|0,0:0|0:0,0:0:0:0:
296,164,116194,2,0,P|268:258|184:328,1,175.749995306969,2|0,0:0|0:0,0:0:0:0:
56,93,116526,2,0,L|145:77,1,87.8749976534844,4|0,3:0|0:0,0:0:0:0:
273,68,116693,2,0,P|156:41|112:-2,1,175.749995306969,8|0,0:0|0:0,0:0:0:0:
46,247,117025,6,0,P|133:205|151:340,1,263.624992960453,4|0,3:0|0:0,0:0:0:0:
340,375,117357,2,0,P|378:362|436:301,1,87.8749976534844,8|0,0:0|0:0,0:0:0:0:
348,172,117523,2,0,P|309:245|309:359,1,175.749995306969,2|0,0:0|0:0,0:0:0:0:
151,161,117855,2,0,P|198:148|237:118,1,87.8749976534844,4|0,3:0|0:0,0:0:0:0:
311,17,118021,2,0,B|262:126|262:126|231:201,1,175.749995306969,8|0,0:0|0:0,0:0:0:0:
466,260,118353,6,0,P|474:133|379:153,1,263.624992960453,4|0,1:2|0:0,0:0:0:0:
230,196,118685,2,0,P|194:219|100:236,1,87.8749976534844,8|0,0:0|0:0,0:0:0:0:
17,94,118851,2,0,B|90:118|148:143|148:143|185:171,1,175.749995306969,2|0,0:0|0:0,0:0:0:0:
370,4,119183,2,0,L|378:135,1,87.8749976534844,4|0,3:0|0:0,0:0:0:0:
277,177,119349,2,0,L|218:76,1,87.8749976534844,8|0,0:0|0:0,0:0:0:0:
91,57,119515,2,0,L|96:174,1,87.8749976534844,2|0,0:0|0:0,0:0:0:0:
78,274,119681,5,4,3:0:0:0:
78,274,119847,2,0,B|127:263|168:272|202:307|207:311|209:316|251:354|299:360|337:332,1,263.624992960453,2|0,1:2|0:0,0:0:0:0:
441,200,120179,2,0,P|425:339|321:295,1,263.624992960453,4|0,3:0|0:0,0:0:0:0:
320,153,120511,2,0,P|354:125|427:109,1,87.8749976534844,4|0,3:0|0:0,0:0:0:0:
489,26,120677,1,2,3:0:0:0:
452,63,120760,1,2,3:0:0:0:
398,63,120844,1,8,0:0:0:0:
349,42,120927,1,8,0:0:0:0:
243,22,121010,5,4,1:0:0:0:
190,23,121093,1,2,0:0:0:0:
151,58,121176,1,2,0:0:0:0:
139,109,121259,1,2,0:0:0:0:
158,158,121342,1,8,0:0:0:0:
160,184,121425,1,2,0:0:0:0:
143,204,121508,1,4,3:0:0:0:
119,215,121591,1,2,0:0:0:0:
93,206,121674,6,0,P|50:171|5:153,3,87.8749976534844,2|0|4|0,0:0|0:0|3:0|0:0,0:0:0:0:
62,278,122006,2,0,B|154:287|234:316|234:316|256:353|294:389,1,263.624992960453,8|0,0:0|0:0,0:0:0:0:
447,333,122338,5,4,1:0:0:0:
476,289,122421,1,2,0:0:0:0:
455,240,122504,1,2,0:0:0:0:
402,236,122587,1,2,0:0:0:0:
374,281,122670,1,8,0:0:0:0:
347,284,122753,1,2,0:0:0:0:
321,276,122836,1,4,3:0:0:0:
299,260,122919,1,2,0:0:0:0:
290,235,123002,6,0,P|287:197|302:134,3,87.8749976534844,2|0|4|0,0:0|0:0|3:0|0:0,0:0:0:0:
459,34,123334,2,0,P|446:152|324:132,1,263.624992960453,8|0,0:0|0:0,0:0:0:0:
119,193,123666,5,4,1:0:0:0:
121,245,123749,1,2,0:0:0:0:
151,287,123832,1,2,0:0:0:0:
199,306,123915,1,2,0:0:0:0:
248,287,123998,1,8,0:0:0:0:
273,294,124081,1,2,0:0:0:0:
288,315,124164,1,4,3:0:0:0:
292,340,124247,1,2,0:0:0:0:
280,363,124330,6,0,P|209:365|191:344,3,87.8749976534844,2|0|4|0,0:0|0:0|3:0|0:0,0:0:0:0:
133,259,124662,2,0,P|106:297|84:360,1,87.8749976534844,8|0,0:0|0:0,0:0:0:0:
40,185,124828,2,0,P|19:144|17:72,1,87.8749976534844,2|0,0:0|0:0,0:0:0:0:
156,26,124995,5,0,1:0:0:0:
156,26,125161,2,0,P|196:168|316:150,1,263.624992960453,4|0,1:3|0:0,0:0:0:0:
365,43,125493,2,0,B|356:87|364:123|415:157|421:165|426:171|462:200|475:242|470:299,1,263.624992960453,0|0,1:0|0:0,0:0:0:0:
358,363,125825,2,0,L|337:245,1,87.8749976534844,4|0,3:0|0:0,0:0:0:0:
204,174,125991,1,4,0:0:0:0:
185,223,126074,1,2,3:0:0:0:
195,274,126157,1,8,0:0:0:0:
225,316,126240,1,8,0:0:0:0:
128,377,126323,5,0,1:0:0:0:
78,359,126406,1,2,0:0:0:0:
44,318,126489,1,2,0:0:0:0:
46,265,126572,1,2,0:0:0:0:
62,215,126655,1,8,0:0:0:0:
80,195,126738,1,2,0:0:0:0:
93,172,126821,1,4,3:0:0:0:
90,145,126904,1,2,0:0:0:0:
74,123,126987,2,0,P|52:81|53:12,3,87.8749976534844,0|0|4|0,0:0|0:0|3:0|0:0,0:0:0:0:
198,104,127319,1,8,0:0:0:0:
239,90,127402,1,2,0:0:0:0:
264,54,127485,1,2,0:0:0:0:
286,16,127568,1,2,0:0:0:0:
398,1,127651,5,0,1:0:0:0:
431,42,127734,1,2,0:0:0:0:
446,92,127817,1,2,0:0:0:0:
442,144,127900,1,2,0:0:0:0:
424,193,127983,1,8,0:0:0:0:
406,212,128066,1,2,0:0:0:0:
396,236,128149,1,4,3:0:0:0:
394,262,128232,1,2,0:0:0:0:
401,287,128315,2,0,P|421:330|419:379,3,87.8749976534844,0|0|4|0,0:0|0:0|3:0|0:0,0:0:0:0:
271,326,128647,1,8,0:0:0:0:
282,283,128730,1,2,0:0:0:0:
299,242,128813,1,2,0:0:0:0:
330,210,128896,1,2,0:0:0:0:
317,114,128979,5,0,1:0:0:0:
265,103,129062,1,2,0:0:0:0:
213,114,129145,1,2,0:0:0:0:
172,148,129229,1,2,0:0:0:0:
145,193,129312,1,8,0:0:0:0:
137,218,129395,1,2,0:0:0:0:
119,237,129478,1,4,3:0:0:0:
98,253,129561,1,2,0:0:0:0:
73,262,129644,6,0,P|33:235|0:177,3,87.8749976534844,0|0|4|0,0:0|0:0|3:0|0:0,0:0:0:0:
76,109,129976,2,0,P|104:77|127:12,1,87.8749976534844,8|2,0:0|0:0,0:0:0:0:
253,154,130142,1,2,0:0:0:0:
268,204,130225,1,2,0:0:0:0:
350,252,130308,6,0,P|388:225|449:153,1,87.8749976534844,0|0,1:0|0:0,0:0:0:0:
479,289,130474,2,0,B|438:275|395:285|366:317|362:322|357:329|323:364|277:371|231:363,1,263.624992960453,6|0,1:2|0:0,0:0:0:0:
105,254,130806,2,0,P|225:270|195:393,1,263.624992960453,4|0,3:0|0:0,0:0:0:0:
40,274,131138,2,0,L|20:147,1,87.8749976534844,2|0,0:0|0:0,0:0:0:0:
248,18,131304,1,2,3:0:0:0:
195,21,131387,1,2,3:0:0:0:
147,44,131470,1,8,0:0:0:0:
130,94,131553,1,8,0:0:0:0:
171,228,131636,6,0,P|314:205|463:97,1,298.312504551888,4|0,1:0|0:0,0:0:0:0:
493,8,131968,2,0,P|449:22|356:77,1,99.4375015172959,8|0,0:0|0:0,0:0:0:0:
395,265,132134,2,0,P|384:161|358:56,1,198.875003034592,2|0,0:0|0:0,0:0:0:0:
141,37,132466,2,0,P|118:81|95:162,1,99.4375015172959,4|0,3:0|0:0,0:0:0:0:
135,259,132632,2,0,P|99:224|32:175,1,99.4375015172959,8|0,0:0|0:0,0:0:0:0:
35,360,132798,6,0,P|134:276|171:192,1,198.875003034592,6|0,0:0|0:0,0:0:0:0:
412,325,133130,2,0,P|351:333|277:358,1,99.4375015172959,4|0,3:0|0:0,0:0:0:0:
208,384,133296,1,8,0:0:0:0:
458,229,133463,2,0,P|473:120|357:143,1,198.875003034592,6|0,0:0|0:0,0:0:0:0:
230,186,133795,2,0,P|243:295|349:242,1,198.875003034592,4|8,3:0|0:0,0:0:0:0:
357,168,134044,1,2,0:0:0:0:
357,168,134127,1,2,0:0:0:0:
357,168,134210,1,2,0:0:0:0:
271,13,134293,6,0,P|250:56|234:131,1,99.4375015172959,4|0,0:0|0:0,0:0:0:0:
150,198,134459,2,0,P|141:148|114:69,1,99.4375015172959,2|0,0:0|0:0,0:0:0:0:
15,24,134625,2,0,P|59:39|133:55,1,99.4375015172959,8|0,0:0|0:0,0:0:0:0:
279,182,134791,2,0,P|229:189|129:220,1,99.4375015172959,2|0,0:0|0:0,0:0:0:0:
23,295,134957,1,4,3:0:0:0:
327,382,135123,1,2,3:0:0:0:
327,382,135206,1,2,3:0:0:0:
327,382,135289,1,8,0:0:0:0:
327,382,135372,1,8,0:0:0:0:
43,315,135455,6,0,P|168:314|331:262,1,258.999992095948,6|0,1:0|0:0,0:0:0:0:
512,188,135787,2,0,P|286:137|199:96,1,258.999992095948,2|0,1:0|0:0,0:0:0:0:
65,11,136119,2,0,P|217:83|61:132,1,388.499988143921,4|0,1:2|0:0,0:0:0:0:
105,378,136451,2,0,P|42:313|14:247,1,129.499996047974,4|0,3:0|0:0,0:0:0:0:
140,84,136617,1,8,0:0:0:0:
140,84,136700,1,8,0:0:0:0:
140,84,136783,1,8,0:0:0:0:
140,84,136866,1,8,0:0:0:0:
304,196,136949,6,0,P|434:138|515:-13,1,305.250009315491,4|0,1:0|0:0,0:0:0:0:
270,97,137281,2,0,P|230:122|160:203,1,101.750003105164,8|0,0:0|0:0,0:0:0:0:
396,259,137447,2,0,P|421:298|442:371,1,101.750003105164,2|0,0:0|0:0,0:0:0:0:
194,314,137613,2,0,P|49:367|-46:382,1,203.500006210327,4|4,3:0|3:0,0:0:0:0:
76,141,137946,2,0,P|108:242|120:369,1,203.500006210327,10|0,0:0|0:0,0:0:0:0:
2,16,138278,6,0,P|45:44|108:75,1,101.750003105164,4|0,3:0|0:0,0:0:0:0:
297,0,138444,2,0,B|214:6|140:19|140:19|65:47,1,203.500006210327,8|0,1:2|0:0,0:0:0:0:
6,290,138776,2,0,B|80:341|146:361|146:361|240:381,1,203.500006210327,4|0,0:0|0:0,0:0:0:0:
474,322,139108,2,0,P|368:324|230:343,1,203.500006210327,4|8,3:0|0:0,0:0:0:0:
475,126,139440,6,0,P|469:256|208:237,1,407.000012420655,4|4,0:0|3:0,0:0:0:0:
273,50,139938,2,0,P|327:72|391:115,1,101.750003105164,8|0,0:0|0:0,0:0:0:0:
150,119,140104,2,0,P|122:75|107:21,1,101.750003105164,2|0,0:0|0:0,0:0:0:0:
272,173,140270,2,0,P|297:219|312:284,1,101.750003105164,4|0,3:0|0:0,0:0:0:0:
94,320,140436,2,0,P|126:285|182:244,1,101.750003105164,2|0,0:0|0:0,0:0:0:0:
384,314,140602,2,0,P|419:355|489:398,1,101.750003105164,8|0,0:0|0:0,0:0:0:0:
503,183,140768,2,0,P|486:136|435:72,1,101.750003105164,2|0,0:0|0:0,0:0:0:0:
278,79,140934,5,2,3:0:0:0:
278,79,141017,1,2,3:0:0:0:
278,79,141100,1,2,3:0:0:0:
278,79,141183,1,2,3:0:0:0:
278,79,141266,1,8,0:0:0:0:
278,79,141349,1,8,0:0:0:0:
278,79,141432,1,8,0:0:0:0:
278,79,141515,1,8,0:0:0:0:
278,79,141598,5,8,0:0:0:0:
235,106,141681,1,8,0:0:0:0:
184,111,141764,1,8,0:0:0:0:
136,91,141848,1,8,0:0:0:0:
100,54,141931,1,8,1:2:0:0:
39,57,142014,1,8,1:2:0:0:
10,110,142097,1,8,1:2:0:0:
19,170,142180,1,8,1:2:0:0:
73,197,142263,6,0,B|194:205|237:298|237:298|189:342|95:315,1,296,4|0,1:0|0:0,0:0:0:0:
110,113,142761,2,0,P|175:64|212:55,1,74,4|0,3:0|0:0,0:0:0:0:
337,141,142927,2,0,P|341:49|194:105,1,296,8|2,0:0|3:0,0:0:0:0:
279,304,143425,2,0,P|310:331|349:352,1,74,2|0,0:0|0:0,0:0:0:0:
448,280,143591,2,0,P|276:317|126:371,2,296,4|4|8,0:0|3:0|0:0,0:0:0:0:
472,24,144587,1,2,3:0:0:0:
397,151,144753,1,8,0:0:0:0:
489,52,144919,6,0,P|344:99|400:206,1,296,4|0,0:0|0:0,0:0:0:0:
319,361,145417,1,4,3:0:0:0:
319,361,145583,2,0,P|244:282|175:269,1,148,8|0,0:0|0:0,0:0:0:0:
35,347,145915,2,0,P|69:328|107:297,1,74,2|0,0:0|0:0,0:0:0:0:
108,231,146082,2,0,P|66:215|17:182,1,74,4|0,3:0|0:0,0:0:0:0:
74,131,146248,2,0,P|149:61|17:60,1,296,2|4,0:0|3:0,0:0:0:0:
234,160,146746,1,0,3:0:0:0:
234,160,146829,1,0,3:0:0:0:
234,160,146912,2,0,P|300:98|312:35,1,148,8|0,0:0|0:0,0:0:0:0:
490,13,147244,2,0,P|455:21|397:55,1,74,8|0,0:0|0:0,0:0:0:0:
360,159,147410,2,0,P|396:173|444:208,1,74,10|0,0:0|0:0,0:0:0:0:
457,337,147576,6,0,P|326:325|403:210,1,296,4|0,1:0|0:0,0:0:0:0:
275,360,148074,1,4,3:0:0:0:
275,360,148157,1,0,0:0:0:0:
275,360,148240,2,0,P|197:382|115:383,1,148,8|0,0:0|0:0,0:0:0:0:
44,226,148572,1,2,3:0:0:0:
249,144,148738,2,0,P|208:124|169:103,1,74,2|0,0:0|0:0,0:0:0:0:
144,10,148904,2,0,P|174:154|192:337,2,296,4|4|8,0:0|3:0|0:0,0:0:0:0:
35,264,149900,1,2,3:0:0:0:
195,340,150066,1,8,0:0:0:0:
85,201,150232,6,0,P|25:309|162:337,1,296,4|0,0:0|0:0,0:0:0:0:
215,144,150731,1,4,3:0:0:0:
215,144,150897,2,0,P|151:72|127:11,1,148,8|0,0:0|0:0,0:0:0:0:
352,77,151229,2,0,P|352:115|334:174,1,74,2|0,0:0|0:0,0:0:0:0:
381,232,151395,2,0,P|406:207|455:182,1,74,4|0,3:0|0:0,0:0:0:0:
487,301,151561,2,0,P|444:350|378:196,1,296,2|4,0:0|3:0,0:0:0:0:
506,21,152059,1,0,3:0:0:0:
506,21,152142,1,0,3:0:0:0:
506,21,152225,2,0,P|367:59|156:88,1,296,8|2,0:0|0:0,0:0:0:0:
64,3,152640,1,2,0:0:0:0:
112,21,152723,1,4,3:0:0:0:
139,65,152806,1,4,3:0:0:0:
59,135,152889,6,0,P|47:264|136:294,1,175.749995306969,4|0,1:2|0:0,0:0:0:0:
299,243,153221,1,2,0:0:0:0:
308,294,153304,1,2,0:0:0:0:
278,337,153387,1,2,3:0:0:0:
226,347,153470,1,2,3:0:0:0:
170,279,153553,2,0,P|312:322|376:365,1,175.749995306969,4|0,3:0|0:0,0:0:0:0:
486,183,153885,2,0,P|453:130|442:94,1,87.8749976534844,8|0,0:0|0:0,0:0:0:0:
434,255,154051,2,0,P|421:297|417:365,1,87.8749976534844,2|2,0:0|0:0,0:0:0:0:
352,174,154217,6,0,P|236:125|159:16,1,263.624992960453,2|0,1:2|0:0,0:0:0:0:
281,43,154550,1,2,0:0:0:0:
237,72,154633,1,2,0:0:0:0:
212,118,154716,1,2,3:0:0:0:
165,143,154799,1,2,3:0:0:0:
114,128,154882,2,0,P|34:241|108:312,1,263.624992960453,4|0,3:0|0:0,0:0:0:0:
263,301,155214,1,4,3:0:0:0:
263,301,155297,1,4,3:0:0:0:
263,301,155380,1,4,3:0:0:0:
263,301,155463,1,4,3:0:0:0:
377,363,155546,6,0,P|245:310|330:143,1,351.499990613938,4|8,0:0|0:0,0:0:0:0:
503,18,156044,1,2,0:0:0:0:
476,196,156210,2,0,P|419:108|424:27,1,175.749995306969,4|4,3:0|3:0,0:0:0:0:
340,238,156542,2,0,P|312:269|281:330,1,87.8749976534844,8|0,0:0|0:0,0:0:0:0:
219,384,156708,2,0,P|200:347|147:285,1,87.8749976534844,2|0,0:0|0:0,0:0:0:0:
27,364,156874,6,0,P|129:360|208:322,1,175.749995306969,4|4,0:0|3:0,0:0:0:0:
356,154,157206,2,0,P|206:144|152:118,1,175.749995306969,8|0,0:0|0:0,0:0:0:0:
20,2,157538,2,0,P|56:32|90:99,1,87.8749976534844,2|0,0:0|0:0,0:0:0:0:
46,178,157704,1,4,3:0:0:0:
46,178,157787,1,4,3:0:0:0:
46,178,157870,1,4,3:0:0:0:
46,230,157953,1,2,3:0:0:0:
71,275,158036,1,2,3:0:0:0:
119,295,158119,1,8,0:0:0:0:
230,210,158202,6,0,B|351:213|482:286|482:286|491:337|461:373,1,351.499990613938,4|8,0:0|0:0,0:0:0:0:
263,357,158701,1,2,0:0:0:0:
263,357,158784,1,2,0:0:0:0:
263,357,158867,2,0,P|236:259|253:167,1,175.749995306969,4|0,3:0|0:0,0:0:0:0:
453,28,159199,2,0,P|379:123|358:184,1,175.749995306969,8|0,0:0|0:0,0:0:0:0:
400,331,159448,1,2,0:0:0:0:
499,369,159531,6,0,P|508:317|482:245,1,87.8749976534844,2|0,1:0|0:0,0:0:0:0:
423,237,159697,2,0,P|402:199|348:137,1,87.8749976534844,2|0,0:0|0:0,0:0:0:0:
234,236,159863,2,0,P|214:272|197:337,1,87.8749976534844,2|0,1:0|0:0,0:0:0:0:
80,303,160029,2,0,P|58:346|48:394,1,87.8749976534844,2|0,0:0|0:0,0:0:0:0:
240,359,160195,2,0,P|216:223|67:188,1,263.624992960453,4|0,0:0|0:0,0:0:0:0:
12,82,160527,1,8,0:0:0:0:
12,82,160610,1,8,0:0:0:0:
12,82,160693,1,8,0:0:0:0:
12,82,160776,1,8,0:0:0:0:
97,0,160859,6,0,P|175:94|326:151,1,263.624992960453,4|0,0:0|0:0,0:0:0:0:
439,141,161191,2,0,P|408:67|330:-6,1,175.749995306969,8|0,0:0|0:0,0:0:0:0:
156,187,161523,2,0,P|188:220|229:245,1,87.8749976534844,2|0,0:0|0:0,0:0:0:0:
323,263,161689,1,4,3:0:0:0:
134,354,161855,2,0,P|85:369|22:392,1,87.8749976534844,8|0,0:0|0:0,0:0:0:0:
6,243,162021,2,0,P|37:211|88:176,1,87.8749976534844,2|0,0:0|0:0,0:0:0:0:
192,47,162187,6,0,P|132:172|38:87,1,263.624992960453,4|0,0:0|0:0,0:0:0:0:
60,31,162519,1,0,3:0:0:0:
60,31,162602,1,0,3:0:0:0:
60,31,162685,1,0,3:0:0:0:
60,31,162768,1,0,3:0:0:0:
60,31,162851,1,2,3:0:0:0:
95,70,162935,1,2,3:0:0:0:
144,88,163018,1,2,3:0:0:0:
196,80,163101,1,2,3:0:0:0:
237,47,163184,1,8,0:0:0:0:
286,28,163267,1,8,0:0:0:0:
334,47,163350,2,2,P|363:73|416:95,1,87.8749976534844,2|2,1:0|1:0,1:0:0:0:
497,8,163516,6,0,P|366:89|362:281,1,319.125006086826,6|0,1:0|0:0,0:0:0:0:
203,367,163848,2,0,P|178:322|108:243,1,106.375002028942,4|0,1:3|0:0,0:0:0:0:
5,352,164014,1,2,0:0:0:0:
54,372,164097,1,2,0:0:0:0:
107,372,164180,2,0,P|143:348|198:277,1,106.375002028942,2|0,1:0|0:0,0:0:0:0:
266,114,164346,1,2,0:0:0:0:
239,147,164429,1,2,0:0:0:0:
264,181,164512,1,10,0:0:0:0:
252,222,164595,1,2,0:0:0:0:
285,248,164678,1,2,0:0:0:0:
272,288,164761,1,4,3:0:0:0:
303,316,164844,6,0,L|454:353,1,106.375002028942,4|0,1:3|0:0,0:0:0:0:
502,246,165010,2,0,P|380:270|394:386,1,212.750004057884,2|0,1:0|0:0,0:0:0:0:
436,190,165259,1,2,0:0:0:0:
479,142,165342,1,2,0:0:0:0:
471,78,165425,1,2,0:0:0:0:
428,30,165508,2,0,P|370:57|335:106,1,106.375002028942,0|0,0:0|0:0,0:0:0:0:
239,159,165674,1,2,0:0:0:0:
205,185,165757,1,2,0:0:0:0:
168,163,165840,1,2,0:0:0:0:
134,189,165923,1,10,0:0:0:0:
93,176,166006,1,10,0:0:0:0:
66,209,166089,1,10,0:0:0:0:
26,192,166172,6,0,L|60:66,1,106.375002028942,2|0,1:0|0:0,0:0:0:0:
181,25,166338,1,4,3:0:0:0:
181,25,166421,1,4,3:0:0:0:
181,25,166504,5,2,1:0:0:0:
236,140,166615,1,2,1:0:0:0:
108,183,166726,1,2,1:0:0:0:
217,53,166836,5,2,1:0:0:0:
275,165,166947,1,2,1:0:0:0:
151,264,167058,1,0,1:0:0:0:
189,375,167169,5,2,1:0:0:0:
329,304,167279,1,2,1:0:0:0:
425,367,167390,1,0,1:0:0:0:
496,255,167501,6,0,P|422:279|352:316,1,141.83333603859,2|0,1:0|0:0,0:0:0:0:
263,227,167722,2,2,P|388:168|409:45,1,212.750004057884,4|0,2:0|0:0,0:1:0:0:
286,56,167999,1,4,1:3:0:0:
194,95,168082,1,0,1:0:0:0:
140,175,168165,5,2,0:0:0:0:
103,152,168248,1,2,0:0:0:0:
113,110,168331,1,2,0:0:0:0:
74,90,168414,1,2,0:0:0:0:
88,50,168497,1,2,3:2:0:0:
68,42,168580,1,2,3:2:0:0:
80,24,168663,1,2,3:2:0:0:
60,15,168746,1,2,3:2:0:0:
61,0,168829,6,0,P|28:56|53:181,1,141.83333603859,4|0,1:0|0:0,0:0:0:0:
170,375,169050,2,2,P|176:194|42:296,1,425.500008115769,12|0,1:2|0:0,0:1:0:0:
211,151,169493,5,2,0:0:0:0:
218,130,169576,1,2,0:0:0:0:
238,123,169659,1,2,0:0:0:0:
250,105,169742,1,2,0:0:0:0:
270,101,169825,1,10,0:0:0:0:
280,82,169908,1,2,0:0:0:0:
301,82,169991,1,2,0:0:0:0:
314,65,170074,1,2,0:0:0:0:
334,69,170157,6,0,P|382:106|425:212,1,141.83333603859,4|0,1:2|0:0,0:0:0:0:
185,347,170379,2,0,P|234:283|316:228,1,141.83333603859,0|0,1:0|0:0,0:0:0:0:
495,347,170600,2,0,P|423:317|360:263,1,141.83333603859,0|0,1:0|0:0,0:0:0:0:
448,23,170821,6,0,B|404:118|404:118|380:174,1,141.83333603859,4|0,0:0|0:0,0:0:0:0:
288,365,171043,2,0,B|267:272|267:272|237:210,1,141.83333603859,2|0,0:0|1:0,0:0:0:0:
150,148,171236,1,2,0:0:0:0:
150,148,171319,1,2,0:0:0:0:
150,148,171403,1,2,0:0:0:0:
150,148,171486,5,4,1:0:0:0:
129,144,171569,1,2,0:0:0:0:
111,132,171652,1,2,0:0:0:0:
97,115,171735,1,2,0:0:0:0:
115,172,171818,5,8,0:0:0:0:
101,212,171901,1,2,0:0:0:0:
73,244,171984,1,2,0:0:0:0:
36,265,172067,1,2,0:0:0:0:
59,357,172150,5,4,3:0:0:0:
111,351,172233,1,2,0:0:0:0:
159,329,172316,1,2,0:0:0:0:
192,287,172399,1,2,0:0:0:0:
235,194,172482,5,8,0:0:0:0:
297,205,172565,1,2,0:0:0:0:
352,236,172648,1,2,0:0:0:0:
389,287,172731,1,2,0:0:0:0:
409,384,172814,6,0,L|397:255,1,106.375002028942,4|0,3:0|0:0,0:0:0:0:
469,44,172980,1,8,0:0:0:0:
457,106,173063,1,8,0:0:0:0:
441,167,173146,2,2,B|403:176|344:171|301:126|298:120|293:112|259:76|187:66|124:86,1,319.125006086826,4|0,1:0|0:0,0:1:0:0:
50,157,173478,1,4,1:3:0:0:
50,157,173561,1,2,0:0:0:0:
50,157,173644,1,2,0:0:0:0:
50,157,173727,1,2,0:0:0:0:
50,157,173810,1,2,0:0:0:0:
50,157,173893,1,2,0:0:0:0:
64,268,173976,6,0,P|102:313|179:344,1,106.375002028942,2|0,1:0|0:0,0:0:0:0:
351,134,174142,2,0,P|317:240|88:291,1,319.125006086826,6|0,1:0|0:0,0:0:0:0:
30,78,174474,5,4,1:3:0:0:
126,134,174585,1,2,0:0:0:0:
126,28,174696,1,2,0:0:0:0:
60,158,174806,5,4,3:0:0:0:
201,154,174917,1,2,0:0:0:0:
106,49,175028,1,2,0:0:0:0:
124,229,175138,5,2,1:0:0:0:
275,275,175249,1,2,0:0:0:0:
421,216,175360,1,2,0:0:0:0:
401,64,175470,5,2,0:0:0:0:
360,127,175554,1,2,0:0:0:0:
413,178,175637,1,2,0:0:0:0:
463,161,175720,1,2,0:0:0:0:
482,111,175803,5,4,0:0:0:0:
445,72,175886,1,2,0:0:0:0:
391,73,175969,1,2,0:0:0:0:
327,111,176052,1,2,0:0:0:0:
316,195,176135,5,4,1:3:0:0:
241,236,176218,1,2,0:0:0:0:
180,192,176301,1,2,0:0:0:0:
205,121,176384,1,2,0:0:0:0:
268,119,176467,5,12,0:0:0:0:
282,159,176550,1,2,0:0:0:0:
253,190,176633,1,2,0:0:0:0:
212,177,176716,1,2,0:0:0:0:
198,136,176799,5,4,1:3:0:0:
123,128,176882,1,2,0:0:0:0:
79,188,176965,1,2,0:0:0:0:
102,258,177048,1,2,0:0:0:0:
173,276,177131,5,8,0:0:0:0:
341,244,177242,1,2,0:0:0:0:
289,361,177352,1,2,0:0:0:0:
225,186,177463,6,0,P|253:146|315:109,1,115.625,2|0,1:0|0:0,0:0:0:0:
482,166,177629,2,0,P|370:95|293:0,1,231.25,6|0,1:2|1:0,0:0:0:0:
466,123,177906,1,2,0:0:0:0:
383,233,178016,1,2,0:0:0:0:
477,319,178127,6,0,P|417:338|360:370,1,115.625,4|0,3:0|0:0,0:0:0:0:
124,350,178293,2,0,P|139:224|253:163,1,231.25,8|2,1:2|1:0,0:0:0:0:
77,261,178542,1,2,0:0:0:0:
46,205,178625,1,2,0:0:0:0:
63,143,178708,1,2,0:0:0:0:
111,101,178791,1,4,1:3:0:0:
118,81,178874,1,2,0:0:0:0:
101,67,178957,1,2,0:0:0:0:
116,52,179040,1,2,0:0:0:0:
99,38,179123,1,4,3:0:0:0:
90,31,179206,1,4,3:0:0:0:
81,24,179289,6,0,P|141:67|224:81,1,115.625,2|0,1:0|0:0,0:0:0:0:
367,51,179455,2,2,B|326:-34|169:-3|147:85|167:160|170:164|176:169|249:212|272:352|231:409|108:477|-49:397|-47:201|147:205,1,809.375,6|0,1:0|0:0,0:1:0:0:
337,140,180120,2,0,P|392:154|454:192,1,115.625,2|0,1:0|0:0,0:0:0:0:
325,373,180286,2,0,L|301:250,1,115.625,4|0,1:3|0:0,0:0:0:0:
446,81,180452,1,2,1:0:0:0:
454,144,180535,1,2,0:0:0:0:
422,199,180618,1,2,0:0:0:0:
214,63,180784,6,0,P|288:49|370:19,1,154.166666666667,2|0,1:0|0:0,0:0:0:0:
161,267,181005,2,0,P|260:317|317:363,1,154.166666666667,2|0,1:0|0:0,0:0:0:0:
58,129,181227,2,0,P|118:45|133:-5,1,154.166666666667,2|0,1:0|0:0,0:0:0:0:
2,312,181448,6,0,P|62:365|136:390,1,154.166666666667,2|0,1:0|0:0,0:0:0:0:
379,339,181669,2,0,L|405:249,1,77.0833333333333,4|0,3:0|0:0,0:0:0:0:
328,198,181780,1,8,0:0:0:0:
328,198,181863,1,8,0:0:0:0:
328,198,181946,1,8,0:0:0:0:
328,198,182029,1,8,0:0:0:0:
512,0,182112,6,2,B|507:82|426:180|304:152|266:104|261:96|254:87|182:-13|73:-17|-53:72|-57:221|57:306|152:291,1,809.375,4|0,1:0|1:0,0:1:0:0:
316,221,182776,1,2,0:0:0:0:
329,158,182859,1,2,0:0:0:0:
321,94,182942,2,0,B|301:44|301:44|251:-5,1,115.625,2|0,1:2|0:0,0:0:0:0:
52,208,183108,2,2,P|37:87|218:146,1,346.875,4|0,1:2|0:0,0:1:0:0:
327,351,183440,5,4,1:2:0:0:
390,322,183523,1,2,0:0:0:0:
434,268,183606,1,2,0:0:0:0:
446,199,183689,1,2,0:0:0:0:
318,259,183772,5,4,1:3:0:0:
244,226,183855,1,4,1:3:0:0:
198,159,183938,1,4,1:3:0:0:
178,79,184022,1,4,1:3:0:0:
322,108,184105,5,2,1:0:0:0:
446,14,184188,2,2,P|397:93|242:175,1,231.25,6|0,1:2|0:0,0:1:0:0:
52,10,184437,2,2,P|322:158|438:357,1,517.999984191895,4|0,1:0|0:0,0:1:0:0:
61,378,184935,5,2,1:2:0:0:
47,288,185018,1,2,1:2:0:0:
116,230,185101,2,0,B|178:181|178:181|210:68|210:68|276:0,1,258.999992095948,4|0,1:0|0:0,0:0:0:0:
371,54,185322,1,2,0:1:0:0:
352,91,185378,1,2,0:1:0:0:
316,111,185433,5,2,0:1:0:0:
261,185,185599,1,2,1:2:0:0:
255,266,185765,2,0,B|215:213|215:213|117:122|117:122|77:41,1,258.999992095948,4|0,1:0|0:0,0:0:0:0:
429,13,186097,5,2,1:2:0:0:
419,304,186263,1,2,1:2:0:0:
472,230,186346,1,2,1:2:0:0:
484,140,186429,2,0,B|433:184|433:184|381:298|381:298|303:375,1,258.999992095948,4|0,1:0|0:0,0:0:0:0:
239,306,186650,1,2,0:1:0:0:
255,266,186706,1,2,0:1:0:0:
287,241,186761,5,2,0:1:0:0:
328,169,186927,1,2,1:2:0:0:
283,106,187093,2,0,B|221:121|221:121|137:225|137:225|65:261,1,258.999992095948,4|0,1:0|0:0,0:0:0:0:
385,377,187425,5,2,1:2:0:0:
41,324,187591,1,2,1:2:0:0:
90,247,187674,1,2,1:2:0:0:
66,159,187757,2,0,B|117:204|117:204|181:323|181:323|246:378,1,258.999992095948,4|0,1:0|0:0,0:0:0:0:
306,296,187979,1,2,0:1:0:0:
288,258,188034,1,2,0:1:0:0:
253,235,188089,5,2,0:1:0:0:
231,159,188256,1,2,1:2:0:0:
278,94,188422,2,0,B|342:82|342:82|459:23|459:23|538:32,1,258.999992095948,4|0,1:0|0:0,0:0:0:0:
136,112,188754,5,2,1:2:0:0:
125,104,188837,1,2,0:2:0:0:
128,91,188920,1,2,0:2:0:0:
116,84,189003,1,2,0:2:0:0:
117,71,189086,1,2,0:2:0:0:
104,66,189169,1,2,0:2:0:0:
106,53,189252,5,2,1:0:0:0:
50,124,189335,1,2,1:0:0:0:
59,214,189418,6,0,B|119:301|119:301|145:360,1,129.499996047974,0|0,1:2|0:0,0:0:0:0:
211,54,189584,2,0,B|304:26|304:26|348:23,1,129.499996047974,2|0,1:0|0:0,0:0:0:0:
382,174,189750,2,2,B|304:178|304:178|186:237|186:237|88:253,1,258.999992095948,0|0,0:0|0:0,1:0:0:0:
29,340,189999,1,0,1:0:0:0:
201,375,190082,5,0,1:0:0:0:
458,275,190248,1,0,1:2:0:0:
369,220,190331,1,0,1:2:0:0:
460,170,190414,2,0,B|403:134|403:134|240:110|240:110|174:88,1,258.999992095948,0|0,1:0|0:0,0:0:0:0:
168,23,190635,1,2,0:1:0:0:
207,10,190691,1,2,0:1:0:0:
246,22,190746,6,0,B|267:56|267:56|275:156,1,129.499996047974,2|0,0:1|0:0,0:0:0:0:
353,220,190912,2,0,B|360:171|360:171|415:76,1,129.499996047974,2|0,1:0|0:0,0:0:0:0:
505,24,191078,2,0,L|431:328,1,258.999992095948,2|0,1:2|0:0,0:0:0:0:
47,341,191410,5,0,1:0:0:0:
255,242,191576,1,0,1:2:0:0:
233,343,191659,1,0,1:2:0:0:
152,278,191742,2,0,B|96:225|96:225|75:109|75:109|-10:39,1,258.999992095948,0|0,1:0|0:0,0:0:0:0:
126,22,191964,1,2,0:1:0:0:
144,58,192019,1,2,0:1:0:0:
139,99,192074,6,0,B|74:116|74:116|12:141,1,129.499996047974,2|0,0:1|0:0,0:0:0:0:
74,281,192240,2,0,B|165:295|165:295|232:328,1,129.499996047974,2|0,1:0|0:0,0:0:0:0:
340,381,192407,2,0,B|390:312|390:312|472:138,1,258.999992095948,2|0,1:2|0:0,0:0:0:0:
153,20,192739,5,0,1:0:0:0:
455,50,192905,1,0,1:2:0:0:
382,104,192988,1,0,1:2:0:0:
452,161,193071,2,0,B|420:214|420:214|315:289|315:289|252:370,1,258.999992095948,0|0,1:0|0:0,0:0:0:0:
168,303,193292,1,2,0:1:0:0:
174,262,193347,1,2,0:1:0:0:
205,233,193403,6,0,B|187:197|187:197|124:117,1,129.499996047974,2|0,0:1|0:0,0:0:0:0:
248,17,193569,2,0,B|283:55|283:55|378:128,1,129.499996047974,2|0,1:0|0:0,0:0:0:0:
500,7,193735,6,0,B|290:26|290:26|225:76,1,258.999992095948,2|0,1:2|0:0,0:0:0:0:
60,226,194067,1,2,1:2:0:0:
69,201,194150,1,2,1:2:0:0:
48,185,194233,1,2,1:2:0:0:
65,165,194316,1,2,1:2:0:0:
45,147,194399,1,2,1:2:0:0:
61,126,194482,1,2,1:2:0:0:
42,108,194565,5,0,1:0:0:0:
106,44,194648,1,0,1:0:0:0:
144,126,194731,2,0,B|161:211|161:211|194:287,1,129.499996047974,2|0,1:0|0:0,0:0:0:0:
385,338,194897,2,0,B|412:301|412:301|446:215,1,129.499996047974,2|0,1:0|0:0,0:0:0:0:
350,52,195063,1,8,1:2:0:0:
357,103,195146,1,8,1:2:0:0:
364,154,195229,1,8,1:2:0:0:
372,205,195312,1,8,1:2:0:0:
336,290,195395,6,0,L|216:332,1,120.249994495392,4|0,1:0|0:0,0:0:0:0:
86,355,195727,2,0,L|183:284,1,120.249994495392,2|0,0:0|0:0,0:0:0:0:
159,184,196059,2,0,L|133:335,1,120.249994495392,2|0,0:0|0:0,0:0:0:0:
31,384,196391,2,0,L|15:241,1,120.249994495392,2|0,0:0|0:0,0:0:0:0:
83,101,196724,2,0,L|106:255,1,120.249994495392,2|0,0:0|0:0,0:0:0:0:
225,246,197056,2,0,L|266:106,1,120.249994495392,2|0,0:0|0:0,0:0:0:0:
169,24,197388,2,0,L|162:163,1,120.249994495392,2|0,0:0|0:0,0:0:0:0:
443,45,197720,2,0,L|345:254,1,180.374991743088,4|0,1:3|0:0,0:0:0:0:
436,285,198052,6,0,L|426:135,1,120.249994495392,4|0,1:2|0:0,0:0:0:0:
326,232,198384,2,0,L|279:369,1,120.249994495392,2|0,0:0|0:0,0:0:0:0:
176,374,198716,2,0,L|21:388,1,120.249994495392,2|0,0:0|0:0,0:0:0:0:
3,287,199048,2,0,L|176:253,1,120.249994495392,2|0,0:0|0:0,0:0:0:0:
246,138,199380,2,0,L|321:283,1,120.249994495392,2|0,0:0|0:0,0:0:0:0:
391,221,199712,2,0,L|418:88,1,120.249994495392,2|0,0:0|0:0,0:0:0:0:
346,33,200044,2,0,L|320:159,1,120.249994495392,2|0,0:0|0:0,0:0:0:0:
112,27,200376,2,0,L|60:240,1,180.374991743088,4|0,1:3|0:0,0:0:0:0:
144,282,200708,6,0,L|-4:308,1,120.249994495392,4|0,1:2|0:0,0:0:0:0:
231,382,201041,2,0,L|105:364,1,120.249994495392,2|0,0:0|0:0,0:0:0:0:
277,207,201373,2,0,L|221:321,1,120.249994495392,2|0,0:0|0:0,0:0:0:0:
359,308,201705,2,0,L|467:366,1,120.249994495392,2|0,0:0|0:0,0:0:0:0:
439,245,202037,2,0,L|436:110,1,120.249994495392,2|0,0:0|0:0,0:0:0:0:
499,17,202369,2,0,L|348:71,1,120.249994495392,2|0,0:0|0:0,0:0:0:0:
305,182,202701,2,0,L|262:36,1,120.249994495392,2|0,0:0|0:0,0:0:0:0:
205,305,203033,2,0,L|109:133,1,180.374991743088,4|0,1:3|0:0,0:0:0:0:
80,30,203365,6,0,P|37:94|32:192,1,120.249994495392,4|0,1:2|0:0,0:0:0:0:
137,297,203697,1,2,0:0:0:0:
137,297,203780,1,2,0:0:0:0:
137,297,203863,1,2,0:0:0:0:
137,297,203946,1,2,0:0:0:0:
277,331,204029,2,0,P|189:278|152:239,1,120.249994495392,4|0,0:0|0:0,0:0:0:0:
226,63,204361,1,4,3:0:0:0:
263,44,204444,1,4,3:0:0:0:
306,64,204527,1,2,0:0:0:0:
327,113,204610,1,2,0:0:0:0:
303,168,204693,5,2,1:2:0:0:
363,208,204776,1,2,0:0:0:0:
433,192,204859,1,2,0:0:0:0:
459,151,204942,1,2,0:0:0:0:
468,103,205025,1,2,0:0:0:0:
456,55,205109,1,2,0:0:0:0:
419,24,205192,5,4,0:0:0:0:
383,86,205275,1,2,0:0:0:0:
395,157,205358,1,2,0:0:0:0:
424,195,205441,1,2,0:0:0:0:
429,242,205524,1,2,0:0:0:0:
411,286,205607,1,2,0:0:0:0:
381,323,205690,5,4,1:2:0:0:
313,297,205773,1,2,0:0:0:0:
254,338,205856,1,2,0:0:0:0:
216,368,205939,1,2,0:0:0:0:
168,363,206022,1,2,0:0:0:0:
130,332,206105,1,2,0:0:0:0:
122,284,206188,5,4,1:3:0:0:
187,253,206271,1,2,0:0:0:0:
229,194,206354,1,2,0:0:0:0:
224,146,206437,1,2,0:0:0:0:
183,120,206520,1,2,0:0:0:0:
137,136,206603,1,2,0:0:0:0:
112,177,206686,5,4,1:0:0:0:
43,198,206769,1,2,0:0:0:0:
3,137,206852,1,2,0:0:0:0:
28,69,206935,1,2,0:0:0:0:
90,33,207018,1,2,0:0:0:0:
131,40,207101,1,2,0:0:0:0:
172,47,207184,1,2,0:0:0:0:
213,54,207267,1,2,0:0:0:0:
254,61,207350,5,4,1:0:0:0:
256,192,207433,12,4,208678,0:0:0:0:
416,365,209010,5,4,0:3:0:0:
343,343,209343,1,4,0:3:0:0:
268,368,209675,1,4,0:3:0:0:
17,220,210007,5,4,0:0:0:0:
82,168,210339,1,4,0:3:0:0:
106,256,210671,1,4,0:3:0:0:
203,270,211003,1,4,0:3:0:0:
496,92,211335,5,4,1:2:0:0:
441,163,211667,1,4,0:3:0:0:
332,101,211999,1,4,0:3:0:0:
249,158,212331,1,4,0:3:0:0:
243,147,212414,1,4,0:3:0:0:
237,136,212497,1,4,0:3:0:0:
231,125,212580,1,4,0:3:0:0:
131,44,212663,5,4,1:2:0:0:
60,113,212995,1,4,0:3:0:0:
148,203,213327,1,4,0:3:0:0:
72,296,213660,1,4,0:3:0:0:
426,376,213992,5,4,0:0:0:0:
320,288,214324,1,4,0:3:0:0:
399,199,214656,1,4,0:3:0:0:
286,117,214988,1,4,0:3:0:0:
13,246,215320,5,4,0:0:0:0:
96,331,215652,1,4,0:3:0:0:
218,271,215984,1,4,0:3:0:0:
305,358,216316,1,4,0:3:0:0:
497,82,216648,6,0,L|492:226,1,92.5,4|2,1:2|0:3,0:0:0:0:
403,31,216980,2,0,L|415:133,1,92.5,4|2,1:2|0:3,0:0:0:0:
325,114,217312,2,0,L|312:225,1,92.5,4|2,1:2|0:3,0:0:0:0:
180,58,217644,2,0,B|105:72|105:72|76:84,3,92.5,2|2|2|4,0:0|0:3|0:3|0:0,0:0:0:0:
147,372,217977,6,0,B|191:381|191:381|244:384,3,69.3750026464463,4|0|0|0,1:2|0:0|0:0|0:0,0:0:0:0:
301,340,218309,2,0,B|343:326|343:326|402:318,3,69.3750026464463,4|0|0|0,0:3|0:0|0:0|0:0,0:0:0:0:
482,281,218641,2,0,P|418:247|378:217,1,69.3750026464463,4|0,0:3|0:0,0:0:0:0:
334,199,218807,2,0,P|295:224|252:266,1,69.3750026464463
186,250,218973,2,0,P|137:235|67:208,3,69.3750026464463,4|0|0|0,0:3|0:0|0:0|0:0,0:0:0:0:
81,151,219305,6,0,B|56:106|56:106|41:43,3,69.3750026464463,0|0|0|0,1:0|0:0|0:0|0:0,0:0:0:0:
127,31,219637,2,0,B|173:17|173:17|245:8,1,69.3750026464463
298,82,219803,1,2,0:0:0:0:
298,82,219886,1,2,0:0:0:0:
298,82,219969,1,0,0:0:0:0:
298,82,220052,1,0,0:0:0:0:
298,82,220135,1,2,0:0:0:0:
298,82,220218,1,2,0:0:0:0:
298,82,220301,2,0,B|335:61|335:61|381:42,3,69.3750026464463,4|0|0|0,0:3|0:0|0:0|0:0,0:0:0:0:
415,224,220633,6,0,B|388:167|388:167|370:109,3,69.3750026464463,4|0|0|0,1:2|0:0|0:0|0:0,0:0:0:0:
303,114,220965,2,0,B|258:50|258:50|246:31,3,69.3750026464463,4|0|0|0,0:3|0:0|0:0|0:0,0:0:0:0:
166,121,221297,2,0,B|150:195|150:195|145:222,3,69.3750026464463,2|0|0|0,0:0|0:0|0:0|0:0,0:0:0:0:
224,321,221629,2,0,B|291:324|291:324|351:313,1,69.3750026464463,2|2,3:0|0:3,0:0:0:0:
345,242,221795,2,0,B|277:209|277:209|245:190,1,69.3750026464463,4|2,0:0|0:3,0:0:0:0:
152,269,221962,6,0,B|110:317|110:317|88:356,3,69.3750026464463,2|0|0|0,1:2|0:0|0:0|0:0,0:0:0:0:
77,215,222294,2,0,B|38:151|38:151|24:116,3,69.3750026464463,4|0|0|0,0:3|0:0|0:0|0:0,0:0:0:0:
28,56,222626,2,0,B|91:72|91:72|156:73,3,69.3750026464463,4|0|0|0,0:3|0:0|0:0|0:0,0:0:0:0:
238,81,222958,2,0,B|187:111|187:111|149:154,1,69.3750026464463,4|0,0:3|0:0,0:0:0:0:
225,219,223124,1,0,3:0:0:0:
225,219,223207,1,0,3:0:0:0:
225,219,223290,6,0,B|277:249|277:249|318:264,3,69.3750026464463,4|0|0|0,1:3|0:0|0:0|0:0,0:0:0:0:
395,259,223622,2,0,B|415:318|415:318|415:364,3,69.3750026464463,4|0|0|0,0:3|0:0|0:0|0:0,0:0:0:0:
463,190,223954,2,0,B|468:153|468:153|486:81,3,69.3750026464463,4|0|0|0,0:3|0:0|0:0|0:0,0:0:0:0:
435,15,224286,2,0,B|373:45|373:45|314:64,2,69.3750026464463,4|0|0,0:3|0:0|0:0,0:0:0:0:
357,139,224535,1,2,0:0:0:0:
357,139,224618,6,0,B|329:191|329:191|315:242,3,69.3750026464463,4|0|0|0,1:3|0:0|0:0|0:0,0:0:0:0:
233,267,224950,2,0,B|233:210|233:210|246:170,3,69.3750026464463,4|0|0|0,0:3|0:0|0:0|0:0,0:0:0:0:
139,137,225282,2,0,B|141:193|141:193|155:241,3,69.3750026464463,4|0|0|0,0:3|0:0|0:0|0:0,0:0:0:0:
70,278,225614,1,0,3:0:0:0:
66,286,225697,1,0,3:0:0:0:
63,294,225780,1,2,3:0:0:0:
60,302,225863,1,4,3:0:0:0:
150,353,225946,6,0,B|208:346|208:346|263:330,3,69.3750026464463,4|0|0|0,1:3|0:0|0:0|0:0,0:0:0:0:
317,284,226279,2,0,B|258:247|258:247|217:230,3,69.3750026464463,4|0|0|0,0:3|0:0|0:0|0:0,0:0:0:0:
293,156,226611,2,0,B|354:153|354:153|393:142,3,69.3750026464463,4|0|0|0,0:3|0:0|0:0|0:0,0:0:0:0:
380,15,226943,1,4,0:0:0:0:
388,18,227026,1,2,0:3:0:0:
396,21,227109,1,2,0:3:0:0:
404,24,227192,1,2,0:3:0:0:
485,136,227275,6,2,P|428:277|303:279,1,277.5,4|0,1:0|0:0,0:1:0:0:
134,235,227607,1,2,0:0:0:0:
134,235,227690,1,2,0:0:0:0:
96,330,227773,2,0,P|126:165|126:39,1,277.5,4|0,0:0|0:0,0:0:0:0:
0,0,228105,2,0,P|14:46|48:130,1,92.5,4|0,3:0|0:0,0:0:0:0:
230,118,228271,2,0,B|280:120|323:120|347:75|351:66|354:61|379:25|459:17|516:29,1,277.5,10|0,0:0|0:0,0:0:0:0:
494,141,228603,6,0,P|473:285|315:272,1,314.500005998612,4|8,1:2|0:0,0:0:0:0:
137,218,229101,2,0,P|40:326|150:330,1,314.500005998612,4|4,3:0|3:0,0:0:0:0:
212,211,229599,2,0,P|176:113|51:52,1,235.875004498959,8|0,0:0|0:0,0:0:0:0:
2,4,229931,2,0,P|60:121|214:49,1,314.500005998612,4|8,3:0|0:0,0:0:0:0:
381,0,230430,2,0,P|311:113|302:159,1,157.250002999306,2|0,0:0|0:0,0:0:0:0:
499,43,230762,1,4,3:0:0:0:
498,219,230928,2,0,P|465:185|414:153,1,78.6250014996529,10|0,0:0|0:0,0:0:0:0:
373,218,231094,2,0,P|376:258|369:312,1,78.6250014996529,2|0,0:0|0:0,0:0:0:0:
290,344,231260,6,0,P|178:328|263:193,1,314.500005998612,4|8,3:0|0:0,0:0:0:0:
312,41,231758,1,2,0:0:0:0:
312,41,231841,1,2,0:0:0:0:
312,41,231924,2,0,P|266:126|196:157,1,157.250002999306,4|0,3:0|0:0,0:0:0:0:
22,104,232256,2,0,L|117:55,1,78.6250014996529,8|0,0:0|0:0,0:0:0:0:
185,50,232422,1,2,0:0:0:0:
39,194,232588,2,0,P|127:222|222:334,1,235.875004498959,4|0,3:0|0:0,0:0:0:0:
165,384,232920,1,8,0:0:0:0:
318,341,233086,2,0,P|338:230|438:340,1,314.500005998612,0|4,1:0|3:0,0:0:0:0:
315,197,233584,2,0,P|324:148|348:86,1,78.6250014996529,12|0,0:0|0:0,0:0:0:0:
435,45,233750,1,2,0:0:0:0:
435,45,233833,1,2,0:0:0:0:
435,45,233916,6,0,P|418:152|234:152,1,314.500005998612,4|8,1:2|0:0,0:0:0:0:
31,274,234414,2,0,P|72:370|199:284,1,235.875004498959,4|0,3:0|0:0,0:0:0:0:
222,278,234747,1,4,3:0:0:0:
369,190,234913,2,0,P|334:264|359:369,1,157.250002999306,8|0,0:0|0:0,0:0:0:0:
471,377,235245,2,0,P|453:204|397:78,1,235.875004498959,4|0,0:0|0:0,0:0:0:0:
349,86,235577,1,8,0:0:0:0:
512,13,235743,2,0,P|453:43|299:72,1,157.250002999306,4|0,3:0|0:0,0:0:0:0:
203,25,236075,1,2,0:0:0:0:
113,177,236241,2,0,P|85:71|155:0,1,157.250002999306,8|0,0:0|0:0,0:0:0:0:
210,183,236573,6,0,P|213:301|30:310,1,314.500005998612,4|8,0:0|0:0,0:0:0:0:
119,194,237071,1,2,0:0:0:0:
119,194,237154,1,2,0:0:0:0:
119,194,237237,2,0,P|212:245|312:273,1,157.250002999306,4|4,3:0|0:3,0:0:0:0:
426,280,237569,2,0,P|297:331|265:371,1,157.250002999306,8|0,0:0|0:0,0:0:0:0:
465,370,237901,2,0,L|475:173,1,157.250002999306,2|0,1:2|0:0,0:0:0:0:
397,32,238233,1,8,0:0:0:0:
491,124,238399,1,4,3:0:0:0:
484,93,238482,1,4,3:0:0:0:
477,62,238565,1,8,0:0:0:0:
368,152,238731,1,4,3:0:0:0:
352,122,238815,1,4,3:0:0:0:
341,95,238898,1,2,0:0:0:0:
306,76,238981,1,2,0:0:0:0:
266,80,239064,1,2,0:0:0:0:
235,104,239147,1,2,0:0:0:0:
215,138,239230,6,0,P|79:196|53:58,1,314.500005998612,4|8,1:2|0:0,0:0:0:0:
119,317,239728,2,0,B|173:328|216:324|257:275|261:269|264:257|295:213|360:203|410:215,1,314.500005998612,2|4,0:0|3:0,0:0:0:0:
476,367,240226,2,0,P|430:318|414:271,1,78.6250014996529,8|0,0:0|0:0,0:0:0:0:
339,215,240392,2,0,P|309:243|285:293,1,78.6250014996529,2|0,0:0|0:0,0:0:0:0:
228,378,240558,2,0,P|147:322|286:223,1,314.500005998612,4|8,0:0|0:0,0:0:0:0:
407,275,241056,2,0,P|299:190|244:12,1,314.500005998612,4|4,3:0|3:0,0:0:0:0:
419,8,241554,2,0,P|461:63|472:95,1,78.6250014996529,8|0,0:0|0:0,0:0:0:0:
409,152,241720,2,0,P|370:137|323:139,1,78.6250014996529,2|0,0:0|0:0,0:0:0:0:
231,205,241886,6,0,P|93:181|77:27,1,314.500005998612,4|8,0:0|0:0,0:0:0:0:
150,254,242384,1,2,0:0:0:0:
150,254,242467,1,2,0:0:0:0:
150,254,242550,2,0,P|88:336|6:343,1,157.250002999306,2|4,0:0|3:0,0:0:0:0:
266,381,242882,2,0,P|309:338|335:278,1,78.6250014996529,8|0,0:0|0:0,0:0:0:0:
352,199,243049,2,0,P|362:231|397:288,1,78.6250014996529,2|0,0:0|0:0,0:0:0:0:
499,164,243215,2,0,P|480:52|288:67,1,314.500005998612,4|8,1:2|0:0,0:0:0:0:
165,201,243713,2,0,P|86:156|49:83,1,157.250002999306,4|0,3:0|0:0,0:0:0:0:
213,20,244045,1,4,3:0:0:0:
213,20,244128,1,4,3:0:0:0:
213,20,244211,2,0,P|221:94|209:198,1,157.250002999306,8|0,0:0|0:0,0:0:0:0:
22,244,244543,6,0,B|150:250|228:279|228:279|336:336,1,314.500005998612,4|8,1:2|0:0,0:0:0:0:
493,294,245041,1,2,0:0:0:0:
493,294,245124,1,2,0:0:0:0:
493,294,245207,2,0,P|410:238|411:170,1,157.250002999306,2|4,0:0|3:0,0:0:0:0:
467,13,245539,2,0,P|461:87|434:198,1,157.250002999306,8|0,0:0|0:0,0:0:0:0:
324,341,245871,2,0,L|300:29,1,235.875004498959,4|0,1:0|0:0,0:0:0:0:
299,19,246203,1,8,0:0:0:0:
128,111,246369,2,0,P|213:97|254:16,1,157.250002999306,2|0,0:0|0:0,0:0:0:0:
30,32,246701,1,4,3:0:0:0:
0,238,246867,2,0,P|48:132|107:90,1,157.250002999306,4|0,0:0|0:0,0:0:0:0:
213,284,247200,6,4,P|151:334|71:173,1,314.500005998612,4|0,1:0|0:0,1:0:0:0:
280,352,247698,2,0,B|283:296|298:242|364:210|364:210|443:172|441:123|434:50,1,314.500005998612,6|0,1:2|0:0,0:0:0:0:
373,6,248196,1,8,0:0:0:0:
373,6,248279,1,8,0:0:0:0:
373,6,248362,1,8,0:0:0:0:
373,6,248445,1,8,0:0:0:0:
239,40,248528,6,0,P|347:83|418:148,1,157.250002999306,4|0,0:0|0:0,0:0:0:0:
473,288,248860,2,0,P|389:304|303:349,1,157.250002999306,6|0,0:0|0:0,0:0:0:0:
82,360,249192,1,8,0:0:0:0:
94,314,249275,1,8,0:0:0:0:
106,268,249358,1,8,0:0:0:0:
118,222,249441,1,8,0:0:0:0:
131,176,249524,1,8,0:0:0:0:
143,130,249607,1,8,0:0:0:0:
156,84,249690,1,8,0:0:0:0:
169,38,249773,1,8,0:0:0:0:
179,372,250188,6,0,L|145:159,1,194.249994071961,4|0,1:3|0:0,0:0:0:0:
402,346,250520,1,2,0:0:0:0:
402,346,250852,2,0,L|421:141,1,194.249994071961,4|0,1:3|0:0,0:0:0:0:
490,2,251184,2,0,L|503:168,1,97.1249970359803,4|0,3:0|0:0,0:0:0:0:
407,216,251350,2,0,L|371:82,1,97.1249970359803,4|0,3:0|0:0,0:0:0:0:
245,28,251517,2,0,L|261:141,1,97.1249970359803,8|0,0:0|0:0,0:0:0:0:
176,242,251683,2,0,L|98:32,1,194.249994071961,4|0,1:3|0:0,0:0:0:0:
118,349,252015,2,0,L|4:177,1,194.249994071961,4|0,1:3|0:0,0:0:0:0:
250,370,252347,6,0,P|342:180|355:62,1,291.374991107941,4|0,0:0|0:0,0:0:0:0:
512,0,252679,2,0,P|478:35|431:130,1,97.1249970359803,4|0,3:0|0:0,0:0:0:0:
491,258,252845,2,0,P|452:219|413:149,1,97.1249970359803,8|0,0:0|0:0,0:0:0:0:
318,34,253011,2,0,P|286:73|281:134,1,97.1249970359803,2|0,0:0|0:0,0:0:0:0:
245,244,253177,2,0,P|209:209|171:143,1,97.1249970359803,2|0,0:0|0:0,0:0:0:0:
146,94,253343,2,0,P|132:45|132:-30,1,97.1249970359803,2|0,0:0|0:0,0:0:0:0:
231,258,253509,2,0,P|108:233|125:356,1,291.374991107941,8|0,0:0|0:0,0:0:0:0:
245,352,253841,6,0,P|102:253|25:42,1,388.499988143921,4|2,0:0|0:0,0:0:0:0:
32,346,254339,1,4,3:0:0:0:
32,346,254422,1,4,3:0:0:0:
32,346,254505,1,8,0:0:0:0:
91,314,254588,1,8,0:0:0:0:
144,271,254671,1,8,0:0:0:0:
190,221,254754,1,8,0:0:0:0:
233,169,254837,1,8,0:0:0:0:
258,106,254920,1,8,0:0:0:0:
379,0,255003,6,0,P|469:141|509:387,1,407.000012420655,4|2,1:2|0:0,0:0:0:0:
330,344,255501,2,0,P|254:312|212:290,1,101.750003105164,8|0,0:0|0:0,0:0:0:0:
381,207,255668,2,0,P|470:145|492:108,1,101.750003105164,2|0,0:0|0:0,0:0:0:0:
343,70,255834,2,0,P|316:180|320:281,1,203.500006210327,4|0,3:0|0:0,0:0:0:0:
171,384,256083,1,2,0:0:0:0:
171,384,256166,2,0,P|124:236|60:145,1,203.500006210327,8|0,0:0|0:0,0:0:0:0:
26,48,256498,6,0,L|189:19,1,101.750003105164,4|0,1:3|0:0,0:0:0:0:
305,120,256664,2,0,L|158:114,1,101.750003105164,2|0,1:2|0:0,0:0:0:0:
73,262,256830,2,0,L|180:226,1,101.750003105164,4|0,1:3|0:0,0:0:0:0:
446,311,256996,2,0,L|201:361,1,203.500006210327,4|0,1:2|1:3,0:0:0:0:
512,153,257328,2,0,L|268:86,1,203.500006210327,4|2,0:0|1:3,0:0:0:0:
38,163,257660,6,0,B|94:170|150:140|172:89|174:84|175:77|196:25|271:0|324:15,1,332.999989837647,4|0,1:0|0:0,2:0:0:0:
460,190,257992,2,0,P|404:170|347:128,1,110.999996612549,2|0,0:0|0:0,0:0:0:0:
208,82,258158,2,0,P|223:141|233:216,1,110.999996612549,8|0,0:0|0:0,0:0:0:0:
157,333,258324,2,0,P|134:286|94:223,1,110.999996612549,2|0,0:0|0:0,0:0:0:0:
0,384,258490,6,0,P|127:365|229:301,1,221.999993225098,4|4,3:0|3:0,0:0:0:0:
475,155,258822,2,0,P|420:171|341:224,1,110.999996612549,8|0,0:0|0:0,0:0:0:0:
361,370,258988,2,0,P|349:322|294:248,1,110.999996612549,2|0,0:0|0:0,0:0:0:0:
115,197,259154,2,0,P|105:106|236:27,1,221.999993225098,2|0,1:0|0:0,0:0:0:0:
368,76,259403,1,8,0:0:0:0:
368,76,259486,2,0,P|177:67|31:1,1,332.999989837647,8|0,1:2|0:0,0:0:0:0:
0,200,259819,2,0,P|135:136|381:148,1,332.999989837647,4|0,1:2|0:0,0:0:0:0:
438,314,260151,1,2,1:0:0:0:
369,277,260234,1,2,1:0:0:0:
351,201,260317,1,2,1:0:0:0:
384,130,260400,1,2,1:0:0:0:
348,61,260483,6,0,P|291:47|182:41,1,110.999996612549,4|0,1:0|0:0,0:0:0:0:
76,192,260649,2,0,P|170:157|214:123,1,110.999996612549,2|0,0:0|0:0,0:0:0:0:
94,0,260815,2,0,P|85:51|91:186,1,110.999996612549,2|0,0:0|0:0,0:0:0:0:
147,369,260981,2,2,L|209:145,1,221.999993225098,0|0,0:0|0:0,0:0:0:0:
298,370,261313,1,2,0:0:0:0:
249,124,261479,1,4,1:3:0:0:
492,302,261645,6,0,L|377:78,1,221.999993225098,6|0,1:2|0:0,0:0:0:0:
374,305,261977,1,2,0:0:0:0:
77,188,262143,1,2,0:0:0:0:
287,360,262309,2,0,L|24:373,1,221.999993225098,2|0,0:0|0:0,0:0:0:0:
296,240,262641,1,4,0:3:0:0:
296,240,262724,1,4,0:3:0:0:
296,240,262807,1,4,0:3:0:0:
208,44,262973,1,2,0:0:0:0:
2,149,263139,6,0,L|294:174,1,221.999993225098,4|0,1:2|0:0,0:0:0:0:
74,25,263471,1,2,0:0:0:0:
409,79,263637,1,2,0:0:0:0:
414,30,263969,2,0,B|447:89|447:89|468:166,1,110.999996612549,2|0,1:2|0:0,0:0:0:0:
424,316,264136,2,0,B|415:226|415:226|425:186,1,110.999996612549,2|0,1:2|0:0,0:0:0:0:
510,26,264302,6,0,P|423:170|312:257,1,221.999993225098,6|0,1:0|0:0,0:0:0:0:
55,378,264634,2,0,P|221:355|314:324,1,221.999993225098,2|0,1:0|0:0,0:0:0:0:
512,335,264966,2,0,P|418:294|263:257,1,221.999993225098,2|0,1:0|0:0,0:0:0:0:
50,1,265298,2,0,P|49:115|85:228,1,221.999993225098,2|0,1:0|0:0,0:0:0:0:
231,324,265547,1,4,1:3:0:0:
231,324,265630,1,4,1:3:0:0:
231,324,265713,1,4,1:3:0:0:
286,178,265796,6,0,P|257:126|187:64,1,110.999996612549,4|0,1:2|0:0,0:0:0:0:
13,115,265962,2,0,P|83:116|153:90,1,110.999996612549,2|0,0:0|0:0,0:0:0:0:
357,24,266128,2,0,P|296:7|197:-2,1,110.999996612549,2|0,1:0|0:0,0:0:0:0:
197,321,266294,2,0,P|346:282|419:94,1,332.999989837647,6|0,1:2|0:0,0:0:0:0:
382,56,266626,1,2,0:0:0:0:
282,330,266792,1,0,0:0:0:0:
345,33,266958,2,0,L|374:330,1,221.999993225098,4|0,1:2|0:0,0:0:0:0:
467,26,267290,1,2,0:0:0:0:
453,313,267456,1,10,0:0:0:0:
402,85,267622,2,0,L|138:65,1,221.999993225098,2|0,0:0|0:0,0:0:0:0:
16,357,267954,2,0,L|257:371,1,221.999993225098,6|0,0:0|0:0,0:0:0:0:
377,284,268203,1,8,0:0:0:0:
377,284,268287,1,8,0:0:0:0:
377,284,268370,1,8,0:0:0:0:
479,150,268453,6,0,P|456:199|440:284,1,110.999996612549,4|0,1:3|0:0,0:0:0:0:
293,364,268619,2,0,P|283:309|228:210,1,110.999996612549,2|0,0:0|0:0,0:0:0:0:
49,302,268785,2,0,P|102:339|146:360,1,110.999996612549,2|0,0:0|0:0,0:0:0:0:
181,130,268951,2,0,P|121:242|114:366,1,221.999993225098,4|0,1:3|0:0,0:0:0:0:
272,81,269283,1,2,1:2:0:0:
316,349,269449,1,2,1:2:0:0:
89,40,269615,2,0,L|226:16,1,110.999996612549,4|0,1:3|0:0,0:0:0:0:
58,53,269947,2,2,B|130:-1|275:19|275:19|372:107|528:83,1,480.999977981568,6|0,1:0|0:0,0:1:0:0:
421,342,270445,2,0,P|330:212|494:208,1,360.749983486176,4|0,1:2|0:0,0:0:0:0:
250,369,270777,2,2,P|189:348|123:299,3,120.249994495392,0|2|2|2,1:0|1:0|1:0|1:0,1:0:0:0:
0,237,271109,6,0,L|137:204,1,120.249994495392,0|0,1:0|0:0,0:0:0:0:
317,139,271275,2,0,L|198:110,1,120.249994495392,2|0,1:2|0:0,0:0:0:0:
39,10,271441,2,0,L|138:169,1,120.249994495392,8|0,1:2|0:0,0:0:0:0:
221,355,271607,2,0,P|299:184|276:15,1,360.749983486176,4|0,1:2|0:0,0:0:0:0:
133,28,271939,1,4,1:3:0:0:
133,28,272022,1,4,1:3:0:0:
133,28,272105,1,4,1:3:0:0:
451,158,272271,6,0,B|408:169|335:154|298:110|292:103|285:98|254:52|160:36|99:74,1,360.749983486176,6|0,1:2|0:0,0:0:0:0:
56,281,272604,2,0,P|114:234|162:151,1,120.249994495392,2|0,1:2|0:0,0:0:0:0:
325,47,272770,2,0,L|308:205,1,120.249994495392,8|0,1:2|0:0,0:0:0:0:
442,366,272936,2,0,B|275:309|275:309|202:285,1,240.499988990784,2|0,1:2|0:0,0:0:0:0:
40,13,273268,2,0,L|215:2,1,120.249994495392,4|0,1:3|0:0,0:0:0:0:
383,13,273434,1,4,1:3:0:0:
383,13,273517,1,4,1:3:0:0:
383,13,273600,1,4,1:3:0:0:
468,296,273766,6,0,P|428:238|405:171,1,120.249994495392,4|0,1:2|0:0,0:0:0:0:
512,0,273932,2,0,P|489:58|448:118,1,120.249994495392,2|0,1:2|0:0,0:0:0:0:
186,166,274098,2,0,P|233:116|287:70,1,120.249994495392,8|0,1:2|0:0,0:0:0:0:
448,220,274264,2,0,B|306:250|195:292|195:292|95:362,1,360.749983486176,4|0,1:2|0:0,0:0:0:0:
0,130,274596,2,0,L|81:225,1,120.249994495392,2|0,1:2|0:0,0:0:0:0:
231,377,274762,2,0,L|191:243,1,120.249994495392,2|0,1:2|0:0,0:0:0:0:
149,54,274928,1,2,0:0:0:0:
78,18,275094,6,2,P|93:176|260:125,1,360.749983486176,4|0,1:0|0:0,0:1:0:0:
422,19,275426,2,0,L|358:184,1,120.249994495392,8|0,1:2|0:0,0:0:0:0:
477,333,275592,2,0,L|425:90,1,240.499988990784,4|0,1:3|0:0,0:0:0:0:
341,359,275924,2,0,L|277:187,1,120.249994495392,4|0,1:3|0:0,0:0:0:0:
190,5,276090,1,8,0:0:0:0:
185,76,276173,1,8,0:0:0:0:
180,147,276256,1,8,0:0:0:0:
176,219,276339,1,8,0:0:0:0:
119,319,276422,6,0,P|58:277|-6:191,1,120.249994495392,4|0,1:0|0:0,0:0:0:0:
197,130,276588,2,0,P|253:103|312:43,1,120.249994495392,2|0,1:2|0:0,0:0:0:0:
67,15,276755,2,0,L|97:159,1,120.249994495392,8|0,1:2|0:0,0:0:0:0:
219,372,276921,2,0,P|213:233|52:308,1,360.749983486176,2|0,1:0|0:0,0:0:0:0:
345,348,277253,2,0,P|404:330|452:291,1,120.249994495392,2|0,1:2|0:0,0:0:0:0:
481,82,277419,2,0,P|464:138|465:223,1,120.249994495392,8|0,1:2|0:0,0:0:0:0:
328,324,277585,6,0,P|253:174|78:79,1,360.749983486176,4|0,1:2|0:0,0:0:0:0:
18,283,277917,2,0,L|147:184,1,120.249994495392,2|0,1:2|0:0,0:0:0:0:
308,46,278083,2,0,L|177:22,1,120.249994495392,8|0,1:2|0:0,0:0:0:0:
15,128,278249,2,0,P|154:168|155:2,1,360.749983486176,4|0,1:2|0:0,0:0:0:0:
16,255,278581,1,4,1:3:0:0:
87,298,278664,1,4,1:3:0:0:
170,290,278747,1,4,1:3:0:0:
230,231,278830,1,4,1:3:0:0:
309,203,278913,1,8,1:2:0:0:
379,248,278996,1,8,1:2:0:0:
398,329,279079,5,8,1:2:0:0:
416,348,279909,1,4,3:0:0:0:
416,348,279992,1,4,3:0:0:0:
416,348,280075,1,4,3:0:0:0:
416,348,280158,1,8,0:0:0:0:
416,348,280241,1,8,0:0:0:0:
416,348,280324,1,8,0:0:0:0:
490,171,280407,6,0,P|355:276|155:321,1,360.749983486176,6|0,1:0|0:0,0:0:0:0:
19,130,280739,2,0,L|185:196,1,120.249994495392,8|0,1:2|0:0,0:0:0:0:
210,352,280906,2,0,P|163:160|181:51,1,240.499988990784,2|0,1:0|0:0,0:0:0:0:
459,55,281238,2,0,P|455:121|443:222,1,120.249994495392,0|0,1:2|0:0,0:0:0:0:
338,306,281404,2,0,P|323:242|310:157,1,120.249994495392,8|0,1:2|0:0,0:0:0:0:
377,29,281570,6,0,P|255:97|67:123,1,240.499988990784,2|0,1:0|0:0,0:0:0:0:
25,359,281902,2,0,L|197:358,1,120.249994495392,4|0,1:3|0:0,0:0:0:0:
292,317,282068,1,2,1:2:0:0:
472,168,282234,2,0,P|394:244|426:373,1,240.499988990784,2|0,1:0|0:0,0:0:0:0:
100,202,282566,2,0,P|181:97|150:1,1,240.499988990784,2|4,1:0|1:3,0:0:0:0:
36,48,282815,1,4,1:3:0:0:
36,48,282898,1,4,1:3:0:0:
36,48,282981,1,4,1:3:0:0:
93,221,283064,6,0,P|224:158|448:115,1,360.749983486176,2|0,1:0|0:0,0:0:0:0:
450,341,283396,2,0,P|417:299|395:217,1,120.249994495392,8|0,1:2|0:0,0:0:0:0:
471,15,283562,2,0,P|498:124|512:262,1,240.499988990784,2|0,1:0|0:0,0:0:0:0:
152,379,283894,2,0,P|120:327|84:255,1,120.249994495392,2|0,1:0|0:0,0:0:0:0:
85,90,284060,1,2,1:2:0:0:
274,368,284226,6,0,P|434:300|513:212,1,240.499988990784,6|0,1:0|0:0,0:0:0:0:
148,75,284558,2,0,P|289:9|417:-2,1,240.499988990784,6|0,1:0|0:0,0:0:0:0:
175,369,284890,2,0,P|42:230|35:99,1,240.499988990784,6|0,1:0|0:0,0:0:0:0:
512,192,285223,2,0,P|466:82|380:0,1,240.499988990784,6|0,1:0|1:0,0:0:0:0:
187,49,285472,1,8,1:2:0:0:
187,49,285555,1,8,1:2:0:0:
187,49,285638,1,8,1:2:0:0:
31,154,285721,6,0,B|57:156|133:119|151:67|153:62|156:55|184:1|252:-31|344:4,1,360.749983486176,6|0,1:0|0:0,0:0:0:0:
417,265,286053,2,0,P|370:201|345:144,1,120.249994495392,8|0,1:2|0:0,0:0:0:0:
481,0,286219,2,0,P|497:93|473:282,1,240.499988990784,2|0,1:0|0:0,0:0:0:0:
144,381,286551,2,0,P|223:367|283:350,1,120.249994495392,0|0,1:2|0:0,0:0:0:0:
452,245,286717,1,8,1:2:0:0:
222,6,286883,6,0,P|104:65|8:166,1,240.499988990784,2|0,1:0|0:0,0:0:0:0:
203,384,287215,2,0,P|151:345|92:263,1,120.249994495392,4|0,1:3|0:0,0:0:0:0:
60,88,287381,1,2,1:2:0:0:
329,150,287547,2,0,P|207:157|339:36,1,360.749983486176,2|0,1:0|0:0,0:0:0:0:
512,174,287879,2,0,P|390:237|337:320,1,120.249994495392,2|0,1:0|0:0,0:0:0:0:
468,374,288045,1,4,1:3:0:0:
468,374,288128,1,4,1:3:0:0:
468,374,288211,1,4,1:3:0:0:
468,374,288294,1,4,1:3:0:0:
242,349,288377,6,0,P|239:152|396:60,1,360.749983486176,2|0,1:0|0:0,0:0:0:0:
512,1,288709,2,0,P|435:31|318:61,1,120.249994495392,8|0,1:2|0:0,0:0:0:0:
121,32,288875,2,0,P|282:48|407:128,1,240.499988990784,2|0,1:0|0:0,0:0:0:0:
143,384,289207,2,0,P|200:378|290:349,1,120.249994495392,2|0,1:0|0:0,0:0:0:0:
486,219,289374,1,2,1:2:0:0:
186,384,289540,6,0,P|104:261|10:176,1,240.499988990784,6|0,1:0|0:0,0:0:0:0:
276,0,289872,2,0,P|217:138|132:222,1,240.499988990784,6|0,1:0|0:0,0:0:0:0:
441,384,290204,2,0,P|424:313|359:232,1,120.249994495392,6|0,1:0|0:0,0:0:0:0:
124,166,290370,1,2,1:3:0:0:
82,92,290453,1,2,1:3:0:0:
133,25,290536,1,2,1:3:0:0:
217,21,290619,1,2,1:3:0:0:
263,91,290702,1,8,1:2:0:0:
334,135,290785,1,8,1:2:0:0:
418,138,290868,1,8,1:2:0:0:
475,76,290951,1,8,1:2:0:0:
384,0,291034,6,0,P|343:183|490:296,1,388.499988143921,6|0,1:0|0:0,0:0:0:0:
238,366,291366,2,0,P|192:237|137:203,1,129.499996047974,8|0,1:2|0:0,0:0:0:0:
71,71,291532,2,0,P|22:173|13:343,1,258.999992095948,2|0,1:0|0:0,0:0:0:0:
349,63,291864,2,0,P|402:108|441:195,1,129.499996047974,0|0,1:2|0:0,0:0:0:0:
472,384,292030,1,8,1:2:0:0:
102,372,292196,6,0,P|245:320|374:328,1,258.999992095948,2|0,1:0|0:0,0:0:0:0:
86,54,292528,2,0,P|158:73|260:47,1,129.499996047974,4|0,1:3|0:0,0:0:0:0:
445,0,292694,1,2,1:2:0:0:
472,295,292860,2,0,P|413:131|349:40,1,258.999992095948,2|0,1:0|0:0,0:0:0:0:
165,363,293192,2,0,P|111:316|58:246,1,129.499996047974,2|0,1:0|0:0,0:0:0:0:
82,56,293358,1,4,1:3:0:0:
82,56,293441,1,4,1:3:0:0:
82,56,293525,1,4,1:3:0:0:
82,56,293608,1,4,1:3:0:0:
218,244,293691,6,0,P|289:95|58:106,1,388.499988143921,2|0,1:0|0:0,0:0:0:0:
12,270,294023,2,0,P|101:314|190:385,1,129.499996047974,2|0,1:2|0:0,0:0:0:0:
344,384,294189,2,0,P|417:351|484:289,1,129.499996047974,2|0,1:2|0:0,0:0:0:0:
401,70,294355,6,0,B|460:137|460:137|448:239|448:239|498:349,1,258.999992095948,6|0,1:2|0:0,0:0:0:0:
305,121,294604,6,0,B|330:206|330:206|276:294|276:294|275:414,1,258.999992095948,2|0,1:2|0:0,0:0:0:0:
177,114,294853,6,0,L|132:282,1,129.499996047974,2|0,1:0|0:0,0:0:0:0:
16,363,295019,6,0,B|95:211|95:211|242:103,1,258.999992095948,2|0,1:2|0:0,0:0:0:0:
250,341,295268,6,0,B|291:158|291:158|273:84,1,258.999992095948,2|0,1:2|0:0,0:0:0:0:
483,255,295517,6,0,L|438:99,1,129.499996047974,2|0,1:2|0:0,0:0:0:0:
158,0,295683,2,0,L|315:19,1,129.499996047974,2|0,1:2|0:0,0:0:0:0:
449,243,295849,2,0,L|307:296,1,129.499996047974,0|0,0:0|0:0,0:0:0:0:
44,82,296015,5,2,1:0:0:0:
146,97,296098,1,2,1:0:0:0:
215,173,296181,1,2,1:0:0:0:
227,275,296264,1,2,1:0:0:0:
64,349,296347,6,0,B|69:291|81:231|142:191|152:185|160:179|216:133|240:65|229:-26,1,388.499988143921,6|0,1:0|0:0,0:0:0:0:
487,110,296679,2,0,P|445:153|333:215,1,129.499996047974,2|0,1:0|0:0,0:0:0:0:
146,384,296845,2,0,P|256:320|447:284,1,258.999992095948,2|0,1:0|0:0,0:0:0:0:
166,0,297177,2,0,P|134:57|112:171,1,129.499996047974,2|0,1:0|0:0,0:0:0:0:
140,318,297343,1,8,1:2:0:0:
429,40,297509,6,0,P|492:169|507:297,1,258.999992095948,2|0,1:0|0:0,0:0:0:0:
70,351,297842,2,0,P|9:200|15:88,1,258.999992095948,2|0,1:0|0:0,0:0:0:0:
329,383,298174,6,0,P|422:320|525:176,1,258.999992095948,2|0,1:0|0:0,0:0:0:0:
105,90,298506,2,0,P|230:14|374:3,1,258.999992095948,2|0,1:0|0:0,0:0:0:0:
459,54,298755,1,4,1:3:0:0:
459,54,298838,1,4,1:3:0:0:
459,54,298921,1,4,1:3:0:0:
420,138,299004,6,2,B|369:150|292:147|246:100|242:96|237:91|174:30|93:21|25:42,1,416.250015878678,4|0,1:0|0:0,0:1:0:0:
53,285,299336,2,0,P|130:203|118:130,1,138.750005292893,2|0,1:0|0:0,0:0:0:0:
308,19,299502,2,0,P|190:152|163:292,1,277.500010585785,4|0,1:0|0:0,0:0:0:0:
512,144,299834,2,0,P|495:213|452:285,1,138.750005292893,2|0,1:0|0:0,0:0:0:0:
302,360,300000,2,2,B|251:293|276:200|341:182|349:181|357:179|438:153|401:14|274:-11|216:132,1,416.250015878678,4|0,1:2|0:0,0:1:0:0:
175,207,300332,1,4,1:3:0:0:
175,207,300415,1,4,1:3:0:0:
175,207,300498,1,4,1:3:0:0:
175,207,300581,1,4,1:3:0:0:
175,207,300664,1,8,1:2:0:0:
175,207,300747,1,8,1:2:0:0:
175,207,300830,1,8,1:2:0:0:
175,207,300913,1,8,1:2:0:0:
176,205,300996,5,2,1:0:0:0:
95,161,301079,1,2,1:0:0:0:
112,70,301162,1,2,1:2:0:0:
182,34,301245,1,2,1:2:0:0:
250,73,301328,1,2,1:2:0:0:
290,124,301411,1,2,1:2:0:0:
356,128,301494,1,2,1:2:0:0:
395,93,301577,1,2,1:2:0:0:
423,48,301660,5,2,1:2:0:0:
468,76,301743,1,2,1:2:0:0:
470,141,301826,1,2,1:2:0:0:
418,201,301909,1,2,1:2:0:0:
325,187,301993,1,2,1:0:0:0:
247,235,302076,1,2,1:0:0:0:
240,326,302159,1,2,1:0:0:0:
313,356,302242,1,2,1:0:0:0:
378,312,302325,5,4,1:0:0:0:
347,225,302408,1,2,1:2:0:0:
260,193,302491,1,2,1:2:0:0:
185,218,302574,1,2,1:2:0:0:
106,209,302657,1,2,1:2:0:0:
50,174,302740,1,2,1:2:0:0:
45,114,302823,1,2,1:2:0:0:
85,70,302906,1,2,1:2:0:0:
137,52,302989,5,2,1:0:0:0:
50,27,303072,1,2,1:0:0:0:
11,110,303155,1,2,1:0:0:0:
63,169,303238,1,2,1:0:0:0:
121,221,303321,1,2,1:0:0:0:
162,304,303404,1,2,1:0:0:0:
98,370,303487,1,2,1:2:0:0:
16,326,303570,1,2,1:2:0:0:
48,254,303653,5,4,1:0:0:0:
351,362,303819,1,2,1:0:0:0:
431,316,303902,1,2,1:0:0:0:
431,223,303985,1,2,1:0:0:0:
361,186,304068,1,2,1:0:0:0:
334,125,304151,1,2,1:0:0:0:
376,74,304234,1,2,1:0:0:0:
427,81,304317,5,2,1:2:0:0:
439,132,304400,1,2,1:2:0:0:
380,161,304483,1,2,1:2:0:0:
321,130,304566,1,2,1:2:0:0:
243,145,304649,1,2,1:2:0:0:
215,218,304732,1,2,1:2:0:0:
265,278,304815,1,2,1:2:0:0:
213,354,304898,1,2,1:2:0:0:
123,331,304981,5,2,1:0:0:0:
112,229,305064,1,2,1:0:0:0:
200,213,305147,1,2,1:0:0:0:
237,279,305230,1,2,1:2:0:0:
192,322,305313,5,2,1:0:0:0:
136,250,305396,1,2,1:0:0:0:
191,197,305479,1,2,1:0:0:0:
252,242,305562,1,2,1:2:0:0:
212,281,305645,5,2,1:2:0:0:
167,219,305728,1,2,1:2:0:0:
189,160,305811,1,2,1:2:0:0:
239,122,305894,1,2,1:2:0:0:
272,69,305977,5,2,1:2:0:0:
237,25,306060,1,2,1:2:0:0:
181,31,306143,1,2,1:2:0:0:
133,61,306227,1,2,1:2:0:0:
80,41,306310,5,6,1:0:0:0:
