osu file format v14

[General]
AudioFilename: audio.mp3
AudioLeadIn: 0
PreviewTime: 241767
Countdown: 1
SampleSet: Normal
StackLeniency: 0.7
Mode: 0
LetterboxInBreaks: 0
WidescreenStoryboard: 0

[Editor]
Bookmarks: 28377,44186,96948,122090,161328
DistanceSpacing: 3.4
BeatDivisor: 4
GridSize: 4
TimelineZoom: 2.799999

[Metadata]
Title:Die Flugel der Freiheit
TitleUnicode:Die Flügel der Freiheit
Artist:Linked Horizon
ArtistUnicode:Linked Horizon
Creator:Taburet
Version:Tabureto4ka
Source:進撃の巨人
Tags:
BeatmapID:1240185
BeatmapSetID:585456

[Difficulty]
HPDrainRate:4
CircleSize:3.8
OverallDifficulty:8
ApproachRate:9.8
SliderMultiplier:0.400000005960464
SliderTickRate:1

[Events]
//Background and Video events
0,0,"attack-on-titan-wallpaper-hd-16.jpg",0,0
//Break Periods
2,197778,203194
//Storyboard Layer 0 (Background)
//Storyboard Layer 1 (Fail)
//Storyboard Layer 2 (Pass)
//Storyboard Layer 3 (Foreground)
//Storyboard Sound Samples

[TimingPoints]
787,441.176470588235,4,2,1,45,1,0
13139,190.47619047619,4,1,1,45,1,0
13139,-50,4,1,1,45,0,0
17710,-50,4,1,2,45,0,0
19234,-50,4,1,1,45,0,0
23805,-50,4,1,2,45,0,0
26853,-100,4,2,1,45,0,0
39043,-50,4,1,1,45,0,0
45138,-50,4,1,1,45,0,1
49710,-50,4,1,2,45,0,1
51234,-50,4,1,1,45,0,1
57265,-50,4,1,1,45,0,0
57329,-50,4,1,1,45,0,1
61900,-50,4,1,2,45,0,1
63424,-50,4,1,1,45,0,1
69519,-100,4,1,1,45,0,1
71043,-200,4,1,1,45,0,0
72377,-200,4,1,1,45,0,0
72567,-50,4,1,1,45,0,1
77138,-50,4,1,2,45,0,1
78662,-50,4,1,1,45,0,1
83234,-50,4,1,2,45,0,1
84758,-100,4,2,1,45,0,0
89281,300,4,2,1,45,1,0
89281,-100,4,2,1,45,0,0
90090,190.47619047619,4,2,1,45,1,0
90091,-100,4,2,1,45,0,0
121329,380.952380952381,4,1,1,45,1,0
121329,-200,4,1,1,45,0,1
133519,190.47619047619,4,1,1,45,1,0
133519,-100,4,2,1,45,0,0
154852,-50,4,1,1,45,0,0
160185,-50,4,1,3,45,0,0
197578,190.47619047619,4,1,1,45,1,0
203673,-100,4,2,1,45,0,0
209577,-100,4,1,1,45,0,0
209768,-50,4,1,3,45,0,0
210149,-50,4,1,2,45,0,0
210339,-50,4,1,3,45,0,0
211292,-50,4,1,3,45,0,0
212435,-50,4,1,2,45,0,0
212625,-50,4,1,3,45,0,0
214720,-50,4,1,3,45,0,0
215673,-50,4,1,2,45,0,0
215768,-50,4,1,1,45,0,0
215863,-50,4,1,3,45,0,0
217197,-50,4,1,1,45,0,0
217291,-50,4,1,1,45,0,0
217387,380.952380952381,4,1,1,45,1,0
218815,-100,4,2,1,45,0,0
218910,-200,4,2,2,45,0,0
229577,-200,4,2,1,45,0,0
232244,-200,4,2,1,45,0,0
232625,-200,4,2,1,45,0,0
235291,-200,4,2,1,45,0,0
235672,-200,4,2,1,45,0,0
238339,-200,4,2,1,45,0,0
238720,-200,4,2,1,45,0,0
241387,-200,4,2,1,45,0,0
241767,-200,4,2,1,45,0,0
253958,-100,4,2,1,45,0,0
263101,190.47619047619,4,1,1,45,1,0
263101,-50,4,1,1,45,0,0
269196,-50,4,1,1,45,0,1
269386,-50,4,1,1,45,0,0
270720,-50,4,1,1,45,0,1
270910,-50,4,1,1,45,0,0
272243,-50,4,1,1,45,0,1
272434,-50,4,1,1,45,0,0
273767,-50,4,1,1,45,0,1
273958,-50,4,1,1,45,0,0
275291,-100,4,2,1,45,0,0
279862,-200,4,1,1,45,0,0
281386,-50,4,1,1,45,0,1
285958,-50,4,1,2,45,0,1
293577,-100,4,1,1,45,0,1
295100,-200,4,1,1,45,0,0
296624,-50,4,1,1,45,0,1
301196,-50,4,1,2,45,0,1
302720,-50,4,1,1,45,0,1
307291,-50,4,1,2,45,0,1
308720,-50,4,2,1,45,0,0
308815,-100,4,2,1,45,0,1
309196,-100,4,2,1,45,0,0
309577,-100,4,2,1,45,0,1
309958,-100,4,2,1,45,0,0
310339,-100,4,2,1,45,0,1
310720,-100,4,2,1,45,0,0
311100,-100,4,2,1,45,0,1
311481,-100,4,2,1,45,0,0
311862,-100,4,2,1,45,0,1
312243,-100,4,2,1,45,0,0
312624,-100,4,2,1,45,0,1
313005,-100,4,2,1,45,0,0
313386,-100,4,2,1,45,0,1
313767,-100,4,2,1,45,0,0
314148,-100,4,2,1,45,0,1
314529,-100,4,2,1,45,0,0
314910,-100,4,2,1,45,0,1
315291,-100,4,2,1,45,0,0
315672,-100,4,2,1,45,0,1
316053,-100,4,2,1,45,0,0
316434,-100,4,2,1,45,0,1
316815,-100,4,2,1,45,0,0
317196,-100,4,2,1,45,0,1
317577,-100,4,2,1,45,0,0
317958,-100,4,2,1,45,0,1
318339,-100,4,2,1,45,0,0
318720,-100,4,2,1,45,0,1
319100,-100,4,2,1,45,0,0
319481,-50,4,1,1,45,0,1
323862,-100,4,1,1,45,0,0

[Colours]
Combo1 : 39,0,79
Combo2 : 183,183,183
Combo3 : 82,82,82
Combo4 : 241,226,48
Combo5 : 230,123,6
Combo6 : 204,0,0
Combo7 : 119,0,0
Combo8 : 126,52,106

[HitObjects]
120,156,345,5,0,0:0:0:0:
156,212,492,1,0,0:0:0:0:
184,152,639,1,0,0:0:0:0:
220,208,787,6,0,P|236:224|248:240,1,40.0000005960464,6|0,0:0|0:0,0:0:0:0:
166,349,1669,2,0,P|152:335|140:320,1,40.0000005960464,4|0,0:0|0:0,0:0:0:0:
264,305,2551,2,0,P|248:321|232:333,1,40.0000005960464,4|0,0:0|0:0,0:0:0:0:
122,252,3434,2,0,P|136:237|152:225,1,40.0000005960464,4|0,0:0|0:0,0:0:0:0:
292,176,4316,102,0,P|276:160|264:144,1,40.0000005960464,4|0,0:0|0:0,0:0:0:0:
345,34,5198,2,0,P|359:48|372:64,1,40.0000005960464,4|0,0:0|0:0,0:0:0:0:
247,78,6080,2,0,P|263:62|279:50,1,40.0000005960464,4|0,0:0|0:0,0:0:0:0:
389,131,6962,1,4,0:0:0:0:
359,158,7403,5,0,0:0:0:0:
312,112,7551,1,0,0:0:0:0:
296,176,7698,1,0,0:0:0:0:
247,128,7845,102,0,P|241:110|244:90,1,40.0000005960464,6|0,0:0|0:0,0:0:0:0:
376,72,8728,2,0,P|382:90|379:110,1,40.0000005960464,4|0,0:0|0:0,0:0:0:0:
283,36,9610,2,0,P|302:30|321:33,1,40.0000005960464,4|0,0:0|0:0,0:0:0:0:
340,164,10493,2,0,P|321:170|302:167,1,40.0000005960464,4|0,0:0|0:0,0:0:0:0:
244,64,11375,5,6,0:0:0:0:
204,176,11816,1,0,0:0:0:0:
100,112,12257,1,6,0:0:0:0:
220,100,12698,1,0,0:0:0:0:
92,48,13139,38,0,P|116:44|140:44,1,40.0000005960464,4|0,0:0|0:0,0:0:0:0:
104,120,13329,2,0,P|125:108|147:99,1,40.0000005960464,10|0,0:0|0:0,0:0:0:0:
148,180,13519,2,0,P|163:161|182:146,1,40.0000005960464
208,224,13710,2,0,P|216:201|228:180,1,40.0000005960464,8|0,0:0|0:0,0:0:0:0:
380,220,13900,6,0,P|356:224|332:224,1,40.0000005960464
368,148,14090,2,0,P|346:159|324:168,1,40.0000005960464,8|0,0:0|0:0,0:0:0:0:
324,88,14280,2,0,P|308:106|289:121,1,40.0000005960464
264,44,14471,2,0,P|255:66|243:87,1,40.0000005960464,8|0,0:0|0:0,0:0:0:0:
120,180,14662,102,0,P|135:171|168:168,1,40.0000005960464
353,175,14853,2,0,P|335:184|316:188,1,40.0000005960464,8|0,0:0|0:0,0:0:0:0:
234,60,15043,2,0,P|242:76|246:108,1,40.0000005960464
239,294,15234,2,0,P|229:276|226:256,1,40.0000005960464,8|0,0:0|0:0,0:0:0:0:
152,96,15424,6,0,P|169:101|194:122,1,40.0000005960464
320,258,15615,2,0,P|301:252|285:241,1,40.0000005960464,8|0,0:0|0:0,0:0:0:0:
317,93,15805,2,0,P|312:110|291:135,1,40.0000005960464
155,261,15996,2,0,P|161:242|173:226,1,40.0000005960464,8|0,0:0|0:0,0:0:0:0:
350,137,16186,102,0,L|312:148,1,40.0000005960464,6|0,0:0|0:0,0:0:0:0:
117,206,16377,2,0,L|156:196,1,40.0000005960464,8|0,0:0|0:0,0:0:0:0:
340,230,16567,2,0,L|306:210,1,40.0000005960464
127,113,16758,2,0,L|161:133,1,40.0000005960464,8|0,0:0|0:0,0:0:0:0:
268,288,16948,2,0,L|258:249,1,40.0000005960464
199,55,17139,2,0,L|210:94,1,40.0000005960464,10|0,0:3|0:0,0:0:0:0:
175,278,17329,2,0,L|195:244,1,40.0000005960464
292,65,17520,2,0,L|272:99,1,40.0000005960464,10|0,0:3|0:0,0:0:0:0:
146,267,17710,6,0,L|177:242,1,40.0000005960464
319,74,17900,2,0,L|289:100,1,40.0000005960464,10|0,0:3|0:0,0:0:0:0:
124,257,18091,2,0,L|159:238,1,40.0000005960464
341,84,18281,2,0,L|307:104,1,40.0000005960464,10|0,0:3|0:0,0:0:0:0:
100,240,18472,2,0,L|138:227,1,40.0000005960464
360,97,18662,2,0,L|323:111,1,40.0000005960464,10|0,0:3|0:0,0:0:0:0:
79,220,18853,2,0,L|119:214,1,40.0000005960464
381,117,19043,2,0,L|342:124,1,40.0000005960464,10|0,0:2|0:0,0:0:0:0:
468,128,19234,101,2,0:0:0:0:
475,166,19329,1,0,0:0:0:0:
458,201,19424,1,8,0:0:0:0:
423,219,19519,1,0,0:0:0:0:
384,204,19615,1,0,0:0:0:0:
349,185,19710,1,0,0:0:0:0:
310,187,19805,1,8,0:0:0:0:
278,211,19900,1,0,0:0:0:0:
260,248,19996,1,0,0:0:0:0:
263,208,20091,1,0,0:0:0:0:
267,168,20186,1,10,0:3:0:0:
271,128,20281,1,0,0:0:0:0:
276,88,20377,1,0,0:0:0:0:
237,79,20472,1,0,0:0:0:0:
200,93,20567,1,10,3:0:0:0:
177,125,20662,1,0,0:0:0:0:
380,252,20758,5,2,0:0:0:0:
386,213,20853,1,0,0:0:0:0:
366,179,20948,1,8,0:0:0:0:
328,168,21043,1,0,0:0:0:0:
292,176,21138,1,0,0:0:0:0:
253,178,21233,1,0,0:0:0:0:
228,149,21328,1,8,0:0:0:0:
236,111,21423,1,0,0:0:0:0:
264,84,21519,1,0,0:0:0:0:
238,114,21614,1,0,0:0:0:0:
201,129,21709,1,10,0:3:0:0:
162,126,21804,1,0,0:0:0:0:
124,112,21900,1,0,0:0:0:0:
107,147,21995,1,0,0:0:0:0:
114,186,22090,1,10,0:3:0:0:
142,213,22185,1,0,0:0:0:0:
276,280,22281,101,2,0:0:0:0:
288,242,22376,1,0,0:0:0:0:
276,204,22471,1,8,0:0:0:0:
246,180,22566,1,0,0:0:0:0:
208,168,22662,1,0,0:0:0:0:
195,130,22757,1,0,0:0:0:0:
211,94,22853,1,8,0:0:0:0:
247,78,22947,1,0,0:0:0:0:
372,240,23043,5,0,0:0:0:0:
343,267,23138,1,0,0:0:0:0:
304,275,23233,1,10,0:3:0:0:
267,262,23328,1,0,0:0:0:0:
236,236,23424,1,0,0:0:0:0:
199,220,23519,1,0,0:0:0:0:
160,225,23614,1,10,0:3:0:0:
130,251,23709,1,0,0:0:0:0:
120,292,23805,102,0,L|132:356,1,40.0000005960464
284,204,23996,2,0,L|272:140,1,40.0000005960464,10|0,0:3|0:0,0:0:0:0:
116,300,24186,2,0,L|128:364,1,40.0000005960464
288,196,24377,2,0,L|276:132,1,40.0000005960464,10|0,0:3|0:0,0:0:0:0:
112,308,24567,2,0,L|124:372,1,40.0000005960464
292,188,24758,2,0,L|280:124,1,40.0000005960464,10|0,0:3|0:0,0:0:0:0:
108,316,24948,2,0,L|120:380,1,40.0000005960464
296,180,25139,2,0,L|284:116,1,40.0000005960464,10|0,0:3|0:0,0:0:0:0:
232,84,25329,85,0,0:0:0:0:
116,196,25519,1,0,0:0:0:0:
116,196,25615,1,0,0:0:0:0:
116,196,25710,1,0,0:0:0:0:
232,68,25900,5,0,0:0:0:0:
232,68,25996,1,0,0:0:0:0:
232,68,26091,1,0,0:0:0:0:
228,92,26376,5,0,0:0:0:0:
198,119,26472,1,0,0:0:0:0:
158,117,26567,1,0,0:0:0:0:
122,134,26662,1,0,0:0:0:0:
99,166,26757,1,0,0:0:0:0:
94,205,26853,6,0,L|112:252,1,40.0000005960464,4|8,0:1|0:0,0:0:0:0:
220,284,27234,2,0,L|202:237,1,40.0000005960464,0|8,0:0|0:0,0:0:0:0:
140,144,27615,2,0,L|157:190,1,40.0000005960464,0|8,0:0|0:0,0:0:0:0:
204,292,27996,1,0,0:0:0:0:
204,292,28091,1,0,0:0:0:0:
204,292,28186,1,8,0:0:0:0:
219,169,28377,102,0,L|228:109,1,40.0000005960464,0|8,0:0|0:0,0:0:0:0:
365,118,28758,1,0,0:0:0:0:
233,86,28948,1,8,0:0:0:0:
370,77,29138,1,0,0:0:0:0:
370,77,29234,1,0,0:0:0:0:
370,77,29329,1,0,0:0:0:0:
256,155,29519,1,0,0:0:0:0:
169,45,29710,1,8,0:0:0:0:
301,86,29900,6,0,P|324:105|338:118,1,40.0000005960464,0|8,0:0|0:0,0:0:0:0:
338,255,30281,1,0,0:0:0:0:
201,265,30472,1,8,0:0:0:0:
292,160,30662,1,0,0:0:0:0:
274,297,30853,2,0,P|269:260|274:237,1,40.0000005960464,8|0,0:0|0:0,0:0:0:0:
319,123,31234,1,8,0:0:0:0:
182,105,31424,101,0,0:0:0:0:
100,214,31615,2,0,L|105:265,1,40.0000005960464,8|0,0:0|0:0,0:0:0:0:
242,260,31996,2,0,L|246:310,1,40.0000005960464,8|0,0:0|0:0,0:0:0:0:
379,342,32377,1,8,0:0:0:0:
383,205,32567,1,0,0:0:0:0:
456,319,32758,1,8,0:0:0:0:
333,265,32948,5,0,0:0:0:0:
332,286,33043,1,0,0:0:0:0:
325,308,33138,1,8,0:0:0:0:
278,178,33329,101,0,0:0:0:0:
259,165,33424,1,0,0:0:0:0:
243,148,33519,1,8,0:0:0:0:
379,169,33710,5,0,0:0:0:0:
398,157,33805,1,0,0:0:0:0:
421,153,33900,1,8,0:0:0:0:
444,154,33995,1,0,0:0:0:0:
464,162,34090,1,0,0:0:0:0:
484,174,34186,1,0,0:0:0:0:
498,193,34281,1,8,0:0:0:0:
508,213,34376,1,0,0:0:0:0:
511,235,34472,102,0,L|488:292,1,40.0000005960464,0|8,0:0|0:0,0:0:0:0:
361,315,34853,1,0,0:0:0:0:
429,196,35043,1,8,0:0:0:0:
429,196,35138,1,0,0:0:0:0:
429,196,35234,1,0,0:0:0:0:
443,333,35424,1,8,0:0:0:0:
351,233,35615,1,0,0:0:0:0:
365,96,35805,1,8,0:0:0:0:
429,219,35996,1,0,0:0:0:0:
310,155,36186,6,0,P|290:147|256:118,1,40.0000005960464,8|0,0:0|0:0,0:0:0:0:
397,82,36567,2,0,P|412:68|455:52,1,40.0000005960464,8|0,0:0|0:0,0:0:0:0:
420,196,36948,1,8,0:0:0:0:
421,241,37138,1,0,0:0:0:0:
420,196,37329,1,8,0:0:0:0:
324,96,37519,102,0,L|319:50,1,40.0000005960464,0|8,0:0|0:0,0:0:0:0:
201,155,37900,2,0,L|204:199,1,40.0000005960464,0|8,0:0|0:0,0:0:0:0:
315,283,38281,1,0,0:0:0:0:
334,270,38376,1,0,0:0:0:0:
350,254,38471,1,8,0:0:0:0:
362,235,38566,1,0,0:0:0:0:
369,213,38661,1,0,0:0:0:0:
370,190,38757,1,0,0:0:0:0:
365,168,38852,1,8,0:0:0:0:
356,147,38947,1,0,0:0:0:0:
342,129,39043,6,0,L|246:118,1,80.0000011920928,4|0,0:0|0:0,0:0:0:0:
123,169,39424,1,0,0:0:0:0:
168,296,39615,2,0,B|209:328|341:300,2,160.000002384186,0|2|2,0:0|0:3|0:3,0:0:0:0:
96,178,40567,1,0,0:0:0:0:
68,315,40758,1,0,0:0:0:0:
57,270,40853,1,0,0:0:0:0:
169,192,41043,1,0,0:0:0:0:
172,146,41138,1,0,0:0:0:0:
96,32,41329,2,0,B|45:59|36:196,1,160.000002384186
100,315,42091,102,0,L|114:214,1,80.0000011920928,4|0,0:0|0:0,0:0:0:0:
137,86,42472,1,0,0:0:0:0:
269,109,42662,2,0,B|242:155|292:278,2,160.000002384186,0|2|2,0:0|0:3|0:3,0:0:0:0:
374,22,43805,1,0,0:0:0:0:
242,54,43995,1,0,0:0:0:0:
365,114,44186,1,0,0:0:0:0:
284,24,44377,5,0,0:0:0:0:
245,17,44472,1,0,0:0:0:0:
211,37,44567,1,0,0:0:0:0:
192,72,44662,1,0,0:0:0:0:
208,125,44757,1,0,0:0:0:0:
199,179,44852,1,0,0:0:0:0:
167,224,44947,1,0,0:0:0:0:
118,251,45042,1,0,0:0:0:0:
62,252,45138,6,0,P|57:229|56:208,1,40.0000005960464,4|0,0:0|0:0,0:0:0:0:
116,212,45329,2,0,P|118:188|124:167,1,40.0000005960464,8|0,0:0|0:0,0:0:0:0:
176,204,45519,2,0,P|186:183|199:165,1,40.0000005960464
236,216,45710,2,0,P|253:200|271:187,1,40.0000005960464,8|0,0:0|0:0,0:0:0:0:
480,344,45900,6,0,P|485:321|486:299,1,40.0000005960464
426,303,46091,2,0,P|423:279|417:258,1,40.0000005960464,8|0,0:0|0:0,0:0:0:0:
366,295,46281,2,0,P|355:274|342:256,1,40.0000005960464
306,307,46472,2,0,P|288:291|270:278,1,40.0000005960464,8|0,0:0|0:0,0:0:0:0:
155,260,46662,102,0,P|136:263|119:273,1,40.0000005960464
304,193,46853,2,0,P|287:203|268:208,1,40.0000005960464,8|0,0:0|0:0,0:0:0:0:
130,172,47043,2,0,P|147:182|161:198,1,40.0000005960464
292,294,47234,2,0,P|275:284|262:269,1,40.0000005960464,8|0,0:0|0:0,0:0:0:0:
106,276,47424,2,0,P|124:267|144:265,1,40.0000005960464
316,190,47615,2,0,P|298:199|279:202,1,40.0000005960464,8|0,0:0|0:0,0:0:0:0:
121,164,47805,2,0,P|138:175|151:191,1,40.0000005960464
301,302,47996,2,0,P|284:291|272:276,1,40.0000005960464,8|0,0:0|0:0,0:0:0:0:
420,304,48186,5,6,0:0:0:0:
436,248,48281,1,0,0:0:0:0:
432,188,48377,2,0,P|417:155|400:140,1,40.0000005960464,8|0,0:0|0:0,0:0:0:0:
326,236,48567,101,0,0:0:0:0:
366,277,48662,1,0,0:0:0:0:
420,304,48758,2,8,P|455:307|477:300,1,40.0000005960464,8|0,0:0|0:0,0:0:0:0:
432,188,48948,5,0,0:0:0:0:
376,202,49043,1,0,0:0:0:0:
326,235,49139,2,0,P|305:263|300:286,1,40.0000005960464,10|0,0:3|0:0,0:0:0:0:
420,304,49329,101,0,0:0:0:0:
436,238,49424,1,0,0:0:0:0:
417,174,49519,1,10,0:3:0:0:
366,130,49614,1,0,0:0:0:0:
300,118,49710,6,0,L|248:128,1,40.0000005960464
204,251,49900,2,0,L|244:244,1,40.0000005960464,10|0,0:3|0:0,0:0:0:0:
292,103,50091,2,0,L|236:124,1,40.0000005960464
213,265,50281,2,0,L|254:250,1,40.0000005960464,10|0,0:3|0:0,0:0:0:0:
280,89,50472,2,0,L|223:122,1,40.0000005960464
225,280,50662,2,0,L|267:255,1,40.0000005960464,10|0,0:3|0:0,0:0:0:0:
264,76,50853,2,0,L|209:122,1,40.0000005960464
241,293,51043,2,0,L|282:258,1,40.0000005960464,10|0,0:3|0:0,0:0:0:0:
332,164,51234,101,2,0:0:0:0:
300,112,51329,1,0,0:0:0:0:
244,96,51424,2,0,P|222:94|184:76,1,40.0000005960464,8|0,0:0|0:0,0:0:0:0:
104,24,51615,1,0,0:0:0:0:
74,77,51710,1,0,0:0:0:0:
89,134,51805,2,0,P|98:153|101:195,1,40.0000005960464,8|0,0:0|0:0,0:0:0:0:
104,292,51996,5,0,0:0:0:0:
164,291,52091,1,0,0:0:0:0:
206,249,52186,2,0,P|217:231|253:207,1,40.0000005960464,8|0,0:0|0:0,0:0:0:0:
244,96,52377,2,0,P|222:94|184:76,1,40.0000005960464
89,134,52567,2,0,P|98:153|101:195,1,40.0000005960464,8|0,0:0|0:0,0:0:0:0:
152,280,52758,102,0,L|154:319,1,40.0000005960464
268,248,52948,2,0,L|265:208,1,40.0000005960464,8|0,0:0|0:0,0:0:0:0:
144,270,53138,2,0,L|139:313,1,40.0000005960464
275,257,53328,2,0,L|280:214,1,40.0000005960464,8|0,0:0|0:0,0:0:0:0:
137,258,53519,2,0,L|123:304,1,40.0000005960464
282,269,53709,2,0,L|296:223,1,40.0000005960464,8|0,0:0|0:0,0:0:0:0:
132,243,53900,2,0,L|109:291,1,40.0000005960464
287,284,54090,2,0,L|310:236,1,40.0000005960464,8|0,0:0|0:0,0:0:0:0:
193,205,54281,6,0,L|154:208,1,40.0000005960464
225,321,54471,2,0,L|265:319,1,40.0000005960464,8|0,0:0|0:0,0:0:0:0:
203,198,54661,2,0,L|160:193,1,40.0000005960464
216,329,54851,2,0,L|259:334,1,40.0000005960464,8|0,0:0|0:0,0:0:0:0:
215,191,55042,2,0,L|169:177,1,40.0000005960464
204,336,55232,2,0,L|250:350,1,40.0000005960464,8|0,0:0|0:0,0:0:0:0:
230,186,55423,2,0,L|182:163,1,40.0000005960464
189,341,55613,2,0,L|237:364,1,40.0000005960464,8|0,0:0|0:0,0:0:0:0:
246,183,55805,102,0,L|199:149,1,40.0000005960464,2|0,0:0|0:0,0:0:0:0:
184,276,55996,2,0,L|177:334,1,40.0000005960464
296,280,56186,2,0,L|349:256,1,40.0000005960464
244,176,56377,6,0,P|208:144|74:177,2,160.000002384186,0|2|2,0:0|0:3|0:3,0:0:0:0:
332,268,57329,102,0,P|360:288|388:295,1,40.0000005960464,4|0,0:0|0:0,0:0:0:0:
388,232,57519,2,0,P|421:241|450:238,1,40.0000005960464,8|0,0:0|0:0,0:0:0:0:
428,180,57710,2,0,P|463:177|489:165,1,40.0000005960464
444,120,57900,2,0,P|476:105|497:85,1,40.0000005960464,8|0,0:0|0:0,0:0:0:0:
180,268,58091,2,0,P|151:288|123:295,1,40.0000005960464
124,232,58281,2,0,P|90:241|61:238,1,40.0000005960464,8|0,0:0|0:0,0:0:0:0:
84,180,58472,2,0,P|49:177|23:165,1,40.0000005960464
68,120,58662,2,0,P|36:105|15:85,1,40.0000005960464,8|0,0:0|0:0,0:0:0:0:
144,56,58853,5,0,0:0:0:0:
148,116,58948,1,0,0:0:0:0:
152,176,59043,2,0,L|155:215,1,40.0000005960464,8|0,0:0|0:0,0:0:0:0:
256,152,59234,2,0,L|259:191,1,40.0000005960464
360,128,59424,2,0,L|363:167,1,40.0000005960464,8|0,0:0|0:0,0:0:0:0:
264,100,59615,101,0,0:0:0:0:
268,160,59710,1,0,0:0:0:0:
272,220,59805,2,0,L|275:259,1,40.0000005960464,8|0,0:0|0:0,0:0:0:0:
168,244,59996,2,0,L|171:283,1,40.0000005960464
64,268,60186,2,0,L|67:307,1,40.0000005960464,8|0,0:0|0:0,0:0:0:0:
104,192,60377,5,6,0:0:0:0:
160,210,60472,1,0,0:0:0:0:
219,205,60567,1,8,0:0:0:0:
271,176,60662,1,0,0:0:0:0:
304,124,60758,1,0,0:0:0:0:
301,183,60853,1,0,0:0:0:0:
323,238,60948,1,8,0:0:0:0:
366,279,61043,1,0,0:0:0:0:
422,299,61138,102,0,L|420:252,1,40.0000005960464
360,272,61329,2,0,L|357:224,1,40.0000005960464,10|0,0:3|0:0,0:0:0:0:
297,244,61519,2,0,L|294:196,1,40.0000005960464
234,216,61710,2,0,L|231:168,1,40.0000005960464,10|0,0:3|0:0,0:0:0:0:
171,188,61900,6,0,L|168:140,1,40.0000005960464
341,196,62091,2,0,L|343:243,1,40.0000005960464,10|0,0:3|0:0,0:0:0:0:
164,171,62281,2,0,L|170:119,1,40.0000005960464
347,212,62472,2,0,L|341:264,1,40.0000005960464,10|0,0:3|0:0,0:0:0:0:
161,152,62662,2,0,L|177:96,1,40.0000005960464
350,231,62853,2,0,L|334:287,1,40.0000005960464,10|0,0:3|0:0,0:0:0:0:
160,130,63043,2,0,L|189:73,1,40.0000005960464
351,253,63234,2,0,L|322:310,1,40.0000005960464,10|0,0:3|0:0,0:0:0:0:
164,107,63424,101,2,0:0:0:0:
164,107,63519,1,0,0:0:0:0:
164,107,63615,2,0,L|206:51,1,40.0000005960464,8|0,0:0|0:0,0:0:0:0:
208,192,63805,1,0,0:0:0:0:
208,192,63900,1,0,0:0:0:0:
208,192,63996,2,0,L|227:124,1,40.0000005960464,8|0,0:0|0:0,0:0:0:0:
272,260,64186,1,0,0:0:0:0:
272,260,64281,1,0,0:0:0:0:
272,260,64377,2,0,L|267:189,1,40.0000005960464,8|0,0:0|0:0,0:0:0:0:
356,304,64567,1,0,0:0:0:0:
356,304,64662,1,0,0:0:0:0:
356,304,64758,2,0,L|328:239,1,40.0000005960464,8|0,0:0|0:0,0:0:0:0:
360,148,64948,6,0,L|352:96,1,40.0000005960464
296,128,65138,1,8,0:0:0:0:
296,128,65234,2,0,L|270:81,1,40.0000005960464
236,136,65424,1,0,0:0:0:0:
236,136,65519,2,0,L|196:101,1,40.0000005960464,8|0,0:0|0:0,0:0:0:0:
174,161,65710,1,0,0:0:0:0:
174,161,65805,1,0,0:0:0:0:
174,161,65900,2,0,L|124:141,1,40.0000005960464,8|0,0:0|0:0,0:0:0:0:
270,278,66091,2,0,L|278:330,1,40.0000005960464
323,136,66281,2,0,L|364:103,1,40.0000005960464,8|0,0:0|0:0,0:0:0:0:
200,124,66472,102,0,L|167:83,1,40.0000005960464
188,247,66662,2,0,L|147:280,1,40.0000005960464,8|0,0:0|0:0,0:0:0:0:
311,259,66853,2,0,L|344:300,1,40.0000005960464
323,136,67043,2,0,L|364:103,1,40.0000005960464,8|0,0:0|0:0,0:0:0:0:
168,183,67234,2,0,L|116:177,1,40.0000005960464
247,279,67424,2,0,L|241:331,1,40.0000005960464,8|0,0:0|0:0,0:0:0:0:
343,200,67615,2,0,L|395:206,1,40.0000005960464
264,104,67805,2,0,L|270:52,1,40.0000005960464,8|0,0:0|0:0,0:0:0:0:
176,228,67996,6,0,L|127:249,1,40.0000005960464,2|0,0:0|0:0,0:0:0:0:
327,243,68186,2,0,L|369:274,1,40.0000005960464
264,104,68377,2,0,L|270:52,1,40.0000005960464
176,228,68567,102,0,B|136:264|24:212,2,160.000002384186,0|2|2,0:0|0:3|0:3,0:0:0:0:
270,144,69519,54,0,B|300:112|383:156,2,120.000001788139
204,280,71043,6,0,B|264:356|316:284,1,140.000002086162,4|0,0:0|0:0,0:0:0:0:
160,312,72567,70,0,L|108:320,1,40.0000005960464,4|0,0:0|0:0,0:0:0:0:
352,312,72758,2,0,L|404:320,1,40.0000005960464,10|0,0:0|0:0,0:0:0:0:
120,256,72948,2,0,L|68:245,1,40.0000005960464
392,256,73139,2,0,L|443:245,1,40.0000005960464,8|0,0:0|0:0,0:0:0:0:
104,192,73329,2,0,L|59:164,1,40.0000005960464
408,192,73520,2,0,L|452:164,1,40.0000005960464,8|0,0:0|0:0,0:0:0:0:
108,124,73710,2,0,L|75:82,1,40.0000005960464
404,124,73901,2,0,L|436:82,1,40.0000005960464,8|0,0:0|0:0,0:0:0:0:
320,44,74091,5,0,0:0:0:0:
268,41,74186,1,0,0:0:0:0:
225,68,74281,1,8,0:0:0:0:
205,115,74376,1,0,0:0:0:0:
196,164,74472,5,0,0:0:0:0:
175,211,74567,1,0,0:0:0:0:
132,238,74662,1,8,0:0:0:0:
81,235,74757,1,0,0:0:0:0:
36,216,74853,101,0,0:0:0:0:
56,168,74948,1,0,0:0:0:0:
99,141,75043,1,8,0:0:0:0:
150,144,75138,1,0,0:0:0:0:
200,168,75234,5,0,0:0:0:0:
251,171,75329,1,0,0:0:0:0:
296,148,75424,1,8,0:0:0:0:
336,112,75519,1,0,0:0:0:0:
360,80,75615,86,0,P|356:56|348:40,1,40.0000005960464,6|0,0:0|0:0,0:0:0:0:
296,72,75805,2,0,P|284:50|271:38,1,40.0000005960464,8|0,0:0|0:0,0:0:0:0:
236,88,75996,2,0,P|217:72|201:65,1,40.0000005960464
184,124,76186,2,0,P|161:115|143:114,1,40.0000005960464,8|0,0:0|0:0,0:0:0:0:
196,224,76377,6,0,P|200:248|208:264,1,40.0000005960464
260,232,76567,2,0,P|271:253|284:265,1,40.0000005960464,10|0,0:3|0:0,0:0:0:0:
320,216,76758,2,0,P|338:231|354:238,1,40.0000005960464
372,180,76948,2,0,P|394:188|412:189,1,40.0000005960464,10|0,0:3|0:0,0:0:0:0:
432,72,77138,6,0,L|440:28,1,40.0000005960464
320,60,77329,2,0,L|313:15,1,40.0000005960464,10|0,0:3|0:0,0:0:0:0:
210,87,77519,2,0,L|188:47,1,40.0000005960464
115,149,77710,2,0,L|81:119,1,40.0000005960464,10|0,0:3|0:0,0:0:0:0:
80,312,77900,6,0,L|72:356,1,40.0000005960464
192,324,78091,2,0,L|198:368,1,40.0000005960464,10|0,0:3|0:0,0:0:0:0:
302,297,78281,2,0,L|323:336,1,40.0000005960464
397,235,78472,2,0,L|430:264,1,40.0000005960464,10|0,0:3|0:0,0:0:0:0:
428,140,78662,69,2,0:0:0:0:
368,145,78757,1,0,0:0:0:0:
312,125,78852,1,8,0:0:0:0:
270,83,78947,1,0,0:0:0:0:
249,27,79043,1,0,0:0:0:0:
299,59,79138,1,0,0:0:0:0:
332,109,79233,1,8,0:0:0:0:
341,168,79328,1,0,0:0:0:0:
324,225,79424,5,0,0:0:0:0:
316,166,79519,1,0,0:0:0:0:
336,110,79615,1,10,0:3:0:0:
381,71,79709,1,0,0:0:0:0:
438,58,79805,2,0,L|392:64,1,40.0000005960464
280,84,79996,2,0,L|233:89,1,40.0000005960464,10|0,0:3|0:0,0:0:0:0:
124,112,80186,101,2,0:0:0:0:
144,168,80281,1,0,0:0:0:0:
184,212,80376,1,8,0:0:0:0:
238,237,80471,1,0,0:0:0:0:
297,240,80566,1,0,0:0:0:0:
260,194,80662,1,0,0:0:0:0:
205,172,80757,1,8,0:0:0:0:
146,181,80852,1,0,0:0:0:0:
100,217,80948,5,0,0:0:0:0:
159,217,81043,1,0,0:0:0:0:
214,193,81138,1,10,0:3:0:0:
253,149,81233,1,0,0:0:0:0:
271,92,81329,2,0,L|280:136,1,40.0000005960464
304,248,81519,2,0,L|312:291,1,40.0000005960464,10|0,0:3|0:0,0:0:0:0:
288,168,81710,101,2,0:0:0:0:
233,144,81805,1,0,0:0:0:0:
173,147,81900,1,8,0:0:0:0:
122,176,81995,1,0,0:0:0:0:
88,228,82091,2,0,L|132:240,1,40.0000005960464
244,268,82281,2,0,L|288:280,1,40.0000005960464,8|0,0:0|0:0,0:0:0:0:
400,308,82472,5,0,0:0:0:0:
439,263,82567,1,0,0:0:0:0:
456,206,82662,1,10,0:3:0:0:
445,148,82757,1,0,0:0:0:0:
408,100,82853,2,0,L|382:137,1,40.0000005960464
319,233,83043,2,0,L|293:270,1,40.0000005960464,10|0,0:3|0:0,0:0:0:0:
224,364,83234,102,0,L|192:340,1,40.0000005960464
288,20,83424,2,0,L|320:44,1,40.0000005960464,10|0,0:3|0:0,0:0:0:0:
200,339,83615,2,0,L|173:310,1,40.0000005960464
311,44,83805,2,0,L|338:73,1,40.0000005960464,10|0,0:3|0:0,0:0:0:0:
183,314,83996,2,0,L|162:281,1,40.0000005960464
328,69,84186,2,0,L|349:103,1,40.0000005960464,10|0,0:3|0:0,0:0:0:0:
173,288,84377,2,0,L|157:252,1,40.0000005960464
338,95,84567,2,0,L|355:134,1,40.0000005960464,10|0,0:3|0:0,0:0:0:0:
288,232,84758,86,0,L|272:195,1,40.0000005960464,4|8,0:1|0:0,0:0:0:0:
164,144,85138,1,0,0:0:0:0:
276,100,85329,1,8,0:0:0:0:
212,200,85519,1,0,0:0:0:0:
144,100,85710,5,8,0:0:0:0:
140,80,85805,1,0,0:0:0:0:
141,60,85900,1,0,0:0:0:0:
298,196,86091,1,8,0:0:0:0:
312,209,86186,1,0,0:0:0:0:
324,225,86281,1,0,0:0:0:0:
116,208,86472,1,8,0:0:0:0:
98,206,86567,1,0,0:0:0:0:
79,199,86662,1,0,0:0:0:0:
256,92,86853,1,8,0:0:0:0:
273,82,86948,1,0,0:0:0:0:
292,76,87043,1,0,0:0:0:0:
212,268,87234,1,8,0:0:0:0:
204,285,87329,1,0,0:0:0:0:
192,301,87424,1,0,0:0:0:0:
196,180,87615,101,8,0:0:0:0:
312,208,87805,6,0,L|368:204,1,40.0000005960464,0|8,0:0|0:0,0:0:0:0:
444,128,88186,1,0,0:0:0:0:
324,120,88377,1,8,0:0:0:0:
384,224,88567,2,0,P|388:248|388:276,1,40.0000005960464,0|8,0:0|0:0,0:0:0:0:
280,316,88948,1,0,0:0:0:0:
396,348,89138,1,8,0:0:0:0:
220,240,89281,1,0,0:0:0:0:
208,234,89356,1,0,0:0:0:0:
197,229,89431,1,0,0:0:0:0:
185,224,89506,1,0,0:0:0:0:
174,219,89581,1,0,0:0:0:0:
163,214,89656,1,0,0:0:0:0:
151,209,89731,1,0,0:0:0:0:
140,203,89806,1,0,0:0:0:0:
128,198,89881,1,0,0:0:0:0:
117,193,89956,1,0,0:0:0:0:
106,188,90031,1,0,0:0:0:0:
28,164,90091,54,0,L|76:172,1,40.0000005960464,0|8,0:0|0:0,0:0:0:0:
128,180,90377,2,0,L|176:188,1,40.0000005960464
228,196,90662,1,8,0:0:0:0:
244,316,90853,6,0,L|228:280,1,40.0000005960464,0|8,0:0|0:0,0:0:0:0:
204,224,91138,2,0,L|188:188,1,40.0000005960464
164,132,91424,1,8,0:0:0:0:
276,176,91615,102,0,L|309:155,1,40.0000005960464,0|8,0:0|0:0,0:0:0:0:
361,123,91900,2,0,L|394:102,1,40.0000005960464
447,71,92186,1,8,0:0:0:0:
352,148,92377,6,0,L|314:136,1,40.0000005960464,0|8,0:0|0:0,0:0:0:0:
256,118,92662,2,0,L|218:106,1,40.0000005960464
160,87,92948,1,8,0:0:0:0:
268,40,93138,102,0,L|265:79,1,40.0000005960464,0|8,0:0|0:0,0:0:0:0:
262,140,93423,2,0,L|259:179,1,40.0000005960464
255,241,93709,1,8,0:0:0:0:
112,260,93900,1,0,0:0:0:0:
110,208,93995,1,0,0:0:0:0:
141,166,94090,1,0,0:0:0:0:
191,152,94185,1,0,0:0:0:0:
240,144,94281,5,0,0:0:0:0:
241,92,94376,1,0,0:0:0:0:
210,50,94471,1,0,0:0:0:0:
160,36,94566,1,0,0:0:0:0:
132,64,94662,5,0,0:0:0:0:
97,102,94757,1,0,0:0:0:0:
94,155,94852,1,0,0:0:0:0:
123,198,94947,1,0,0:0:0:0:
140,240,95043,5,0,0:0:0:0:
129,290,95138,1,0,0:0:0:0:
154,337,95233,1,0,0:0:0:0:
201,359,95328,1,0,0:0:0:0:
224,252,95567,37,0,0:0:0:0:
424,224,95805,1,0,0:0:0:0:
184,200,96091,1,0,0:0:0:0:
408,284,96377,1,0,0:0:0:0:
268,204,96567,1,0,0:0:0:0:
368,328,96758,1,0,0:0:0:0:
260,290,96948,6,0,P|238:281|211:259,1,40.0000005960464,6|8,0:0|0:0,0:0:0:0:
166,147,97329,1,0,0:0:0:0:
291,187,97519,1,8,0:0:0:0:
291,187,97615,1,0,0:0:0:0:
291,187,97710,1,0,0:0:0:0:
162,227,97900,1,8,0:0:0:0:
256,129,98091,2,0,P|260:102|256:75,1,40.0000005960464,0|8,0:0|0:0,0:0:0:0:
130,44,98472,101,0,0:0:0:0:
260,8,98662,1,8,0:0:0:0:
260,8,98758,1,0,0:0:0:0:
260,8,98853,1,0,0:0:0:0:
171,111,99043,1,8,0:0:0:0:
300,142,99234,2,0,P|336:142|358:138,1,40.0000005960464,0|8,0:0|0:0,0:0:0:0:
425,31,99615,2,0,P|390:31|367:35,1,40.0000005960464,0|8,0:0|0:0,0:0:0:0:
251,66,99996,5,0,0:0:0:0:
282,196,100186,1,8,0:0:0:0:
336,75,100377,1,0,0:0:0:0:
220,138,100567,1,8,0:0:0:0:
260,268,100758,2,0,L|305:290,1,40.0000005960464,0|8,0:0|0:0,0:0:0:0:
421,232,101138,2,0,L|381:212,1,40.0000005960464,0|8,0:0|0:0,0:0:0:0:
247,209,101519,101,0,0:0:0:0:
175,98,101710,1,8,0:0:0:0:
153,227,101900,1,0,0:0:0:0:
238,124,102091,1,8,0:0:0:0:
112,174,102281,1,0,0:0:0:0:
90,170,102376,1,0,0:0:0:0:
70,161,102471,1,8,0:0:0:0:
53,147,102566,1,0,0:0:0:0:
41,128,102661,1,0,0:0:0:0:
35,107,102757,1,0,0:0:0:0:
35,84,102852,1,8,0:0:0:0:
42,63,102947,1,0,0:0:0:0:
55,45,103043,6,0,L|112:44,1,40.0000005960464,0|8,0:0|0:0,0:0:0:0:
224,102,103424,1,0,0:0:0:0:
108,169,103615,1,8,0:0:0:0:
108,169,103710,1,0,0:0:0:0:
108,169,103805,1,0,0:0:0:0:
238,196,103996,1,8,0:0:0:0:
139,107,104186,2,0,L|108:62,1,40.0000005960464,0|8,0:0|0:0,0:0:0:0:
247,44,104567,101,0,0:0:0:0:
188,165,104758,1,8,0:0:0:0:
59,124,104948,1,0,0:0:0:0:
188,89,105138,1,8,0:0:0:0:
126,209,105329,2,0,P|121:181|121:160,1,40.0000005960464,0|8,0:0|0:0,0:0:0:0:
245,80,105710,2,0,P|250:102|251:124,1,40.0000005960464,0|8,0:0|0:0,0:0:0:0:
175,236,106091,5,0,0:0:0:0:
41,254,106281,1,8,0:0:0:0:
144,169,106472,1,0,0:0:0:0:
251,250,106662,1,8,0:0:0:0:
175,361,106853,1,0,0:0:0:0:
188,227,107043,1,8,0:0:0:0:
314,281,107234,1,0,0:0:0:0:
179,294,107424,1,8,0:0:0:0:
282,209,107615,102,0,P|291:200|327:192,1,40.0000005960464,0|8,0:0|0:0,0:0:0:0:
354,321,107996,2,0,P|336:335|315:339,1,40.0000005960464,0|8,0:0|0:0,0:0:0:0:
206,263,108377,1,0,0:0:0:0:
195,243,108472,1,0,0:0:0:0:
190,222,108567,1,8,0:0:0:0:
191,199,108662,1,0,0:0:0:0:
197,178,108757,1,0,0:0:0:0:
210,159,108853,1,0,0:0:0:0:
226,146,108948,1,8,0:0:0:0:
248,136,109043,1,0,0:0:0:0:
269,133,109138,6,0,L|300:169,1,40.0000005960464,0|8,0:0|0:0,0:0:0:0:
323,299,109519,1,0,0:0:0:0:
197,344,109710,2,0,L|206:299,1,40.0000005960464,8|0,0:0|0:0,0:0:0:0:
157,174,110091,1,8,0:0:0:0:
32,223,110281,1,0,0:0:0:0:
162,259,110472,1,8,0:0:0:0:
77,156,110662,101,0,0:0:0:0:
68,290,110853,1,8,0:0:0:0:
68,290,110948,1,0,0:0:0:0:
68,290,111043,1,0,0:0:0:0:
162,192,111234,1,8,0:0:0:0:
95,75,111424,1,0,0:0:0:0:
54,205,111615,2,0,P|68:196|95:174,1,40.0000005960464,8|0,0:0|0:0,0:0:0:0:
166,66,111996,5,8,0:0:0:0:
177,85,112091,1,0,0:0:0:0:
188,104,112186,2,0,P|202:138|197:160,1,40.0000005960464,0|8,0:0|0:0,0:0:0:0:
108,245,112567,1,0,0:0:0:0:
220,321,112758,2,0,L|211:268,1,40.0000005960464,8|0,0:0|0:0,0:0:0:0:
340,236,113138,2,0,L|318:192,1,40.0000005960464,8|0,0:0|0:0,0:0:0:0:
215,115,113519,1,8,0:0:0:0:
81,107,113710,2,0,P|56:107|32:111,1,40.0000005960464,0|8,0:0|0:0,0:0:0:0:
103,227,114091,2,0,P|116:247|131:268,1,40.0000005960464,0|8,0:0|0:0,0:0:0:0:
197,151,114472,1,0,0:0:0:0:
219,153,114567,1,0,0:0:0:0:
241,150,114662,1,8,0:0:0:0:
260,140,114757,1,0,0:0:0:0:
276,124,114852,1,0,0:0:0:0:
286,104,114948,1,0,0:0:0:0:
289,82,115043,1,8,0:0:0:0:
285,60,115138,1,0,0:0:0:0:
273,41,115233,101,0,0:0:0:0:
148,93,115424,1,8,0:0:0:0:
273,142,115615,1,0,0:0:0:0:
202,31,115805,1,8,0:0:0:0:
166,160,115996,1,0,0:0:0:0:
287,214,116186,1,8,0:0:0:0:
215,102,116377,1,0,0:0:0:0:
86,133,116567,1,8,0:0:0:0:
211,183,116758,5,0,0:0:0:0:
300,84,116948,1,8,0:0:0:0:
300,84,117043,1,0,0:0:0:0:
300,84,117138,1,0,0:0:0:0:
171,111,117329,1,8,0:0:0:0:
291,169,117519,2,0,L|314:223,1,40.0000005960464,0|8,0:0|0:0,0:0:0:0:
197,285,117900,2,0,L|175:335,1,40.0000005960464,0|8,0:0|0:0,0:0:0:0:
50,290,118281,102,0,L|50:241,1,40.0000005960464,0|8,0:0|0:0,0:0:0:0:
166,178,118662,2,0,L|166:133,1,40.0000005960464,0|8,0:0|0:0,0:0:0:0:
135,308,119043,2,0,L|135:259,1,40.0000005960464,0|8,0:0|0:0,0:0:0:0:
50,160,119424,2,0,L|50:115,1,40.0000005960464,0|8,0:0|0:0,0:0:0:0:
166,44,119805,5,0,0:0:0:0:
186,34,119900,1,0,0:0:0:0:
207,29,119995,1,8,0:0:0:0:
230,31,120090,1,0,0:0:0:0:
251,37,120185,1,0,0:0:0:0:
270,50,120281,1,0,0:0:0:0:
285,65,120376,1,8,0:0:0:0:
296,85,120471,1,0,0:0:0:0:
300,107,120567,37,0,0:0:0:0:
286,102,120630,1,0,0:0:0:0:
270,101,120693,1,0,0:0:0:0:
257,105,120757,1,8,0:0:0:0:
243,113,120820,1,0,0:0:0:0:
233,123,120884,1,0,0:0:0:0:
226,137,120947,1,0,0:0:0:0:
223,151,121011,1,0,0:0:0:0:
224,166,121074,1,0,0:0:0:0:
229,180,121138,1,8,0:0:0:0:
238,192,121201,1,0,0:0:0:0:
250,202,121265,1,0,0:0:0:0:
264,209,121329,22,0,L|314:223,1,40.0000005960464,4|0,0:0|0:0,0:0:0:0:
484,60,122852,2,0,L|445:49,1,40.0000005960464,0|2,0:0|0:0,0:0:0:0:
212,100,124376,2,0,L|250:110,1,40.0000005960464
392,304,125900,2,0,L|353:293,1,40.0000005960464
248,236,127043,1,2,0:0:0:0:
316,136,127424,6,0,L|354:146,1,40.0000005960464,4|0,0:0|0:0,0:0:0:0:
196,328,128948,2,0,L|157:317,1,40.0000005960464,0|2,0:0|0:0,0:0:0:0:
92,88,130471,2,0,L|130:98,1,40.0000005960464
364,48,131995,2,0,L|325:37,1,40.0000005960464
204,48,133138,1,0,0:0:0:0:
252,160,133519,6,0,P|272:168|292:168,1,40.0000005960464,4|8,0:0|0:0,0:0:0:0:
423,108,133899,1,0,0:0:0:0:
359,216,134090,1,8,0:0:0:0:
359,216,134185,1,0,0:0:0:0:
359,216,134280,1,0,0:0:0:0:
319,99,134471,1,8,0:0:0:0:
428,180,134661,2,0,P|433:212|433:232,1,40.0000005960464,0|8,0:0|0:0,0:0:0:0:
344,316,135042,5,0,0:0:0:0:
305,200,135233,1,8,0:0:0:0:
260,312,135423,1,0,0:0:0:0:
383,244,135614,101,8,0:0:0:0:
401,230,135709,1,0,0:0:0:0:
414,213,135804,1,0,0:0:0:0:
420,194,135899,1,0,0:0:0:0:
420,174,135994,1,8,0:0:0:0:
413,155,136090,1,0,0:0:0:0:
401,138,136185,1,0,0:0:0:0:
256,116,136376,1,8,0:0:0:0:
339,216,136566,5,0,0:0:0:0:
339,95,136757,1,8,0:0:0:0:
246,188,136947,1,0,0:0:0:0:
388,160,137138,1,8,0:0:0:0:
388,160,137233,1,0,0:0:0:0:
388,160,137328,1,0,0:0:0:0:
403,39,137519,1,8,0:0:0:0:
477,144,137709,2,0,P|482:172|482:188,1,40.0000005960464,0|8,0:0|0:0,0:0:0:0:
408,288,138090,102,0,P|408:264|403:247,1,40.0000005960464,0|8,0:0|0:0,0:0:0:0:
285,132,138471,2,0,P|284:152|290:172,1,40.0000005960464,0|8,0:0|0:0,0:0:0:0:
433,208,138852,1,0,0:0:0:0:
444,190,138947,1,0,0:0:0:0:
451,171,139042,1,8,0:0:0:0:
451,151,139137,1,0,0:0:0:0:
446,131,139232,1,0,0:0:0:0:
435,113,139328,1,0,0:0:0:0:
420,97,139423,1,8,0:0:0:0:
401,86,139518,1,0,0:0:0:0:
377,77,139614,6,0,L|329:80,1,40.0000005960464,0|8,0:0|0:0,0:0:0:0:
196,132,139995,1,0,0:0:0:0:
329,184,140185,1,8,0:0:0:0:
329,184,140280,1,0,0:0:0:0:
329,184,140376,1,0,0:0:0:0:
275,72,140566,1,8,0:0:0:0:
251,192,140757,2,0,P|246:212|246:232,1,40.0000005960464,0|8,0:0|0:0,0:0:0:0:
334,328,141138,102,0,L|324:284,1,40.0000005960464,0|8,0:0|0:0,0:0:0:0:
182,272,141518,2,0,L|192:228,1,40.0000005960464,0|8,0:0|0:0,0:0:0:0:
334,204,141899,2,0,L|324:160,1,40.0000005960464,0|8,0:0|0:0,0:0:0:0:
182,148,142279,2,0,L|192:104,1,40.0000005960464,0|8,0:0|0:0,0:0:0:0:
310,35,142661,5,0,0:0:0:0:
305,54,142756,1,0,0:0:0:0:
300,74,142851,1,8,0:0:0:0:
157,92,143041,1,0,0:0:0:0:
161,110,143136,1,0,0:0:0:0:
166,131,143231,1,8,0:0:0:0:
310,160,143422,1,0,0:0:0:0:
305,179,143517,1,0,0:0:0:0:
300,199,143612,1,8,0:0:0:0:
157,216,143802,1,0,0:0:0:0:
161,235,143897,1,0,0:0:0:0:
166,255,143992,1,8,0:0:0:0:
276,296,144185,101,0,0:0:0:0:
282,276,144280,1,0,0:0:0:0:
289,257,144375,1,8,0:0:0:0:
296,236,144470,1,0,0:0:0:0:
304,216,144566,5,0,0:0:0:0:
312,196,144661,1,0,0:0:0:0:
318,181,144756,1,8,0:0:0:0:
324,160,144851,1,0,0:0:0:0:
352,168,144947,101,0,0:0:0:0:
347,197,145042,1,0,0:0:0:0:
329,212,145137,1,8,0:0:0:0:
310,223,145232,1,0,0:0:0:0:
286,229,145327,1,0,0:0:0:0:
262,231,145423,1,0,0:0:0:0:
237,228,145518,1,8,0:0:0:0:
215,220,145613,1,0,0:0:0:0:
195,208,145709,6,0,L|196:160,1,40.0000005960464,0|8,0:0|0:0,0:0:0:0:
201,48,146090,1,0,0:0:0:0:
295,140,146280,1,8,0:0:0:0:
295,140,146376,1,0,0:0:0:0:
295,140,146471,1,0,0:0:0:0:
157,95,146661,1,8,0:0:0:0:
305,75,146852,2,0,P|349:80|369:87,1,40.0000005960464,0|8,0:0|0:0,0:0:0:0:
467,156,147233,101,0,0:0:0:0:
374,247,147423,1,8,0:0:0:0:
226,232,147614,1,0,0:0:0:0:
359,180,147804,1,8,0:0:0:0:
359,180,147899,1,0,0:0:0:0:
359,180,147995,1,0,0:0:0:0:
305,292,148185,1,8,0:0:0:0:
260,176,148376,2,0,P|246:144|251:128,1,40.0000005960464,0|8,0:0|0:0,0:0:0:0:
334,39,148757,5,0,0:0:0:0:
359,160,148947,1,8,0:0:0:0:
211,160,149138,1,0,0:0:0:0:
339,104,149328,1,8,0:0:0:0:
290,216,149518,1,0,0:0:0:0:
147,188,149709,1,8,0:0:0:0:
285,148,149899,1,0,0:0:0:0:
374,244,150090,1,8,0:0:0:0:
251,308,150280,101,0,0:0:0:0:
319,200,150471,1,8,0:0:0:0:
374,312,150661,1,0,0:0:0:0:
251,244,150852,1,8,0:0:0:0:
398,244,151042,1,0,0:0:0:0:
422,238,151137,1,0,0:0:0:0:
442,227,151232,1,8,0:0:0:0:
458,213,151327,1,0,0:0:0:0:
470,195,151422,1,0,0:0:0:0:
476,176,151518,1,0,0:0:0:0:
474,156,151613,1,8,0:0:0:0:
466,137,151708,1,0,0:0:0:0:
452,120,151804,6,0,L|398:99,1,40.0000005960464,0|8,0:0|0:0,0:0:0:0:
260,120,152185,1,0,0:0:0:0:
354,212,152376,1,8,0:0:0:0:
354,212,152471,1,0,0:0:0:0:
354,212,152566,1,0,0:0:0:0:
344,92,152757,1,8,0:0:0:0:
260,192,152947,2,0,P|216:204|201:204,1,40.0000005960464,0|8,0:0|0:0,0:0:0:0:
69,192,153328,101,0,0:0:0:0:
201,140,153518,1,8,0:0:0:0:
118,240,153709,1,0,0:0:0:0:
118,120,153899,1,8,0:0:0:0:
192,223,154090,1,0,0:0:0:0:
211,235,154185,1,0,0:0:0:0:
235,240,154280,1,8,0:0:0:0:
259,238,154375,1,0,0:0:0:0:
281,231,154470,1,0,0:0:0:0:
300,217,154566,1,0,0:0:0:0:
311,200,154661,1,8,0:0:0:0:
315,180,154756,1,0,0:0:0:0:
301,160,154852,22,0,L|280:120,1,40.0000005960464,4|0,0:0|0:0,0:0:0:0:
210,223,155042,2,0,L|229:258,1,40.0000005960464,8|0,0:0|0:0,0:0:0:0:
311,166,155233,2,0,L|295:118,1,40.0000005960464
200,217,155423,2,0,L|214:258,1,40.0000005960464,8|0,0:0|0:0,0:0:0:0:
320,175,155614,6,0,L|313:120,1,40.0000005960464
191,208,155804,2,0,L|197:256,1,40.0000005960464,8|0,0:0|0:0,0:0:0:0:
328,186,155995,2,0,L|331:124,1,40.0000005960464
183,197,156185,2,0,L|180:250,1,40.0000005960464,8|0,0:0|0:0,0:0:0:0:
336,199,156376,102,0,L|350:133,1,40.0000005960464
175,184,156566,2,0,L|163:241,1,40.0000005960464,8|0,0:0|0:0,0:0:0:0:
341,215,156757,2,0,L|369:147,1,40.0000005960464
170,168,156947,2,0,L|146:227,1,40.0000005960464,8|0,0:0|0:0,0:0:0:0:
343,233,157138,6,0,L|365:199,1,40.0000005960464
168,150,157328,2,0,L|145:185,1,40.0000005960464,8|0,0:0|0:0,0:0:0:0:
343,254,157518,2,0,L|373:221,1,40.0000005960464
168,129,157708,2,0,L|137:163,1,40.0000005960464,8|0,0:0|0:0,0:0:0:0:
338,276,157899,6,0,L|377:245,1,40.0000005960464
173,107,158089,2,0,L|133:138,1,40.0000005960464,8|0,0:0|0:0,0:0:0:0:
329,298,158280,2,0,L|377:273,1,40.0000005960464
182,85,158470,2,0,L|133:110,1,40.0000005960464,8|0,0:0|0:0,0:0:0:0:
315,321,158661,6,0,L|372:303,1,40.0000005960464
196,62,158851,2,0,L|138:80,1,40.0000005960464,8|0,0:0|0:0,0:0:0:0:
295,343,159042,2,0,L|360:335,1,40.0000005960464
216,40,159232,2,0,L|150:48,1,40.0000005960464,8|0,0:0|0:0,0:0:0:0:
269,363,159423,102,0,L|341:367,1,40.0000005960464
242,20,159613,2,0,L|168:16,1,40.0000005960464,8|0,0:0|0:0,0:0:0:0:
238,374,159804,2,0,L|313:391,1,40.0000005960464
273,9,159994,2,0,L|197:-7,1,40.0000005960464,8|0,0:0|0:0,0:0:0:0:
328,68,160185,1,0,0:0:0:0:
356,96,160280,1,0,0:0:0:0:
367,133,160375,1,8,0:0:0:0:
356,171,160470,1,0,0:0:0:0:
332,203,160565,1,0,0:0:0:0:
303,230,160661,1,0,0:0:0:0:
271,254,160756,1,8,0:0:0:0:
257,283,160851,1,0,0:0:0:0:
284,308,160947,102,0,P|324:320|368:312,1,80.0000011920928,6|8,0:0|0:0,0:0:0:0:
452,216,161233,1,0,0:0:0:0:
324,148,161328,2,0,L|320:200,1,40.0000005960464
396,312,161518,2,0,L|404:272,1,40.0000005960464,8|0,0:0|0:0,0:0:0:0:
328,160,161709,1,0,0:0:0:0:
264,296,161804,1,0,0:0:0:0:
180,172,161899,2,8,L|192:120,1,40.0000005960464
116,244,162090,2,0,L|148:312,1,40.0000005960464
272,280,162280,1,8,0:0:0:0:
224,140,162376,1,0,0:0:0:0:
248,120,162471,1,0,0:0:0:0:
270,106,162566,1,0,0:0:0:0:
296,100,162661,1,8,0:0:0:0:
323,103,162756,1,0,0:0:0:0:
347,115,162851,5,0,0:0:0:0:
366,134,162947,1,0,0:0:0:0:
377,158,163042,1,8,0:0:0:0:
380,184,163137,1,0,0:0:0:0:
376,228,163233,1,0,0:0:0:0:
346,273,163328,1,0,0:0:0:0:
300,301,163423,1,8,0:0:0:0:
245,307,163518,1,0,0:0:0:0:
191,300,163613,1,0,0:0:0:0:
139,283,163709,5,0,0:0:0:0:
93,254,163804,1,8,0:0:0:0:
63,209,163899,1,0,0:0:0:0:
185,158,163995,102,0,P|176:156|136:160,1,40.0000005960464
148,272,164185,102,8,P|167:274|187:271,1,40.0000005960464
260,256,164376,1,0,0:0:0:0:
295,263,164471,1,0,0:0:0:0:
311,295,164566,1,8,0:0:0:0:
298,328,164661,1,0,0:0:0:0:
263,339,164757,1,0,0:0:0:0:
208,352,164852,1,0,0:0:0:0:
157,345,164947,6,0,P|136:332|116:316,1,40.0000005960464,8|0,0:0|0:0,0:0:0:0:
198,185,165138,2,0,P|199:205|196:224,1,40.0000005960464
39,229,165328,2,0,P|60:217|84:208,1,40.0000005960464,8|0,0:0|0:0,0:0:0:0:
188,248,165518,102,0,P|200:261|212:280,1,40.0000005960464
116,352,165709,2,0,P|126:335|140:321,1,40.0000005960464,8|0,0:0|0:0,0:0:0:0:
256,300,165899,2,0,P|233:307|212:308,1,40.0000005960464
58,299,166090,2,0,P|77:306|96:308,1,40.0000005960464,8|0,0:0|0:0,0:0:0:0:
216,232,166280,5,0,0:0:0:0:
216,232,166376,1,0,0:0:0:0:
220,236,166471,1,8,0:0:0:0:
72,208,166566,2,0,L|104:280,1,40.0000005960464
216,232,166757,5,0,0:0:0:0:
216,232,166853,1,8,0:0:0:0:
220,236,166948,1,0,0:0:0:0:
84,252,167042,102,0,P|88:292|116:336,1,80.0000011920928,2|0,0:0|0:0,0:0:0:0:
236,368,167328,1,0,0:0:0:0:
308,252,167423,2,0,P|302:224|296:208,1,40.0000005960464
152,272,167614,2,0,P|146:292|143:311,1,40.0000005960464,8|0,0:0|0:0,0:0:0:0:
280,324,167804,2,0,P|259:304|248:300,1,40.0000005960464
112,312,167995,2,0,P|126:327|143:335,1,40.0000005960464,8|0,0:0|0:0,0:0:0:0:
236,236,168185,1,0,0:0:0:0:
236,236,168280,1,0,0:0:0:0:
236,236,168376,1,8,0:0:0:0:
92,252,168471,1,0,0:0:0:0:
92,252,168566,6,0,P|52:260|28:292,1,80.0000011920928,0|8,0:0|0:0,0:0:0:0:
152,352,168852,1,0,0:0:0:0:
204,224,168947,2,0,P|208:196|208:172,1,40.0000005960464
112,136,169138,2,0,P|114:156|117:176,1,40.0000005960464,8|0,0:0|0:0,0:0:0:0:
208,244,169328,1,0,0:0:0:0:
208,244,169423,1,0,0:0:0:0:
208,244,169518,1,8,0:0:0:0:
208,244,169614,1,0,0:0:0:0:
224,128,169709,2,0,P|216:144|212:168,1,40.0000005960464
249,274,169899,2,0,P|257:256|260:236,1,40.0000005960464,8|0,0:0|0:0,0:0:0:0:
176,112,170090,5,0,0:0:0:0:
145,137,170185,1,0,0:0:0:0:
122,170,170280,1,8,0:0:0:0:
110,207,170375,1,0,0:0:0:0:
109,247,170470,1,0,0:0:0:0:
119,286,170566,1,0,0:0:0:0:
149,295,170661,2,0,L|196:296,1,40.0000005960464,8|0,0:0|0:0,0:0:0:0:
308,300,170852,6,0,P|304:268|296:248,1,40.0000005960464
194,157,171042,2,0,P|195:177|200:196,1,40.0000005960464,8|0,0:0|0:0,0:0:0:0:
324,212,171233,2,0,P|301:206|272:208,1,40.0000005960464
172,256,171423,2,0,P|195:259|216:256,1,40.0000005960464,8|0,0:0|0:0,0:0:0:0:
256,136,171614,1,0,0:0:0:0:
256,136,171709,1,0,0:0:0:0:
256,136,171804,1,8,0:0:0:0:
313,252,171899,5,0,0:0:0:0:
313,252,171995,1,0,0:0:0:0:
313,252,172090,1,0,0:0:0:0:
313,252,172185,2,0,P|309:232|308:212,1,40.0000005960464,8|0,0:0|0:0,0:0:0:0:
300,164,172376,5,0,0:0:0:0:
310,128,172471,1,0,0:0:0:0:
350,138,172566,1,8,0:0:0:0:
381,165,172661,1,0,0:0:0:0:
402,201,172756,1,0,0:0:0:0:
409,243,172852,1,0,0:0:0:0:
395,282,172947,1,8,0:0:0:0:
363,309,173042,1,0,0:0:0:0:
325,325,173137,1,0,0:0:0:0:
283,332,173233,1,0,0:0:0:0:
242,332,173328,5,8,0:0:0:0:
200,325,173423,1,0,0:0:0:0:
162,308,173518,1,0,0:0:0:0:
126,286,173614,1,0,0:0:0:0:
96,257,173709,1,8,0:0:0:0:
74,222,173804,1,0,0:0:0:0:
69,180,173899,1,0,0:0:0:0:
93,147,173995,1,0,0:0:0:0:
133,135,174090,1,8,0:0:0:0:
175,136,174185,1,0,0:0:0:0:
216,144,174280,5,0,0:0:0:0:
255,159,174376,1,0,0:0:0:0:
289,183,174471,1,8,0:0:0:0:
312,218,174566,1,0,0:0:0:0:
311,259,174661,1,0,0:0:0:0:
281,277,174756,1,0,0:0:0:0:
279,236,174852,1,8,0:0:0:0:
283,194,174947,1,0,0:0:0:0:
283,152,175042,1,0,0:0:0:0:
278,111,175137,1,0,0:0:0:0:
284,70,175233,5,8,0:0:0:0:
319,50,175328,1,0,0:0:0:0:
323,52,175423,1,0,0:0:0:0:
281,49,175518,1,0,0:0:0:0:
239,44,175614,1,8,0:0:0:0:
198,37,175709,1,0,0:0:0:0:
156,31,175804,1,0,0:0:0:0:
160,84,175899,1,0,0:0:0:0:
192,112,175995,1,8,0:0:0:0:
240,84,176090,1,0,0:0:0:0:
288,56,176185,6,0,P|292:84|284:108,1,40.0000005960464
204,184,176376,2,0,P|212:172|228:152,1,40.0000005960464,8|0,0:0|0:0,0:0:0:0:
348,132,176566,2,0,P|360:147|371:163,1,40.0000005960464
284,248,176757,1,8,0:0:0:0:
280,128,176852,1,0,0:0:0:0:
360,216,176947,2,0,P|353:217|312:212,1,40.0000005960464
208,176,177138,1,8,0:0:0:0:
224,56,177233,1,0,0:0:0:0:
324,124,177328,2,0,P|325:151|336:168,1,40.0000005960464
432,100,177518,2,0,P|430:72|420:56,1,40.0000005960464,8|0,0:0|0:0,0:0:0:0:
308,28,177709,102,0,P|270:32|256:36,1,40.0000005960464
148,44,177899,2,0,P|185:48|200:52,1,40.0000005960464,8|0,0:0|0:0,0:0:0:0:
300,96,178090,2,0,P|262:100|248:104,1,40.0000005960464
144,124,178280,2,0,P|181:128|196:132,1,40.0000005960464,8|0,0:0|0:0,0:0:0:0:
304,148,178471,2,0,P|276:120|228:124,1,80.0000011920928,0|8,0:0|0:0,0:0:0:0:
140,192,178757,1,0,0:0:0:0:
220,100,178852,2,0,P|218:80|210:61,1,40.0000005960464
111,91,179043,2,0,P|103:109|101:129,1,40.0000005960464,8|0,0:0|0:0,0:0:0:0:
180,220,179233,6,0,P|220:200|232:168,1,80.0000011920928,2|8,0:0|0:0,0:0:0:0:
192,56,179518,2,0,P|172:52|140:52,1,40.0000005960464
108,164,179709,2,0,P|128:168|160:168,1,40.0000005960464,0|8,0:0|0:0,0:0:0:0:
204,112,179899,1,0,0:0:0:0:
104,48,179995,2,0,P|100:96|124:120,1,80.0000011920928,0|8,0:0|0:0,0:0:0:0:
236,136,180280,2,0,P|241:120|240:92,1,40.0000005960464
144,24,180471,2,0,P|139:39|140:68,1,40.0000005960464,0|8,0:0|0:0,0:0:0:0:
80,52,180757,1,8,0:0:0:0:
47,86,180852,1,0,0:0:0:0:
27,128,180947,1,0,0:0:0:0:
22,175,181042,5,0,0:0:0:0:
30,221,181137,1,8,0:0:0:0:
53,263,181233,1,0,0:0:0:0:
87,295,181328,1,0,0:0:0:0:
129,315,181423,1,0,0:0:0:0:
176,322,181518,1,8,0:0:0:0:
222,313,181614,1,0,0:0:0:0:
263,291,181709,1,0,0:0:0:0:
296,257,181804,1,0,0:0:0:0:
317,215,181899,1,8,0:0:0:0:
323,169,181995,5,0,0:0:0:0:
332,120,182090,1,0,0:0:0:0:
330,85,182185,1,0,0:0:0:0:
310,58,182280,1,8,0:0:0:0:
278,46,182375,1,0,0:0:0:0:
244,43,182470,1,0,0:0:0:0:
210,46,182566,1,0,0:0:0:0:
176,53,182661,1,8,0:0:0:0:
144,65,182756,1,0,0:0:0:0:
115,83,182851,1,0,0:0:0:0:
91,108,182947,5,0,0:0:0:0:
75,138,183042,1,8,0:0:0:0:
72,172,183137,1,0,0:0:0:0:
82,205,183232,1,0,0:0:0:0:
103,233,183328,1,0,0:0:0:0:
131,251,183423,1,8,0:0:0:0:
165,254,183518,1,0,0:0:0:0:
153,245,183613,1,0,0:0:0:0:
139,275,183709,1,0,0:0:0:0:
162,294,183804,1,8,0:0:0:0:
188,273,183899,5,0,0:0:0:0:
207,245,183994,1,0,0:0:0:0:
227,217,184090,1,0,0:0:0:0:
254,196,184185,1,8,0:0:0:0:
287,196,184280,1,0,0:0:0:0:
311,219,184375,1,0,0:0:0:0:
321,252,184470,1,0,0:0:0:0:
317,286,184566,1,8,0:0:0:0:
291,306,184661,1,0,0:0:0:0:
266,285,184756,1,0,0:0:0:0:
259,252,184851,5,0,0:0:0:0:
267,218,184947,1,8,0:0:0:0:
287,191,185042,1,0,0:0:0:0:
317,174,185137,1,0,0:0:0:0:
351,175,185232,1,0,0:0:0:0:
379,194,185328,1,8,0:0:0:0:
397,224,185423,1,0,0:0:0:0:
414,254,185518,1,0,0:0:0:0:
260,332,185614,2,0,L|259:252,1,80.0000011920928
288,136,185899,2,0,L|288:177,1,40.0000005960464,8|0,0:0|0:0,0:0:0:0:
224,280,186090,6,0,P|172:252|168:232,1,80.0000011920928,0|8,0:0|0:0,0:0:0:0:
168,116,186376,2,0,P|205:125|223:159,1,80.0000011920928
144,248,186661,2,0,P|125:239|108:220,1,40.0000005960464,8|0,0:0|0:0,0:0:0:0:
112,112,186852,102,0,P|164:116|196:96,1,80.0000011920928,0|8,0:0|0:0,0:0:0:0:
280,24,187138,2,0,P|228:20|196:40,1,80.0000011920928
188,152,187423,2,0,P|208:160|228:164,1,40.0000005960464,8|0,0:0|0:0,0:0:0:0:
336,116,187614,6,0,P|288:116|260:148,1,80.0000011920928,0|8,0:0|0:0,0:0:0:0:
220,248,187899,2,0,P|268:248|296:216,1,80.0000011920928
316,108,188185,2,0,P|312:86|300:68,1,40.0000005960464,8|0,0:0|0:0,0:0:0:0:
188,40,188376,102,0,L|100:76,1,80.0000011920928,0|8,0:0|0:0,0:0:0:0:
108,188,188661,2,0,L|182:157,1,80.0000011920928
264,68,188947,2,0,L|226:83,1,40.0000005960464,8|0,0:0|0:0,0:0:0:0:
212,204,189138,6,0,P|228:164|228:124,1,80.0000011920928,0|8,0:0|0:0,0:0:0:0:
128,64,189423,2,0,P|112:104|112:144,1,80.0000011920928
156,252,189709,2,0,P|160:232|156:208,1,40.0000005960464,8|0,0:0|0:0,0:0:0:0:
44,180,189899,102,0,L|136:184,1,80.0000011920928,0|8,0:0|0:0,0:0:0:0:
232,128,190185,2,0,L|152:124,1,80.0000011920928
132,244,190471,2,0,L|171:245,1,40.0000005960464,8|0,0:0|0:0,0:0:0:0:
272,244,190661,1,0,0:0:0:0:
288,216,190756,1,0,0:0:0:0:
301,190,190851,1,8,0:0:0:0:
273,174,190946,1,0,0:0:0:0:
243,166,191041,1,0,0:0:0:0:
211,166,191137,1,0,0:0:0:0:
180,168,191232,1,8,0:0:0:0:
162,143,191327,1,0,0:0:0:0:
172,108,191423,86,0,L|208:68,1,40.0000005960464,4|0,0:0|0:0,0:0:0:0:
316,44,191614,2,0,L|289:73,1,40.0000005960464,8|0,0:0|0:0,0:0:0:0:
252,188,191804,2,0,P|240:140|268:76,1,120.000001788139
380,40,192185,6,0,L|376:92,1,40.0000005960464
336,196,192376,2,0,L|332:144,1,40.0000005960464,8|0,0:0|0:0,0:0:0:0:
284,48,192566,2,0,L|280:100,1,40.0000005960464
240,204,192757,2,0,L|236:152,1,40.0000005960464,8|0,0:0|0:0,0:0:0:0:
128,112,192947,2,0,L|132:164,1,40.0000005960464
172,268,193138,2,0,L|176:216,1,40.0000005960464,8|0,0:0|0:0,0:0:0:0:
260,144,193328,2,0,P|276:100|248:28,1,120.000001788139
132,16,193709,102,0,L|92:16,1,40.0000005960464
208,48,193899,2,0,L|248:48,1,40.0000005960464,8|0,0:0|0:0,0:0:0:0:
136,88,194090,2,0,L|96:88,1,40.0000005960464
212,120,194280,2,0,L|252:120,1,40.0000005960464,8|0,0:0|0:0,0:0:0:0:
136,156,194471,2,0,P|127:177|124:196,1,40.0000005960464
240,232,194661,2,0,P|235:212|228:193,1,40.0000005960464,8|0,0:0|0:0,0:0:0:0:
132,268,194852,2,0,P|184:304|248:288,1,120.000001788139
292,188,195233,6,0,L|300:140,1,40.0000005960464
296,28,195423,2,0,L|308:84,1,40.0000005960464,8|0,0:0|0:0,0:0:0:0:
360,172,195614,2,0,L|360:124,1,40.0000005960464
368,12,195804,2,0,L|372:68,1,40.0000005960464,8|0,0:0|0:0,0:0:0:0:
420,164,195995,5,0,0:0:0:0:
413,189,196058,1,0,0:0:0:0:
398,211,196121,1,0,0:0:0:0:
375,224,196185,1,8,0:0:0:0:
349,227,196248,1,0,0:0:0:0:
323,220,196312,1,0,0:0:0:0:
303,203,196375,1,0,0:0:0:0:
290,180,196439,1,0,0:0:0:0:
288,153,196502,1,0,0:0:0:0:
297,128,196566,1,8,0:0:0:0:
315,109,196629,1,0,0:0:0:0:
339,98,196693,1,0,0:0:0:0:
365,97,196757,5,0,0:0:0:0:
368,141,196820,1,0,0:0:0:0:
347,181,196883,1,0,0:0:0:0:
308,202,196947,1,8,0:0:0:0:
263,200,197010,1,0,0:0:0:0:
227,174,197074,1,0,0:0:0:0:
210,132,197137,1,0,0:0:0:0:
219,88,197201,1,0,0:0:0:0:
256,56,197265,1,0,0:0:0:0:
304,52,197328,1,8,0:0:0:0:
296,103,197391,1,0,0:0:0:0:
257,138,197454,1,0,0:0:0:0:
205,140,197518,1,0,0:0:0:0:
163,109,197578,1,4,0:0:0:0:
116,88,203673,38,0,L|124:172,1,80.0000011920928,0|8,0:0|0:0,0:0:0:0:
352,248,204435,1,0,0:0:0:0:
352,248,204530,1,0,0:0:0:0:
352,248,204625,1,0,0:0:0:0:
264,164,204816,1,8,0:0:0:0:
96,336,205197,6,0,L|88:256,1,80.0000011920928,0|8,0:0|0:0,0:0:0:0:
276,104,205958,1,0,0:0:0:0:
276,104,206054,1,0,0:0:0:0:
276,104,206149,1,0,0:0:0:0:
172,164,206339,1,8,0:0:0:0:
412,148,206720,102,0,L|419:227,1,80.0000011920928,0|8,0:0|0:0,0:0:0:0:
188,284,207482,1,0,0:0:0:0:
188,284,207577,1,0,0:0:0:0:
188,284,207673,1,0,0:0:0:0:
220,168,207863,1,8,0:0:0:0:
452,232,208244,5,0,0:0:0:0:
332,256,208435,1,0,0:0:0:0:
306,214,208530,1,0,0:0:0:0:
311,165,208625,1,8,0:0:0:0:
344,128,208720,1,0,0:0:0:0:
392,119,208815,1,0,0:0:0:0:
284,168,209006,2,0,L|271:40,1,120.000001788139,6|0,0:1|0:0,0:0:0:0:
56,156,209768,6,0,L|96:152,1,40.0000005960464
160,52,209958,2,0,P|140:92|188:152,1,120.000001788139,8|0,0:0|0:0,0:0:0:0:
296,116,210339,2,0,P|292:144|284:168,1,40.0000005960464,8|0,0:0|0:0,0:0:0:0:
244,224,210530,2,0,P|208:256|156:216,1,120.000001788139
88,120,210911,2,0,P|124:88|176:128,1,120.000001788139
132,236,211292,6,0,P|88:256|52:228,1,80.0000011920928,0|8,0:0|0:0,0:0:0:0:
128,144,211577,2,0,P|172:124|208:152,1,80.0000011920928
192,256,211863,2,0,P|176:236|172:216,1,40.0000005960464,8|0,0:0|0:0,0:0:0:0:
292,196,212054,2,0,P|312:244|208:324,1,200.000002980232
112,268,212625,102,0,P|100:249|96:224,1,40.0000005960464,8|0,0:0|0:0,0:0:0:0:
212,204,212816,2,0,P|156:200|144:164,1,80.0000011920928,0|8,0:0|0:0,0:0:0:0:
184,72,213101,2,0,P|200:116|180:152,1,80.0000011920928
68,140,213387,2,0,P|92:134|108:136,1,40.0000005960464,8|0,0:0|0:0,0:0:0:0:
228,144,213577,2,0,P|280:112|280:88,1,80.0000011920928,0|8,0:0|0:0,0:0:0:0:
160,112,213863,2,0,P|148:136|180:184,1,80.0000011920928
252,268,214149,2,0,P|256:248|252:224,1,40.0000005960464,8|0,0:0|0:0,0:0:0:0:
236,112,214339,2,0,P|212:76|132:88,1,120.000001788139
72,180,214720,5,8,0:0:0:0:
136,228,214847,1,0,0:0:0:0:
136,148,214974,1,0,0:0:0:0:
72,232,215101,1,8,0:0:0:0:
164,288,215228,1,0,0:0:0:0:
208,192,215355,1,0,0:0:0:0:
108,100,215482,2,0,P|128:140|120:212,1,120.000001788139,8|0,0:0|0:0,0:0:0:0:
32,264,215863,101,8,0:0:0:0:
108,156,215990,1,0,0:0:0:0:
156,280,216117,1,0,0:0:0:0:
16,204,216244,1,8,0:0:0:0:
168,156,216371,1,0,0:0:0:0:
92,296,216498,1,0,0:0:0:0:
40,116,216625,1,8,0:0:0:0:
208,200,216752,1,0,0:0:0:0:
36,268,216879,1,0,0:0:0:0:
92,60,217006,2,0,P|88:108|152:152,1,120.000001788139,8|0,0:0|0:0,0:0:0:0:
220,120,217387,5,4,0:0:0:0:
256,192,217482,12,0,218815,0:0:0:0:
160,124,218910,37,2,0:0:0:0:
316,84,220434,1,0,0:0:0:0:
220,212,221958,1,0,0:0:0:0:
96,272,223291,5,0,0:0:0:0:
96,272,223387,1,0,0:0:0:0:
96,272,223482,1,2,0:0:0:0:
256,296,225006,1,0,0:0:0:0:
180,156,226529,1,0,0:0:0:0:
340,176,228053,1,0,0:0:0:0:
340,176,228244,1,2,0:0:0:0:
176,88,228434,101,0,0:0:0:0:
175,94,228560,1,0,0:0:0:0:
174,101,228687,1,0,0:0:0:0:
174,107,228814,1,0,0:0:0:0:
173,114,228941,1,0,0:0:0:0:
172,121,229068,1,0,0:0:0:0:
172,127,229195,1,0,0:0:0:0:
192,248,229577,6,0,P|216:268|308:236,1,140.000002086162,6|0,0:0|0:0,0:0:0:0:
384,144,232625,2,0,P|360:124|268:156,1,140.000002086162,6|0,0:0|0:0,0:0:0:0:
228,268,235672,102,0,P|232:208|180:152,1,140.000002086162,6|0,0:0|0:0,0:0:0:0:
68,188,238720,2,0,P|108:192|168:120,1,140.000002086162,6|0,0:0|0:0,0:0:0:0:
284,148,241767,6,0,L|280:108,1,40.0000005960464,0|8,0:0|0:0,0:0:0:0:
164,140,243291,2,0,L|168:100,1,40.0000005960464,0|8,0:0|0:0,0:0:0:0:
252,188,244815,2,0,L|248:148,1,40.0000005960464,0|8,0:0|0:0,0:0:0:0:
136,196,246339,2,0,L|132:236,1,40.0000005960464,0|8,0:0|0:0,0:0:0:0:
212,324,247863,2,0,L|252:316,1,40.0000005960464,0|8,0:0|0:0,0:0:0:0:
348,244,249387,2,0,L|308:236,1,40.0000005960464,0|8,0:0|0:0,0:0:0:0:
188,220,250910,2,0,L|228:212,1,40.0000005960464,0|8,0:0|0:0,0:0:0:0:
340,168,252434,2,0,L|300:160,1,40.0000005960464,0|8,0:0|0:0,0:0:0:0:
60,168,253958,102,0,L|64:128,1,40.0000005960464
176,80,254720,1,8,0:0:0:0:
332,264,255482,2,0,L|328:224,1,40.0000005960464
236,148,256244,1,8,0:0:0:0:
76,328,257006,2,0,L|120:320,1,40.0000005960464
196,232,257767,1,8,0:0:0:0:
428,176,258529,2,0,L|384:160,1,40.0000005960464
320,64,259291,1,8,0:0:0:0:
292,304,260053,5,8,0:0:0:0:
292,304,260244,1,8,0:0:0:0:
36,52,261387,2,0,L|80:64,1,40.0000005960464,0|8,0:0|0:0,0:0:0:0:
304,128,262529,1,8,0:0:0:0:
200,276,262720,1,8,0:0:0:0:
192,92,262910,1,8,0:0:0:0:
352,272,263101,38,8,P|376:284|404:288,1,40.0000005960464,8|0,0:0|0:0,0:0:0:0:
396,228,263291,2,0,P|422:231|450:225,1,40.0000005960464
420,172,263481,2,0,P|446:165|470:150,1,40.0000005960464,8|0,0:0|0:0,0:0:0:0:
420,112,263672,2,0,P|442:97|459:74,1,40.0000005960464
340,48,263862,2,0,P|322:38|303:33,1,40.0000005960464,8|0,0:0|0:0,0:0:0:0:
295,92,264052,2,0,P|275:88|255:90,1,40.0000005960464
271,148,264242,2,0,P|251:151|233:160,1,40.0000005960464,8|0,0:0|0:0,0:0:0:0:
271,208,264433,2,0,P|253:218|239:232,1,40.0000005960464
352,280,264624,22,0,L|380:236,1,40.0000005960464,8|0,0:0|0:0,0:0:0:0:
264,196,264815,2,0,L|275:145,1,40.0000005960464
153,148,265005,2,0,L|146:96,1,40.0000005960464,8|0,0:0|0:0,0:0:0:0:
32,140,265196,2,0,L|7:93,1,40.0000005960464
48,220,265386,6,0,L|69:253,1,40.0000005960464,8|0,0:0|0:0,0:0:0:0:
148,130,265577,2,0,L|156:169,1,40.0000005960464
273,82,265767,2,0,L|267:121,1,40.0000005960464,8|0,0:0|0:0,0:0:0:0:
407,78,265958,2,0,L|388:113,1,40.0000005960464
303,200,266148,70,0,P|285:206|265:212,1,40.0000005960464,8|0,0:0|0:0,0:0:0:0:
396,124,266339,2,0,P|420:116|448:108,1,40.0000005960464
298,131,266529,2,0,P|286:116|274:100,1,40.0000005960464,8|0,0:0|0:0,0:0:0:0:
401,192,266720,2,0,P|417:212|434:235,1,40.0000005960464
290,211,266910,2,0,P|265:219|240:227,1,40.0000005960464,8|0,0:0|0:0,0:0:0:0:
409,112,267101,2,0,P|441:102|477:91,1,40.0000005960464
283,122,267291,2,0,P|266:102|251:81,1,40.0000005960464,8|0,0:0|0:0,0:0:0:0:
416,201,267482,2,0,P|437:227|459:257,1,40.0000005960464
352,312,267672,6,0,P|331:326|304:332,1,40.0000005960464,8|0,0:0|0:0,0:0:0:0:
308,272,267862,2,0,P|283:278|256:274,1,40.0000005960464
280,220,268053,2,0,P|254:217|230:204,1,40.0000005960464,8|0,0:0|0:0,0:0:0:0:
272,160,268243,2,0,P|249:148|230:128,1,40.0000005960464
316,44,268434,2,0,P|336:29|364:24,1,40.0000005960464,8|0,0:0|0:0,0:0:0:0:
360,84,268624,2,0,P|384:77|411:81,1,40.0000005960464
388,136,268815,2,0,P|413:138|437:151,1,40.0000005960464,8|0,0:0|0:0,0:0:0:0:
396,196,269005,2,0,P|418:207|437:227,1,40.0000005960464
408,336,269196,69,8,0:0:0:0:
176,280,269386,1,8,0:0:0:0:
224,36,270529,5,0,0:0:0:0:
224,36,270624,1,0,0:0:0:0:
224,36,270720,1,8,0:0:0:0:
236,276,270910,1,8,0:0:0:0:
452,288,271862,101,0,0:0:0:0:
442,285,271958,1,0,0:0:0:0:
432,283,272053,1,0,0:0:0:0:
422,280,272148,1,0,0:0:0:0:
413,278,272243,1,8,0:0:0:0:
312,60,272434,1,8,0:0:0:0:
240,304,273577,5,0,0:0:0:0:
242,288,273672,1,0,0:0:0:0:
244,272,273767,1,8,0:0:0:0:
112,72,273958,1,8,0:0:0:0:
416,144,274339,1,8,0:0:0:0:
228,292,274529,2,0,B|176:276|176:276|144:248,1,80.0000011920928,8|0,0:0|0:0,0:0:0:0:
124,20,274910,2,0,B|176:36|176:36|208:64,1,80.0000011920928,8|0,0:0|0:0,0:0:0:0:
220,172,275291,102,0,L|216:216,1,40.0000005960464,8|0,0:0|0:0,0:0:0:0:
320,272,275672,2,0,L|316:232,1,40.0000005960464,8|0,0:0|0:0,0:0:0:0:
200,208,276053,2,0,L|148:200,1,40.0000005960464,8|0,0:0|0:0,0:0:0:0:
120,88,276434,2,0,L|168:80,1,40.0000005960464,8|0,0:0|0:0,0:0:0:0:
268,136,276815,6,0,L|224:140,1,40.0000005960464,8|0,0:0|0:0,0:0:0:0:
260,256,277196,2,0,L|300:264,1,40.0000005960464,8|0,0:0|0:0,0:0:0:0:
400,200,277577,2,0,L|400:156,1,40.0000005960464,8|0,0:0|0:0,0:0:0:0:
280,136,277958,2,0,L|284:184,1,40.0000005960464,8|0,0:0|0:0,0:0:0:0:
372,256,278339,102,0,L|420:264,1,40.0000005960464,8|0,0:0|0:0,0:0:0:0:
492,172,278720,2,0,L|444:168,1,40.0000005960464,8|0,0:0|0:0,0:0:0:0:
336,136,279100,2,0,L|388:132,1,40.0000005960464,8|0,0:0|0:0,0:0:0:0:
488,88,279481,2,0,L|440:76,1,40.0000005960464,8|0,0:0|0:0,0:0:0:0:
312,60,279862,86,0,P|336:36|428:64,1,140.000002086162,4|0,0:0|0:0,0:0:0:0:
450,132,281386,54,0,P|454:151|456:171,1,40.0000005960464,4|0,0:0|0:0,0:0:0:0:
396,172,281577,2,0,P|394:191|390:211,1,40.0000005960464,8|0,0:0|0:0,0:0:0:0:
335,180,281767,2,0,P|327:198|316:214,1,40.0000005960464
275,168,281958,2,0,P|261:181|245:193,1,40.0000005960464,8|0,0:0|0:0,0:0:0:0:
31,40,282148,6,0,P|27:59|25:79,1,40.0000005960464
86,81,282339,2,0,P|88:100|93:120,1,40.0000005960464,8|0,0:0|0:0,0:0:0:0:
146,89,282529,2,0,P|155:106|166:123,1,40.0000005960464
206,77,282720,2,0,P|220:90|236:102,1,40.0000005960464,8|0,0:0|0:0,0:0:0:0:
357,124,282910,102,0,P|376:120|393:110,1,40.0000005960464
243,176,283101,2,0,P|224:180|207:190,1,40.0000005960464,8|0,0:0|0:0,0:0:0:0:
351,186,283291,2,0,P|364:201|381:211,1,40.0000005960464
249,114,283482,2,0,P|236:99|219:89,1,40.0000005960464,8|0,0:0|0:0,0:0:0:0:
368,119,283672,2,0,P|387:116|405:107,1,40.0000005960464
232,182,283863,2,0,P|213:184|195:193,1,40.0000005960464,8|0,0:0|0:0,0:0:0:0:
361,193,284053,2,0,P|373:208|390:219,1,40.0000005960464
239,107,284244,2,0,P|227:92|210:81,1,40.0000005960464,8|0,0:0|0:0,0:0:0:0:
92,80,284434,5,6,0:0:0:0:
76,136,284529,1,0,0:0:0:0:
80,196,284625,2,0,P|86:215|97:231,1,40.0000005960464,8|0,0:0|0:0,0:0:0:0:
186,148,284815,101,0,0:0:0:0:
146,107,284910,1,0,0:0:0:0:
91,79,285006,2,0,P|72:76|52:77,1,40.0000005960464,8|0,0:0|0:0,0:0:0:0:
80,196,285196,5,0,0:0:0:0:
136,182,285291,1,0,0:0:0:0:
186,148,285387,2,0,P|199:134|208:116,1,40.0000005960464,10|0,0:3|0:0,0:0:0:0:
92,80,285577,101,0,0:0:0:0:
76,146,285672,1,0,0:0:0:0:
95,210,285767,1,10,0:3:0:0:
146,254,285862,1,0,0:0:0:0:
212,266,285958,6,0,L|251:258,1,40.0000005960464
308,133,286148,2,0,L|268:140,1,40.0000005960464,10|0,0:3|0:0,0:0:0:0:
220,281,286339,2,0,L|257:266,1,40.0000005960464
299,119,286529,2,0,L|261:132,1,40.0000005960464,10|0,0:3|0:0,0:0:0:0:
232,295,286720,2,0,L|266:274,1,40.0000005960464
287,104,286910,2,0,L|252:124,1,40.0000005960464,10|0,0:3|0:0,0:0:0:0:
248,308,287101,2,0,L|278:282,1,40.0000005960464
271,91,287291,2,0,L|240:116,1,40.0000005960464,10|0,0:3|0:0,0:0:0:0:
180,220,287482,101,2,0:0:0:0:
212,272,287577,1,0,0:0:0:0:
268,287,287672,2,0,P|287:289|306:295,1,40.0000005960464,8|0,0:0|0:0,0:0:0:0:
408,360,287863,1,0,0:0:0:0:
438,307,287958,1,0,0:0:0:0:
422,249,288053,2,0,P|414:232|410:212,1,40.0000005960464,8|0,0:0|0:0,0:0:0:0:
408,92,288244,5,0,0:0:0:0:
348,93,288339,1,0,0:0:0:0:
305,135,288434,2,0,P|295:152|281:165,1,40.0000005960464,8|0,0:0|0:0,0:0:0:0:
268,287,288625,2,0,P|287:289|306:295,1,40.0000005960464
422,249,288815,2,0,P|414:232|410:212,1,40.0000005960464,8|0,0:0|0:0,0:0:0:0:
360,104,289006,102,0,L|358:65,1,40.0000005960464
244,136,289196,2,0,L|247:176,1,40.0000005960464,8|0,0:0|0:0,0:0:0:0:
368,114,289386,2,0,L|372:74,1,40.0000005960464
237,127,289576,2,0,L|232:166,1,40.0000005960464,8|0,0:0|0:0,0:0:0:0:
375,126,289767,2,0,L|386:87,1,40.0000005960464
230,115,289957,2,0,L|218:153,1,40.0000005960464,8|0,0:0|0:0,0:0:0:0:
380,141,290148,2,0,L|397:104,1,40.0000005960464
225,100,290338,2,0,L|207:136,1,40.0000005960464,8|0,0:0|0:0,0:0:0:0:
319,179,290529,6,0,L|358:176,1,40.0000005960464
287,63,290719,2,0,L|247:65,1,40.0000005960464,8|0,0:0|0:0,0:0:0:0:
309,186,290909,2,0,L|348:190,1,40.0000005960464
296,55,291099,2,0,L|256:50,1,40.0000005960464,8|0,0:0|0:0,0:0:0:0:
297,193,291290,2,0,L|335:204,1,40.0000005960464
308,48,291480,2,0,L|269:36,1,40.0000005960464,8|0,0:0|0:0,0:0:0:0:
282,198,291671,2,0,L|318:215,1,40.0000005960464
323,43,291861,2,0,L|286:25,1,40.0000005960464,8|0,0:0|0:0,0:0:0:0:
266,201,292053,102,0,L|298:224,1,40.0000005960464
328,108,292244,2,0,L|332:68,1,40.0000005960464
216,104,292434,2,0,L|179:120,1,40.0000005960464
266,201,292625,6,0,B|300:256|412:205,2,160.000002384186
172,128,293577,38,0,B|180:84|105:36,2,120.000001788139
160,248,295100,6,0,B|112:228|49:317,1,140.000002086162,4|0,0:0|0:0,0:0:0:0:
332,268,296624,70,0,P|360:288|388:295,1,40.0000005960464
180,268,296815,2,0,P|152:288|124:295,1,40.0000005960464,8|0,0:0|0:0,0:0:0:0:
368,228,297005,2,0,P|401:237|430:234,1,40.0000005960464
144,228,297196,2,0,P|111:237|82:234,1,40.0000005960464,8|0,0:0|0:0,0:0:0:0:
396,180,297386,2,0,P|431:177|457:165,1,40.0000005960464
116,180,297577,2,0,P|81:177|55:165,1,40.0000005960464,8|0,0:0|0:0,0:0:0:0:
404,124,297767,2,0,P|436:109|457:89,1,40.0000005960464
108,124,297958,2,0,P|76:109|55:89,1,40.0000005960464,8|0,0:0|0:0,0:0:0:0:
44,56,298148,5,0,0:0:0:0:
93,48,298243,1,0,0:0:0:0:
136,72,298338,1,8,0:0:0:0:
149,121,298433,1,0,0:0:0:0:
148,172,298529,101,0,0:0:0:0:
160,221,298624,1,0,0:0:0:0:
203,247,298719,1,8,0:0:0:0:
253,237,298814,1,0,0:0:0:0:
288,224,298910,5,0,0:0:0:0:
275,174,299005,1,0,0:0:0:0:
232,148,299100,1,8,0:0:0:0:
182,158,299195,1,0,0:0:0:0:
184,208,299291,101,0,0:0:0:0:
196,257,299386,1,0,0:0:0:0:
239,283,299481,1,8,0:0:0:0:
289,273,299576,1,0,0:0:0:0:
372,300,299672,86,0,P|386:282|400:256,1,40.0000005960464,6|0,0:0|0:0,0:0:0:0:
332,260,299862,2,0,P|339:238|343:209,1,40.0000005960464,8|0,0:0|0:0,0:0:0:0:
280,236,300053,2,0,P|279:212|273:184,1,40.0000005960464
224,232,300243,2,0,P|215:210|199:185,1,40.0000005960464,8|0,0:0|0:0,0:0:0:0:
88,208,300434,6,0,P|73:190|60:164,1,40.0000005960464
128,168,300624,2,0,P|120:146|116:117,1,40.0000005960464,10|0,0:3|0:0,0:0:0:0:
180,144,300815,2,0,P|180:120|186:92,1,40.0000005960464
236,140,301005,2,0,P|244:118|260:93,1,40.0000005960464,10|0,0:3|0:0,0:0:0:0:
368,135,301196,102,0,P|387:131|407:128,1,40.0000005960464
268,200,301386,2,0,P|252:204|224:208,1,40.0000005960464,10|0,0:3|0:0,0:0:0:0:
381,182,301577,2,0,P|400:193|418:206,1,40.0000005960464
254,153,301767,2,0,P|238:144|213:125,1,40.0000005960464,10|0,0:3|0:0,0:0:0:0:
356,228,301958,2,0,P|362:252|365:275,1,40.0000005960464
279,107,302148,2,0,P|274:88|269:54,1,40.0000005960464,10|0,0:3|0:0,0:0:0:0:
301,245,302339,2,0,P|287:267|271:289,1,40.0000005960464
334,90,302529,2,0,P|346:72|368:41,1,40.0000005960464,10|0,0:3|0:0,0:0:0:0:
416,164,302720,5,2,0:0:0:0:
407,226,302815,1,0,0:0:0:0:
361,269,302910,1,8,0:0:0:0:
299,273,303005,1,0,0:0:0:0:
248,244,303100,1,0,0:0:0:0:
228,188,303196,1,0,0:0:0:0:
184,148,303291,1,8,0:0:0:0:
124,144,303386,1,0,0:0:0:0:
72,176,303481,1,0,0:0:0:0:
56,236,303577,1,0,0:0:0:0:
80,292,303672,1,10,0:3:0:0:
136,316,303767,1,0,0:0:0:0:
196,304,303862,2,0,L|208:248,1,40.0000005960464
216,204,304053,2,0,L|228:148,1,40.0000005960464,10|0,0:3|0:0,0:0:0:0:
236,108,304243,101,2,0:0:0:0:
224,48,304339,1,0,0:0:0:0:
172,20,304434,1,8,0:0:0:0:
112,24,304529,1,0,0:0:0:0:
72,68,304624,1,0,0:0:0:0:
68,128,304720,1,0,0:0:0:0:
108,172,304815,1,8,0:0:0:0:
168,184,304910,1,0,0:0:0:0:
224,160,305005,1,0,0:0:0:0:
260,112,305100,1,0,0:0:0:0:
316,88,305196,1,10,0:3:0:0:
376,96,305291,1,0,0:0:0:0:
416,144,305386,2,0,L|404:192,1,40.0000005960464
392,240,305577,2,0,L|380:288,1,40.0000005960464,10|0,0:3|0:0,0:0:0:0:
340,320,305767,5,2,0:0:0:0:
288,348,305862,1,0,0:0:0:0:
228,340,305958,1,8,0:0:0:0:
188,296,306053,1,0,0:0:0:0:
176,236,306148,2,0,P|176:224|184:196,1,40.0000005960464
208,140,306339,2,0,P|207:118|200:96,1,40.0000005960464,8|0,0:0|0:0,0:0:0:0:
168,52,306529,101,0,0:0:0:0:
108,44,306624,1,0,0:0:0:0:
64,84,306720,1,10,0:3:0:0:
76,144,306815,1,0,0:0:0:0:
128,176,306910,2,0,P|157:180|176:176,1,40.0000005960464
212,136,307100,2,0,P|232:132|256:132,1,40.0000005960464,10|0,0:3|0:0,0:0:0:0:
364,176,307291,6,0,L|368:228,1,40.0000005960464
148,208,307481,2,0,L|144:156,1,40.0000005960464,10|0,0:3|0:0,0:0:0:0:
354,194,307672,2,0,L|349:241,1,40.0000005960464
157,189,307862,2,0,L|162:142,1,40.0000005960464,10|0,0:3|0:0,0:0:0:0:
342,209,308053,2,0,L|331:250,1,40.0000005960464
169,174,308243,2,0,L|180:133,1,40.0000005960464,10|0,0:3|0:0,0:0:0:0:
330,221,308434,2,0,L|311:259,1,40.0000005960464
181,162,308624,2,0,L|200:123,1,40.0000005960464,10|0,0:3|0:0,0:0:0:0:
408,224,308815,70,0,P|408:260|404:308,1,80.0000011920928,4|0,0:0|0:0,0:0:0:0:
164,328,309577,2,0,P|160:288|160:248,1,80.0000011920928,4|0,0:0|0:0,0:0:0:0:
316,64,310339,6,0,P|320:104|316:160,1,80.0000011920928,4|0,0:0|0:0,0:0:0:0:
92,228,311100,2,0,P|96:184|104:144,1,80.0000011920928,4|0,0:0|0:0,0:0:0:0:
328,232,311862,102,0,P|332:276|332:320,1,80.0000011920928,4|0,0:0|0:0,0:0:0:0:
168,136,312624,2,0,P|160:92|160:44,1,80.0000011920928,4|0,0:0|0:0,0:0:0:0:
400,44,313386,6,0,P|404:88|400:136,1,80.0000011920928,4|0,0:0|0:0,0:0:0:0:
232,292,314148,2,0,P|224:248|220:196,1,80.0000011920928,4|0,0:0|0:0,0:0:0:0:
452,148,314910,102,0,P|452:192|448:232,1,80.0000011920928,4|0,0:0|0:0,0:0:0:0:
256,112,315672,2,0,P|252:72|248:24,1,80.0000011920928,4|0,0:0|0:0,0:0:0:0:
36,128,316434,6,0,P|48:176|60:208,1,80.0000011920928,4|0,0:0|0:0,0:0:0:0:
260,336,317196,2,0,L|276:256,1,80.0000011920928,4|0,0:0|0:0,0:0:0:0:
472,120,317958,102,0,P|480:80|476:36,1,80.0000011920928,4|0,0:0|0:0,0:0:0:0:
236,56,318720,2,0,L|232:152,1,80.0000011920928,4|0,0:0|0:0,0:0:0:0:
156,100,319481,22,0,L|160:152,1,40.0000005960464,4|0,0:0|0:0,0:0:0:0:
268,196,319672,2,0,L|272:148,1,40.0000005960464,8|0,0:0|0:0,0:0:0:0:
212,52,319862,2,0,L|216:108,1,40.0000005960464,0|0,0:0|0:0,0:0:0:0:
256,204,320053,2,0,B|316:172|296:60,2,160.000002384186,8|10|10,0:0|0:3|0:3,0:0:0:0:
104,320,321196,2,0,L|104:280,1,40.0000005960464,8|0,0:0|0:0,0:0:0:0:
220,308,321386,2,0,L|216:256,1,40.0000005960464
336,276,321577,2,0,L|320:220,1,40.0000005960464,8|0,0:0|0:0,0:0:0:0:
256,140,321767,2,0,B|236:200|272:308,1,160.000002384186,8|2,0:0|0:3,0:0:0:0:
368,72,322529,6,0,L|376:124,1,40.0000005960464,8|0,0:0|0:0,0:0:0:0:
217,98,322720,2,0,L|258:65,1,40.0000005960464,8|0,0:0|0:0,0:0:0:0:
316,216,322910,2,0,L|266:196,1,40.0000005960464,8|0,0:0|0:0,0:0:0:0:
368,72,323100,2,0,B|412:116|396:232,2,160.000002384186,8|2|6,0:0|0:3|0:0,0:0:0:0:
