osu file format v14

[General]
AudioFilename: audio.ogg
AudioLeadIn: 0
PreviewTime: 66110
Countdown: 0
SampleSet: Soft
StackLeniency: 1
Mode: 0
LetterboxInBreaks: 0
WidescreenStoryboard: 1

[Editor]
DistanceSpacing: 0.6
BeatDivisor: 4
GridSize: 16
TimelineZoom: 1.5

[Metadata]
Title:abnormalize (TV Size)
TitleUnicode:abnormalize (TV Size)
Artist:Ling tosite sigure
ArtistUnicode:凛として時雨
Creator:muya-
Version:sajinn's lunatic
Source:PSYCHO-PASS
Tags:サイコパス opening intro theme song anime animation japanese rock jrock j-rock shueisha tsunemori akane shinya kougami production i.g cyberpunk Tōru Toru Touru TK Kitajima Miyoko 345 Nakamura Masatoshi Pierre Nakano dkblaze airincat sajinn
BeatmapID:4164075
BeatmapSetID:1990496

[Difficulty]
HPDrainRate:6
CircleSize:4
OverallDifficulty:8.5
ApproachRate:9.2
SliderMultiplier:1.7
SliderTickRate:1

[Events]
//Background and Video events
Video,-1350,"Abnormalize.mp4"
0,0,"jgfjhgfhf.jpg",0,0
//Break Periods
2,49945,54642
2,60915,62888
//Storyboard Layer 0 (Background)
//Storyboard Layer 1 (Fail)
//Storyboard Layer 2 (Pass)
//Storyboard Layer 3 (Foreground)
//Storyboard Layer 4 (Overlay)
//Storyboard Sound Samples

[TimingPoints]
372,324.324324324324,4,2,1,50,1,0
696,342.857142857143,4,2,1,50,1,0
696,-142.857142857143,4,2,1,50,0,0
1724,342.857142857143,4,2,1,50,1,0
2238,-142.857142857143,4,2,1,50,0,0
3095,344.827586206897,4,2,1,50,1,0
3095,-142.857142857143,4,2,1,50,0,0
7232,341.880341880342,4,2,1,50,1,0
7232,-142.857142857143,4,2,1,50,0,0
9625,324.324324324324,4,2,1,50,1,0
9949,352.941176470588,4,2,1,50,1,0
9949,-142.857142857143,4,2,1,50,0,0
11007,315.789473684211,4,2,1,50,1,0
11007,-111.111111111111,4,2,1,50,0,0
11322,347.826086956522,4,2,2,60,1,0
11339,-111.111111111111,4,2,2,60,0,0
11843,-111.111111111111,4,2,1,60,0,0
11853,-111.111111111111,4,2,1,60,0,0
12017,342.857142857143,4,2,1,60,1,0
12017,-111.111111111111,4,2,1,60,0,0
12359,-111.111111111111,4,2,2,60,0,0
12368,-111.111111111111,4,2,2,60,0,0
12531,-111.111111111111,4,2,1,60,0,0
12539,-111.111111111111,4,2,1,60,0,0
12702,342.857142857143,4,2,1,60,1,0
12882,-111.111111111111,4,2,1,60,0,0
13044,-111.111111111111,4,2,2,60,0,0
13053,-111.111111111111,4,2,2,60,0,0
13216,-111.111111111111,4,2,1,60,0,0
13225,-111.111111111111,4,2,1,60,0,0
13730,-111.111111111111,4,2,2,60,0,0
13739,-111.111111111111,4,2,2,60,0,0
13902,-111.111111111111,4,2,1,60,0,0
13910,-111.111111111111,4,2,1,60,0,0
14416,-111.111111111111,4,2,2,60,0,0
14425,-111.111111111111,4,2,2,60,0,0
14587,-111.111111111111,4,2,1,60,0,0
14596,-111.111111111111,4,2,1,60,0,0
15102,-111.111111111111,4,2,2,60,0,0
15110,-111.111111111111,4,2,2,60,0,0
15273,-111.111111111111,4,2,1,60,0,0
15282,-111.111111111111,4,2,1,60,0,0
15444,-111.111111111111,4,2,2,60,0,0
15453,-111.111111111111,4,2,2,60,0,0
15787,-111.111111111111,4,2,1,60,0,0
15796,-111.111111111111,4,2,1,60,0,0
16644,-111.111111111111,4,2,2,60,0,0
16653,-111.111111111111,4,2,2,60,0,0
16816,352.941176470588,4,2,1,70,1,0
16825,-111.111111111111,4,2,1,70,0,0
17168,344.827586206897,4,2,1,70,1,0
18196,-99.9999999999999,4,2,1,70,0,0
18202,344.827586206897,4,2,1,75,1,0
19568,-99.9999999999999,4,2,1,75,0,0
19581,335.195530726257,4,2,1,80,1,0
19825,-99.9999999999999,4,2,1,80,0,0
19832,-99.9999999999999,4,2,2,80,0,0
19910,-99.9999999999999,4,2,2,80,0,0
19916,-99.9999999999999,4,2,1,80,0,0
20168,-99.9999999999999,4,2,2,80,0,0
20251,-83.3333333333333,4,2,3,80,0,0
20921,363.636363636364,4,2,3,80,1,0
21284,342.857142857143,4,2,3,80,1,0
21969,320.855614973262,4,2,3,80,1,0
22289,348.837209302326,4,2,2,80,1,0
22310,-100,4,2,2,80,0,0
22376,-100,4,2,1,80,0,0
22396,-100,4,2,1,80,0,0
22986,-90.9090909090909,4,2,2,80,0,0
23161,-90.9090909090909,4,2,1,80,0,0
23168,-90.9090909090909,4,2,1,80,0,0
23510,-100,4,2,1,80,0,0
23682,-100,4,2,2,80,0,0
23684,342.857142857143,4,2,2,80,1,0
23768,-100,4,2,1,80,0,0
24368,-100,4,2,2,80,0,0
24539,-90.9090909090909,4,2,1,80,0,0
25053,-100,4,2,2,80,0,0
25139,-100,4,2,1,80,0,0
25739,-100,4,2,2,80,0,0
25910,-100,4,2,1,80,0,0
26425,-100,4,2,2,80,0,0
26510,-100,4,2,1,80,0,0
27112,328.767123287671,4,2,2,80,1,0
27112,-90.9090909090909,4,2,2,80,0,0
27276,-90.9090909090909,4,2,1,80,0,0
27282,-90.9090909090909,4,2,1,80,0,0
27769,375,4,2,4,70,1,0
27769,-90.9090909090909,4,2,4,70,0,0
27956,-90.9090909090909,4,2,1,70,0,0
27968,-90.9090909090909,4,2,1,70,0,0
28144,342.857142857143,4,2,1,70,1,0
28482,-125,4,2,1,70,0,0
28486,-125,4,2,2,70,0,0
28739,-125,4,2,2,70,0,0
28744,-125,4,2,1,70,0,0
29172,342.857142857143,4,2,1,70,1,0
29514,-125,4,2,1,70,0,0
29853,-125,4,2,1,70,0,0
29857,-125,4,2,2,70,0,0
30025,-125,4,2,2,70,0,0
30029,-125,4,2,1,70,0,0
31225,-125,4,2,1,70,0,0
31229,-125,4,2,2,70,0,0
31396,-125,4,2,2,70,0,0
31400,-125,4,2,1,70,0,0
31910,-100,4,2,1,70,0,0
32425,-125,4,2,1,70,0,0
32596,-125,4,2,1,70,0,0
32600,-125,4,2,2,70,0,0
32768,-125,4,2,2,70,0,0
32772,-125,4,2,1,70,0,0
34310,-100,4,2,1,70,0,0
34314,329.67032967033,4,2,1,70,1,0
34643,342.857142857143,4,2,1,70,1,0
35328,-100,4,2,2,70,0,0
35339,-100,4,2,2,70,0,0
35500,-100,4,2,1,70,0,0
35510,-100,4,2,1,70,0,0
35671,-125,4,2,1,70,0,0
36014,-100,4,2,1,70,0,0
37385,338.983050847458,4,2,5,80,1,0
37396,-100,4,2,5,80,0,0
37723,-100,4,2,1,80,0,0
37739,-100,4,2,1,80,0,0
38062,-76.9230769230769,4,2,5,80,0,0
38401,-76.9230769230769,4,2,1,80,0,0
38425,-76.9230769230769,4,2,1,80,0,0
38740,345.821325648415,4,2,6,75,1,0
38740,-66.6666666666667,4,2,6,75,0,0
39085,-66.6666666666667,4,2,7,75,0,0
39110,-66.6666666666667,4,2,7,75,0,0
39258,-100,4,2,1,75,0,0
39431,-100,4,2,3,75,0,0
39453,-100,4,2,3,75,0,0
39604,-100,4,2,1,75,0,0
39625,-100,4,2,1,75,0,0
39777,-100,4,2,7,75,0,0
39796,-100,4,2,7,75,0,0
39950,-100,4,2,1,75,0,0
39968,-100,4,2,1,75,0,0
40123,-100,4,2,6,75,0,0
40139,-100,4,2,6,75,0,0
40642,-100,4,2,1,75,0,0
40653,-100,4,2,1,75,0,0
40814,-100,4,2,3,75,0,0
40825,-100,4,2,3,75,0,0
40987,-100,4,2,1,75,0,0
40996,-100,4,2,1,75,0,0
41160,-100,4,2,7,75,0,0
41168,-100,4,2,7,75,0,0
41333,-100,4,2,1,75,0,0
41339,-100,4,2,1,75,0,0
41506,342.857142857143,4,2,3,75,1,0
41506,-100,4,2,3,75,0,0
41848,-100,4,2,7,75,0,0
41853,-100,4,2,7,75,0,0
42020,-100,4,2,1,75,0,0
42025,-100,4,2,1,75,0,0
42191,-100,4,2,6,75,0,0
42196,-100,4,2,6,75,0,0
42363,-100,4,2,1,75,0,0
42368,-100,4,2,1,75,0,0
42534,-100,4,2,6,75,0,0
42539,-100,4,2,6,75,0,0
42706,-100,4,2,1,75,0,0
42710,-100,4,2,1,75,0,0
42877,-100,4,2,3,75,0,0
42882,-100,4,2,3,75,0,0
43048,-100,4,2,1,75,0,0
43053,-100,4,2,1,75,0,0
43220,-100,4,2,7,75,0,0
43225,-100,4,2,7,75,0,0
43391,-100,4,2,1,75,0,0
43396,-100,4,2,1,75,0,0
43563,-100,4,2,3,75,0,0
43568,-100,4,2,3,75,0,0
43734,-100,4,2,1,75,0,0
43739,-100,4,2,1,75,0,0
43906,-100,4,2,3,75,0,0
43910,-100,4,2,3,75,0,0
43991,-100,4,2,2,75,0,0
43996,-100,4,2,2,75,0,0
44077,-100,4,2,1,75,0,0
44082,-100,4,2,1,75,0,0
44248,350.877192982456,4,2,3,80,1,0
44248,-71.4285714285714,4,2,3,80,0,0
45110,-71.4285714285714,4,2,3,80,0,0
45125,-71.4285714285714,4,2,1,80,0,0
45282,-90.9090909090909,4,2,1,80,0,0
45300,-90.9090909090909,4,2,3,80,0,0
45453,-90.9090909090909,4,2,3,80,0,0
45476,-90.9090909090909,4,2,1,80,0,0
45625,-90.9090909090909,4,2,1,80,0,0
45651,341.880341880342,4,2,8,80,1,0
46334,-90.9090909090909,4,2,8,80,0,0
46482,-90.9090909090909,4,2,8,80,0,0
46505,-90.9090909090909,4,2,1,80,0,0
46653,-90.9090909090909,4,2,1,80,0,0
46676,-90.9090909090909,4,2,9,80,0,0
46739,-90.9090909090909,4,2,9,80,0,0
46762,-90.9090909090909,4,2,1,80,0,0
46825,-90.9090909090909,4,2,1,80,0,0
46847,-90.9090909090909,4,2,4,80,0,0
46910,-90.9090909090909,4,2,4,80,0,0
46933,-90.9090909090909,4,2,2,80,0,0
47018,342.857142857143,4,2,10,80,1,0
47018,-71.4285714285714,4,2,10,80,0,0
47339,-71.4285714285714,4,2,10,80,0,0
47360,-71.4285714285714,4,2,3,80,0,0
47510,-90.9090909090909,4,2,3,80,0,0
47853,-90.9090909090909,4,2,3,80,0,0
47875,-90.9090909090909,4,2,1,80,0,0
48046,333.333333333333,4,2,3,80,1,0
48046,-90.9090909090909,4,2,3,80,0,0
48196,-90.9090909090909,4,2,3,80,0,0
48212,-90.9090909090909,4,2,1,80,0,0
48368,-90.9090909090909,4,2,1,80,0,0
48379,338.028169014084,4,2,8,85,1,0
49055,-90.9090909090909,4,2,8,85,0,0
49393,352.941176470588,4,2,8,85,1,0
49739,-90.9090909090909,4,2,8,85,0,0
49745,352.941176470588,4,2,3,85,1,0
51156,342.857142857143,4,2,3,85,1,0
51968,-90.9090909090909,4,2,3,85,0,0
52013,-90.9090909090909,4,2,1,50,0,0
52527,338.028169014084,4,2,1,50,1,0
53879,342.857142857143,4,2,1,50,1,0
54564,324.324324324324,4,2,1,50,1,0
55212,349.854227405248,4,2,2,60,1,0
55225,-90.9090909090909,4,2,2,60,0,0
55561,-90.9090909090909,4,2,1,60,0,0
55568,-90.9090909090909,4,2,1,60,0,0
55910,-90.9090909090909,4,2,2,60,0,0
56082,-90.9090909090909,4,2,2,60,0,0
56086,-90.9090909090909,4,2,1,60,0,0
56611,346.820809248555,4,2,2,65,1,0
56611,-90.9090909090909,4,2,2,65,0,0
56768,-90.9090909090909,4,2,2,65,0,0
56784,-90.9090909090909,4,2,1,65,0,0
57282,-90.9090909090909,4,2,1,65,0,0
57304,338.983050847458,4,2,2,65,1,0
57453,-90.9090909090909,4,2,2,65,0,0
57473,-90.9090909090909,4,2,1,65,0,0
57981,340.909090909091,4,2,2,70,1,0
57981,-90.9090909090909,4,2,2,70,0,0
58310,-90.9090909090909,4,2,2,70,0,0
58321,-90.9090909090909,4,2,1,70,0,0
58653,-90.9090909090909,4,2,1,70,0,0
58662,-90.9090909090909,4,2,2,70,0,0
58996,-90.9090909090909,4,2,2,70,0,0
59003,-90.9090909090909,4,2,1,70,0,0
59344,342.857142857143,4,2,3,80,1,0
59344,-90.9090909090909,4,2,3,80,0,0
59682,-90.9090909090909,4,2,3,80,0,0
59686,-90.9090909090909,4,2,1,80,0,0
59853,-90.9090909090909,4,2,1,80,0,0
59858,-90.9090909090909,4,2,3,70,0,0
60196,-90.9090909090909,4,2,3,70,0,0
60201,-90.9090909090909,4,2,1,70,0,0
60710,-90.9090909090909,4,2,1,70,0,0
60715,-90.9090909090909,4,2,11,60,0,0
61053,-90.9090909090909,4,2,11,60,0,0
61058,-90.9090909090909,4,2,1,50,0,0
63453,-90.9090909090909,4,2,1,50,0,0
63458,-90.9090909090909,4,2,2,60,0,0
64482,-90.9090909090909,4,2,2,60,0,0
64486,-90.9090909090909,4,2,1,60,0,0
64825,-111.111111111111,4,2,1,60,0,0
64829,-111.111111111111,4,2,3,60,0,0
65339,-111.111111111111,4,2,3,60,0,0
65344,-111.111111111111,4,2,1,60,0,0
65510,-71.4285714285714,4,2,1,60,0,0
65515,-71.4285714285714,4,2,1,80,0,0
66201,-71.4285714285714,4,2,12,90,0,0
66539,-71.4285714285714,4,2,12,90,0,0
66544,-71.4285714285714,4,2,7,90,0,0
66715,-71.4285714285714,4,2,1,90,0,0
66882,-83.3333333333333,4,2,7,90,0,0
66886,-83.3333333333333,4,2,6,90,0,0
67225,-71.4285714285714,4,2,6,90,0,0
67229,-71.4285714285714,4,2,7,90,0,0
67568,-71.4285714285714,4,2,7,90,0,0
67572,-71.4285714285714,4,2,13,90,0,0
67910,-71.4285714285714,4,2,13,90,0,0
67915,-71.4285714285714,4,2,7,90,0,0
68253,-71.4285714285714,4,2,7,90,0,0
68258,-71.4285714285714,4,2,14,90,0,0
68596,-71.4285714285714,4,2,14,90,0,0
68601,-71.4285714285714,4,2,7,90,0,0
68944,338.983050847458,4,2,15,90,1,0
68944,-71.4285714285714,4,2,15,90,0,0
69282,-71.4285714285714,4,2,7,90,0,0
69621,-71.4285714285714,4,2,6,90,0,0
69625,-71.4285714285714,4,2,6,90,0,0
69960,-71.4285714285714,4,2,7,90,0,0
69968,-71.4285714285714,4,2,7,90,0,0
70299,340.909090909091,4,2,12,90,1,0
70299,-62.5,4,2,12,90,0,0
70384,-62.5,4,2,1,90,0,0
70396,-62.5,4,2,1,90,0,0
70653,-71.4285714285714,4,2,1,90,0,0
70980,346.820809248555,4,2,1,90,1,0
71413,-71.4285714285714,4,2,2,90,0,0
71500,-71.4285714285714,4,2,1,90,0,0
71510,-71.4285714285714,4,2,1,90,0,0
71673,342.857142857143,4,2,7,90,1,0
71673,-71.4285714285714,4,2,7,90,0,0
71844,-71.4285714285714,4,2,1,90,0,0
71853,-71.4285714285714,4,2,1,90,0,0
72015,-71.4285714285714,4,2,7,90,0,0
72025,-71.4285714285714,4,2,7,90,0,0
72187,-71.4285714285714,4,2,1,90,0,0
72358,-71.4285714285714,4,2,6,90,0,0
72368,-71.4285714285714,4,2,6,90,0,0
72530,-71.4285714285714,4,2,1,90,0,0
72539,-71.4285714285714,4,2,1,90,0,0
72701,-71.4285714285714,4,2,6,90,0,0
72710,-71.4285714285714,4,2,6,90,0,0
72873,-71.4285714285714,4,2,1,90,0,0
72882,-71.4285714285714,4,2,1,90,0,0
73044,347.826086956522,4,2,16,90,1,0
73053,-71.4285714285714,4,2,16,90,0,0
73217,-71.4285714285714,4,2,1,90,0,0
73225,-71.4285714285714,4,2,1,90,0,0
73391,-71.4285714285714,4,2,7,90,0,0
73396,-71.4285714285714,4,2,7,90,0,0
73565,-71.4285714285714,4,2,1,90,0,0
73568,-71.4285714285714,4,2,1,90,0,0
73739,-71.4285714285714,4,2,3,90,0,0
73910,-71.4285714285714,4,2,3,90,0,0
73913,-71.4285714285714,4,2,1,90,0,0
74082,-71.4285714285714,4,2,1,90,0,0
74087,-71.4285714285714,4,2,7,90,0,0
74253,-71.4285714285714,4,2,7,90,0,0
74261,-71.4285714285714,4,2,1,90,0,0
74425,-71.4285714285714,4,2,1,90,0,0
74435,342.857142857143,4,2,15,90,1,0
74596,-71.4285714285714,4,2,15,90,0,0
74606,-71.4285714285714,4,2,1,90,0,0
74768,-71.4285714285714,4,2,1,90,0,0
74777,-71.4285714285714,4,2,6,90,0,0
74939,-71.4285714285714,4,2,6,90,0,0
74949,-71.4285714285714,4,2,1,90,0,0
75025,-71.4285714285714,4,2,1,90,0,0
75035,-71.4285714285714,4,2,2,90,0,0
75110,-71.4285714285714,4,2,2,90,0,0
75120,-71.4285714285714,4,2,14,90,0,0
75453,-62.5,4,2,14,90,0,0
75463,-62.5,4,2,6,90,0,0
75539,-62.5,4,2,6,90,0,0
75549,-62.5,4,2,1,90,0,0
75710,-62.5,4,2,1,90,0,0
75720,-62.5,4,2,2,90,0,0
75796,-62.5,4,2,2,90,0,0
75806,-62.5,4,2,17,90,0,0
75882,-100,4,2,17,90,0,0
75892,-100,4,2,4,90,0,0
75968,-100,4,2,4,90,0,0
75977,-100,4,2,5,90,0,0
76053,-100,4,2,5,90,0,0
76063,-100,4,2,2,90,0,0
76139,-100,4,2,2,90,0,0
76149,-100,4,2,1,85,0,0
76225,-100,4,2,1,85,0,0
76235,-100,4,2,5,85,0,0
76310,-100,4,2,5,85,0,0
76320,-100,4,2,4,85,0,0
76396,-100,4,2,4,85,0,0
76406,-100,4,2,1,85,0,0
76482,-100,4,2,1,85,0,0
76492,-100,4,2,1,80,0,0
76568,-166.666666666667,4,2,1,80,0,0
76653,-166.666666666667,4,2,1,80,0,0
76663,-166.666666666667,4,2,5,80,0,0
76739,-166.666666666667,4,2,5,80,0,0
76749,-166.666666666667,4,2,1,80,0,0
76825,-166.666666666667,4,2,1,80,0,0
76835,-166.666666666667,4,2,1,75,0,0
76910,-166.666666666667,4,2,1,75,0,0
76920,-166.666666666667,4,2,2,75,0,0
77177,340.909090909091,4,2,12,90,1,0
77177,-62.5,4,2,12,90,0,0
77510,-71.4285714285714,4,2,12,90,0,0
77517,-71.4285714285714,4,2,7,90,0,0
77853,-71.4285714285714,4,2,7,90,0,0
77858,-71.4285714285714,4,2,6,90,0,0
78196,-71.4285714285714,4,2,6,90,0,0
78199,-71.4285714285714,4,2,7,90,0,0
78370,-71.4285714285714,4,2,1,90,0,0
78540,342.857142857143,4,2,13,90,1,0
78540,-71.4285714285714,4,2,13,90,0,0
78882,-71.4285714285714,4,2,7,90,0,0
79053,-71.4285714285714,4,2,1,90,0,0
79225,-71.4285714285714,4,2,14,90,0,0
79396,-71.4285714285714,4,2,1,90,0,0
79568,-71.4285714285714,4,2,7,90,0,0
79739,-71.4285714285714,4,2,1,90,0,0
79910,-71.4285714285714,4,2,18,90,0,0
80082,-71.4285714285714,4,2,1,90,0,0
80253,-71.4285714285714,4,2,7,90,0,0
80425,-71.4285714285714,4,2,1,90,0,0
80596,-71.4285714285714,4,2,3,90,0,0
80939,-71.4285714285714,4,2,7,90,0,0
81282,-62.5,4,2,12,90,0,0
81368,-62.5,4,2,1,90,0,0
82396,-62.5,4,2,2,90,0,0
82482,-62.5,4,2,1,90,0,0
82653,-90.9090909090909,4,2,19,90,0,0
82825,-90.9090909090909,4,2,3,90,0,0
82996,-90.9090909090909,4,2,7,90,0,0
83168,-90.9090909090909,4,2,3,90,0,0
83339,-90.9090909090909,4,2,20,90,0,0
83510,-90.9090909090909,4,2,3,90,0,0
83682,-95.0570342205323,4,2,6,90,0,0
83853,-90.9090909090909,4,2,3,90,0,0
83854,375,4,2,3,90,1,0
84025,-90.9090909090909,4,2,3,90,0,0
84041,344.827586206897,4,2,16,90,1,0
84196,-90.9090909090909,4,2,16,90,0,0
84213,-90.9090909090909,4,2,1,60,0,0
85396,-90.9090909090909,4,2,1,60,0,0
85420,340.909090909091,4,2,1,50,1,0
87625,-90.9090909090909,4,2,1,50,0,0
87635,-90.9090909090909,4,2,1,55,0,0
87796,-90.9090909090909,4,2,1,55,0,0
87806,-90.9090909090909,4,2,1,60,0,0
87968,-90.9090909090909,4,2,1,60,0,0
87976,-90.9090909090909,4,2,3,70,0,0

[Colours]
Combo1 : 155,68,70
Combo2 : 216,219,224
Combo3 : 113,162,185

[HitObjects]
188,112,372,5,2,2:2:0:0:
357,313,696,5,2,2:2:0:0:
357,313,867,2,0,L|481:333,1,118.999996368408,2|0,2:2|0:0,0:0:0:0:
465,222,1381,21,2,2:2:0:0:
415,171,1553,2,0,P|357:187|315:226,1,118.999996368408,2|0,2:2|0:0,0:0:0:0:
146,278,2066,5,2,2:2:0:0:
146,278,2238,2,0,P|204:294|246:333,1,118.999996368408,2|0,2:2|0:0,0:0:0:0:
240,341,2752,21,2,2:2:0:0:
296,248,2924,1,2,2:2:0:0:
238,194,3095,6,0,L|225:66,1,118.999996368408
225,75,3612,1,2,2:2:0:0:
225,75,3784,1,2,2:2:0:0:
303,113,4129,21,2,2:2:0:0:
162,177,4301,1,2,2:2:0:0:
125,56,4474,6,0,P|82:41|67:18,1,59.4999981842042,2|0,2:2|0:0,0:0:0:0:
125,56,4819,1,0,0:0:0:0:
60,19,4991,2,0,P|7:35|-7:117,1,118.999996368408
59,245,5508,21,0,0:0:0:0:
138,208,5681,1,2,0:0:0:0:
138,208,5767,1,2,0:0:0:0:
138,208,5853,1,2,2:2:0:0:
484,313,6198,5,2,2:2:0:0:
484,313,6370,2,0,P|424:316|367:360,1,118.999996368408,2|0,2:2|0:0,0:0:0:0:
281,364,6888,21,2,2:2:0:0:
287,353,7060,1,2,2:2:0:0:
275,336,7232,1,0,0:0:0:0:
324,198,7402,6,0,L|319:163,2,29.7499990921021,0|0|2,0:0|0:0|2:2,0:0:0:0:
398,225,7744,2,0,B|448:199|448:199|421:126,1,118.999996368408,2|0,2:2|0:0,0:0:0:0:
378,13,8257,1,2,2:2:0:0:
281,89,8428,21,2,2:2:0:0:
281,89,8599,2,0,P|226:76|202:65,1,59.4999981842042
129,153,8941,1,0,0:0:0:0:
1,81,9112,2,0,P|63:70|128:161,1,178.499994552612,2|2,2:2|2:2,0:0:0:0:
68,344,9949,6,0,L|3:355,1,59.4999981842042,2|0,2:2|0:0,0:0:0:0:
119,273,10301,1,0,0:0:0:0:
13,230,10478,2,0,P|51:260|138:270,1,118.999996368408
274,362,11007,22,0,B|263:319|263:319|287:279|287:279|268:211,1,152.999995330811,0|2,0:0|1:2,0:0:0:0:
270,219,11669,5,2,1:2:0:0:
342,53,11843,1,2,2:2:0:0:
341,125,12017,2,0,B|329:87|329:87|351:28,1,76.4999976654053,2|0,1:3|0:0,0:0:0:0:
512,193,12359,2,0,L|378:220,1,114.749996498108,2|0,1:2|0:0,0:0:0:0:
388,222,12702,1,2,1:3:0:0:
494,353,12873,21,2,0:0:0:0:
494,353,12959,1,2,0:0:0:0:
494,353,13044,2,0,P|455:339|399:334,1,76.4999976654053,2|2,1:2|2:2,0:0:0:0:
270,219,13387,2,0,B|287:256|287:256|276:306,1,76.4999976654053,2|0,1:3|0:0,0:0:0:0:
69,368,13730,2,0,B|52:331|52:331|63:281,1,76.4999976654053,2|2,1:2|2:2,0:0:0:0:
105,164,14073,6,0,B|178:185|178:185|164:232|155:286,1,152.999995330811,2|2,1:3|1:2,0:0:0:0:
105,164,14587,1,2,2:2:0:0:
288,34,14759,2,0,L|194:52,1,76.4999976654053,2|0,1:3|0:0,0:0:0:0:
141,62,15016,1,2,0:0:0:0:
132,65,15102,1,2,1:2:0:0:
282,174,15273,2,0,L|289:132,2,38.2499988327027,2|0|2,2:2|0:0|1:2,0:0:0:0:
407,63,15616,21,0,0:0:0:0:
451,128,15787,2,0,B|516:96|516:96|482:14,1,152.999995330811,2|2,1:3|1:3,0:0:0:0:
373,178,16302,1,0,0:0:0:0:
273,247,16473,2,0,P|297:182|387:189,1,152.999995330811,2|6,1:3|1:2,0:0:0:0:
375,200,17168,5,10,1:2:0:0:
361,188,17340,1,10,2:2:0:0:
335,172,17512,1,8,1:2:0:0:
281,165,17685,1,8,2:2:0:0:
215,192,17857,1,10,1:2:0:0:
158,245,18030,1,10,2:2:0:0:
83,263,18202,1,8,1:2:0:0:
9,239,18374,1,8,2:2:0:0:
12,219,18546,21,10,1:2:0:0:
178,322,18719,1,10,2:2:0:0:
209,173,18891,5,8,1:2:0:0:
18,338,19064,1,8,2:2:0:0:
107,46,19236,22,0,B|91:87|91:87|108:138,1,85,8|8,1:2|2:2,0:0:0:0:
260,273,19581,5,8,1:2:0:0:
268,262,19664,1,8,2:3:0:0:
293,249,19748,1,4,2:3:0:0:
340,261,19832,1,4,2:3:0:0:
360,285,19916,1,8,1:2:0:0:
406,303,19999,1,8,2:3:0:0:
434,295,20083,1,4,2:3:0:0:
458,275,20167,21,4,2:3:0:0:
458,275,20251,2,0,B|449:246|449:246|455:211|455:211|442:172,1,101.999996887207,8|8,1:2|2:2,0:0:0:0:
327,22,20502,5,8,2:2:0:0:
333,39,20586,2,0,B|313:45|313:45|288:73,1,50.9999984436036,8|8,2:2|2:2,0:0:0:0:
226,135,20754,21,8,2:2:0:0:
272,171,20837,5,8,2:2:0:0:
341,181,20921,21,2,1:2:0:0:
341,181,22129,5,8,2:2:0:0:
192,359,22289,2,0,B|204:319|204:319|178:253,1,85,6|2,1:2|1:2,0:0:0:0:
58,213,22637,1,10,2:2:0:0:
122,141,22812,21,2,2:2:0:0:
122,141,22899,1,2,0:0:0:0:
122,141,22986,2,0,B|161:128|161:128|149:172|149:172|33:223,1,187.000005706787,2|10,2:2|2:2,0:0:0:0:
51,309,23509,5,2,2:2:0:0:
56,331,23597,1,2,0:0:0:0:
59,344,23684,1,2,1:2:0:0:
206,262,23855,22,0,L|292:274,1,85,2|10,1:2|2:2,0:0:0:0:
419,357,24198,2,0,L|409:313,2,42.5,2|0|2,2:2|0:0|2:2,0:0:0:0:
308,292,24541,2,0,B|257:266|217:304|217:304|196:362|130:356,1,187.000005706787,2|2,1:2|2:2,0:0:0:0:
19,254,24969,5,2,0:0:0:0:
19,254,25055,2,0,B|116:273|116:273|108:178,1,170,2|10,1:2|2:2,0:0:0:0:
44,79,25569,21,2,2:2:0:0:
40,101,25655,1,2,0:0:0:0:
37,116,25741,1,2,2:2:0:0:
138,26,25912,5,2,1:2:0:0:
249,119,26084,1,10,2:2:0:0:
138,26,26255,2,0,P|189:27|195:150,1,170,2|2,2:2|1:2,0:0:0:0:
288,283,26769,21,10,2:2:0:0:
299,290,26855,2,0,B|324:295|324:295|352:319|352:319|384:326,1,85,2|0,2:2|0:0,0:0:0:0:
444,278,27112,6,0,B|464:320|464:320|448:364,1,93.5000028533936,6|10,1:2|2:2,0:0:0:0:
448,364,27358,1,8,2:2:0:0:
448,364,27440,1,10,2:2:0:0:
443,138,27605,21,10,2:2:0:0:
426,137,27687,1,8,2:2:0:0:
410,136,27769,2,0,B|408:118|420:93|420:93|374:132|374:132|383:175|355:231,1,187.000005706787,6|10,1:2|2:2,0:0:0:0:
355,220,28401,5,8,0:0:0:0:
355,220,28486,2,0,P|329:191|296:185,1,68,2|0,2:2|1:1,0:0:0:0:
294,99,28829,2,0,P|236:102|180:174,1,136,8|2,2:2|1:3,0:0:0:0:
233,314,29343,21,2,1:2:0:0:
190,370,29514,2,0,B|131:353|131:353|150:265,1,136,10|2,2:2|2:2,0:0:0:0:
48,193,30029,2,0,L|39:145,2,34,2|0|10,1:2|0:0|2:2,0:0:0:0:
22,302,30372,5,0,1:1:0:0:
40,297,30457,1,0,1:1:0:0:
53,295,30543,1,2,1:3:0:0:
209,128,30714,21,2,1:2:0:0:
100,94,30886,2,0,B|173:78|173:78|188:110|215:133,1,136,10|2,2:2|2:2,0:0:0:0:
329,72,31400,2,0,L|255:58,1,68,2|10,1:2|2:2,0:0:0:0:
133,185,31743,5,2,1:2:0:0:
144,197,31829,1,0,1:1:0:0:
153,208,31914,2,0,B|254:184|223:262|327:244,1,170,2|10,1:3|2:2,0:0:0:0:
304,159,32429,21,2,2:2:0:0:
304,159,32514,1,2,0:0:0:0:
304,159,32600,1,2,2:2:0:0:
186,292,32772,1,2,1:2:0:0:
393,374,32943,2,0,B|382:341|382:341|405:287,1,68,10|2,2:2|2:2,0:0:0:0:
439,218,33200,5,2,0:0:0:0:
427,231,33286,2,0,B|365:216|365:216|341:251|312:283,1,136,2|8,1:3|2:2,0:0:0:0:
269,368,33800,2,0,L|262:327,2,34,2|0|2,2:2|0:0|2:3,0:0:0:0:
133,236,34143,21,2,1:2:0:0:
13,366,34314,2,0,B|96:337|96:337|52:236,1,170,8|2,2:2|1:3,0:0:0:0:
179,313,34814,5,2,1:2:0:0:
226,213,34985,1,10,2:2:0:0:
156,166,35157,21,2,2:2:0:0:
212,125,35328,1,2,2:2:0:0:
203,108,35500,1,2,1:2:0:0:
102,79,35671,6,0,L|29:96,1,68,10|2,2:2|2:2,0:0:0:0:
24,16,35928,21,2,0:0:0:0:
35,12,36014,2,0,B|86:-3|116:27|116:27|135:70|182:79,1,170,2|8,1:3|2:2,0:0:0:0:
341,200,36528,2,0,B|326:160|326:160|342:115,1,85,2|2,2:2|2:3,0:0:0:0:
291,64,36871,1,0,1:1:0:0:
331,214,37043,6,0,B|232:194|271:276|151:260,1,170,8|6,2:2|1:2,0:0:0:0:
182,236,37723,21,10,2:2:0:0:
163,254,37808,1,8,0:0:0:0:
161,267,37893,2,0,P|172:301|176:325,1,42.5,8|8,2:2|2:2,0:0:0:0:
104,366,38062,6,0,B|31:340|31:340|62:293|61:222,1,165.749992412568,6|0,1:2|0:0,0:0:0:0:
59,257,38401,21,10,2:2:0:0:
256,362,38571,1,8,2:2:0:0:
104,184,38740,6,0,B|27:151|62:46|152:54|121:102,1,191.250007295609,6|0,1:2|1:1,0:0:0:0:
104,184,39085,1,10,2:2:0:0:
382,88,39258,2,0,B|333:75|301:45|301:45|290:96|250:128,1,170,2|2,1:2|1:2,0:0:0:0:
214,42,39777,1,10,2:2:0:0:
333,170,39950,21,2,2:2:0:0:
331,194,40036,1,2,0:0:0:0:
330,207,40123,1,2,1:2:0:0:
186,190,40296,6,0,P|218:202|248:204,1,42.5,0|0,1:1|1:1,0:0:0:0:
413,258,40469,2,0,P|399:289|400:313,1,42.5,10|0,2:2|0:0,0:0:0:0:
421,314,40642,2,0,B|331:285|345:364|241:345,1,170,2|2,1:2|1:2,0:0:0:0:
98,249,41160,1,10,2:2:0:0:
148,363,41333,21,2,2:2:0:0:
148,363,41420,1,2,0:0:0:0:
148,363,41506,2,0,B|174:278|174:278|136:272|97:249,1,170,2|10,1:3|2:2,0:0:0:0:
25,323,42020,2,0,L|35:367,2,42.5,2|0|2,1:2|0:0|2:2,0:0:0:0:
176,189,42363,5,2,1:2:0:0:
31,98,42534,1,10,2:2:0:0:
159,0,42706,2,0,B|139:39|139:39|156:98,1,85,2|2,2:2|1:3,0:0:0:0:
76,211,43048,21,2,1:2:0:0:
81,187,43134,1,0,1:1:0:0:
85,169,43220,1,10,2:2:0:0:
337,307,43391,2,0,P|279:318|249:340,1,85,2|2,2:2|1:3,0:0:0:0:
242,140,43734,5,10,2:2:0:0:
257,121,43820,1,8,2:3:0:0:
298,103,43906,1,6,2:3:0:0:
339,111,43991,1,4,2:3:0:0:
388,148,44077,1,10,2:2:0:0:
439,153,44163,1,8,2:2:0:0:
459,130,44248,22,0,B|432:113|432:113|387:131|387:131|367:190|300:189,1,178.499994552612,6|0,1:2|0:0,0:0:0:0:
308,208,44598,1,10,2:2:0:0:
386,42,44774,5,0,1:1:0:0:
377,34,44862,1,0,1:1:0:0:
390,31,44949,1,10,2:2:0:0:
412,238,45125,21,2,1:2:0:0:
425,331,45300,2,0,B|387:361|387:361|370:314|370:314|407:281|416:215,1,187.000005706787,10|6,2:2|1:2,0:0:0:0:
269,335,45821,5,0,1:1:0:0:
231,308,45907,1,0,1:1:0:0:
190,307,45992,1,10,2:2:0:0:
154,337,46078,1,8,0:0:0:0:
91,363,46163,1,0,1:1:0:0:
64,359,46249,1,0,1:1:0:0:
35,335,46334,2,0,B|41:305|41:305|61:278|61:278|67:229,1,93.5000028533936,10|2,2:2|1:2,0:0:0:0:
213,52,46676,1,10,2:2:0:0:
26,109,46847,21,6,2:3:0:0:
26,122,46933,1,4,2:3:0:0:
35,121,47018,2,0,B|136:99|102:181|216:164,1,178.499994552612,6|0,1:2|0:0,0:0:0:0:
211,177,47360,1,10,2:2:0:0:
412,111,47532,6,0,B|397:69|397:69|417:17,1,93.5000028533936,0|2,1:1|1:2,0:0:0:0:
330,212,47875,1,2,1:2:0:0:
487,307,48046,2,0,P|435:316|381:348,1,93.5000028533936,10|2,2:2|2:2,0:0:0:0:
248,335,48379,21,14,2:2:0:0:
426,217,48548,1,8,2:2:0:0:
254,122,48717,1,0,1:1:0:0:
433,15,48886,5,12,2:2:0:0:
317,234,49055,2,0,B|223:205|223:205|241:167|258:111,1,187.000005706787,10|12,2:2|2:2,0:0:0:0:
317,234,49745,21,6,1:2:0:0:
485,38,55212,5,2,1:3:0:0:
317,93,55386,1,0,1:1:0:0:
485,38,55561,2,0,B|425:51|382:39|382:39|408:79|399:126,1,187.000005706787,10|2,2:2|2:3,0:0:0:0:
307,230,56086,21,2,1:2:0:0:
411,379,56261,2,0,B|396:338|396:338|422:278,1,93.5000028533936,10|2,2:2|2:2,0:0:0:0:
307,230,56611,6,0,B|406:207|371:304|500:280,1,187.000005706787,2|10,1:3|2:2,0:0:0:0:
470,186,57131,1,2,2:2:0:0:
458,181,57217,1,2,0:0:0:0:
470,174,57304,1,2,2:3:0:0:
302,333,57473,1,2,1:2:0:0:
218,122,57642,2,0,B|184:114|184:114|159:94|159:94|115:85,1,93.5000028533936,10|2,2:2|2:2,0:0:0:0:
24,201,57981,22,0,B|113:182|113:182|125:239|142:301,1,187.000005706787,2|8,1:3|2:2,0:0:0:0:
24,201,58492,1,0,1:1:0:0:
196,379,58662,5,2,1:3:0:0:
48,289,58833,1,0,1:1:0:0:
200,207,59003,1,8,2:2:0:0:
149,290,59174,21,2,2:2:0:0:
240,74,59344,5,10,1:2:0:0:
252,98,59429,1,8,2:2:0:0:
264,106,59515,2,0,P|301:113|331:133,1,46.7500014266968,8|8,2:2|2:2,0:0:0:0:
472,278,59686,22,0,B|443:280|443:280|405:300,1,46.7500014266968,10|8,1:2|2:2,0:0:0:0:
381,349,59858,1,2,1:2:0:0:
381,349,60715,5,6,1:2:0:0:
40,31,63458,21,2,2:2:0:0:
110,68,63629,5,0,0:0:0:0:
115,65,63715,1,0,0:0:0:0:
120,62,63801,1,2,2:2:0:0:
176,134,63972,21,0,0:0:0:0:
171,131,64058,1,0,0:0:0:0:
166,128,64144,1,2,2:2:0:0:
240,178,64315,5,0,0:0:0:0:
245,175,64401,1,0,0:0:0:0:
250,172,64486,1,2,2:3:0:0:
314,238,64658,21,0,0:0:0:0:
309,235,64744,1,0,0:0:0:0:
304,232,64829,2,0,L|396:251,1,76.4999976654053,2|0,1:2|0:0,0:0:0:0:
78,331,65172,2,0,L|-14:350,1,76.4999976654053,2|2,1:2|2:2,0:0:0:0:
235,381,65515,6,0,B|230:363|230:363|236:338|236:338|224:297,1,59.4999981842042,8|8,2:2|2:2,0:0:0:0:
136,246,65686,21,10,2:2:0:0:
156,196,65772,5,8,2:2:0:0:
165,131,65858,21,8,2:2:0:0:
17,64,66201,22,0,B|57:55|57:55|90:77|90:77|109:136|188:130,1,178.499994552612,6|0,1:2|0:0,0:0:0:0:
182,49,66544,2,0,B|205:25|205:25|161:36,1,59.4999981842042,10|0,2:2|0:0,0:0:0:0:
38,188,66715,5,0,1:1:0:0:
50,200,66801,1,0,1:1:0:0:
35,204,66886,1,2,1:2:0:0:
222,274,67058,21,0,1:1:0:0:
117,341,67229,2,0,B|141:251|141:251|181:268|229:275,1,178.499994552612,10|0,2:2|0:0,0:0:0:0:
230,365,67572,6,0,B|198:373|198:373|232:351,1,59.4999981842042,6|0,1:2|0:0,0:0:0:0:
324,130,67744,21,0,1:1:0:0:
343,139,67829,1,0,1:1:0:0:
354,144,67915,2,0,B|340:187|340:187|304:223|304:223|318:266|310:306,1,178.499994552612,10|0,2:2|0:0,0:0:0:0:
333,304,68258,5,6,1:2:0:0:
225,174,68429,1,0,1:1:0:0:
383,46,68601,22,0,B|414:46|414:46|455:21,1,59.4999981842042,10|0,2:2|0:0,0:0:0:0:
441,246,68772,2,0,B|456:220|456:220|449:182,1,59.4999981842042
490,88,68944,6,0,B|392:64|415:148|301:126,1,178.499994552612,6|0,1:2|0:0,0:0:0:0:
495,90,69282,1,10,2:2:0:0:
53,230,69537,21,8,0:0:0:0:
53,230,69621,2,0,B|136:249|136:249|107:355,1,178.499994552612,2|0,1:2|0:0,0:0:0:0:
23,348,69960,6,0,B|12:314|12:314|45:345,1,59.4999981842042,10|0,2:2|0:0,0:0:0:0:
180,178,70130,1,0,0:0:0:0:
20,353,70299,22,0,B|62:326|62:326|116:346|116:346|146:397|211:379,1,204,14|8,1:2|2:2,0:0:0:0:
215,263,70639,5,10,2:2:0:0:
209,289,70725,1,8,2:2:0:0:
217,299,70810,2,0,B|247:299|247:299|282:325,1,59.4999981842042,10|8,1:2|2:2,0:0:0:0:
383,384,70980,21,8,2:2:0:0:
415,346,71066,1,8,2:2:0:0:
409,308,71153,1,10,2:2:0:0:
385,292,71240,1,8,2:3:0:0:
364,306,71326,1,4,2:3:0:0:
372,318,71413,1,4,2:3:0:0:
416,288,71500,5,10,2:2:0:0:
428,221,71586,1,8,2:2:0:0:
378,161,71673,22,0,B|286:174|286:174|301:215|304:302,1,178.499994552612,6|0,1:2|0:0,0:0:0:0:
378,161,72015,1,10,2:2:0:0:
110,34,72187,5,0,1:1:0:0:
112,53,72273,1,0,1:1:0:0:
120,45,72358,2,0,B|223:24|184:106|317:81,1,178.499994552612,2|0,1:2|0:0,0:0:0:0:
294,11,72701,2,0,B|261:18|261:18|230:50,1,59.4999981842042,10|0,2:2|0:0,0:0:0:0:
159,138,72873,21,2,2:2:0:0:
74,164,73044,1,6,1:2:0:0:
213,309,73217,5,2,1:2:0:0:
345,332,73391,1,10,2:2:0:0:
298,206,73565,21,2,2:2:0:0:
289,215,73652,1,2,0:0:0:0:
302,222,73739,1,2,1:3:0:0:
129,384,73913,6,0,B|117:363|117:363|129:316,1,59.4999981842042,2|0,1:2|0:0,0:0:0:0:
58,251,74087,2,0,B|109:232|143:263|143:263|168:315|229:307,1,178.499994552612,10|0,2:2|0:0,0:0:0:0:
272,361,74435,21,6,1:2:0:0:
456,251,74606,1,2,1:2:0:0:
419,368,74777,5,10,2:2:0:0:
361,334,74863,1,8,2:2:0:0:
335,292,74949,1,4,2:3:0:0:
339,256,75035,1,4,2:3:0:0:
363,231,75120,1,6,1:2:0:0:
393,179,75206,1,0,1:1:0:0:
376,134,75292,1,0,1:1:0:0:
346,119,75377,1,0,1:1:0:0:
346,119,75463,22,0,B|260:79|191:174|240:234|292:174,1,204,10|4,2:2|2:3,0:0:0:0:
277,187,75806,5,6,1:2:0:0:
277,187,75892,2,0,P|225:194|185:223,1,85,10|8,2:3|2:3,0:0:0:0:
23,17,76149,21,2,1:2:0:0:
23,17,76235,2,0,P|75:24|115:53,1,85,10|8,2:3|2:3,0:0:0:0:
141,105,76492,5,2,1:2:0:0:
150,113,76577,2,0,L|158:154,1,25.4999992218018,4|6,2:3|2:3,0:0:0:0:
47,164,76749,22,0,L|39:205,1,25.4999992218018,4|2,2:3|1:2,0:0:0:0:
190,240,76920,6,0,L|198:281,1,25.4999992218018,4|4,2:3|2:3,0:0:0:0:
46,295,77092,21,4,2:3:0:0:
36,309,77177,2,0,B|158:286|107:386|252:362,1,204,6|0,1:2|0:0,0:0:0:0:
415,250,77517,6,0,B|331:232|331:232|314:287|293:343,1,178.499994552612,10|0,2:2|0:0,0:0:0:0:
385,355,77858,2,0,B|406:371|406:371|392:318,1,59.4999981842042,2|0,1:2|0:0,0:0:0:0:
256,174,78029,21,0,1:1:0:0:
329,22,78199,2,0,B|350:50|350:50|345:90,1,59.4999981842042,10|0,2:2|0:0,0:0:0:0:
422,151,78370,5,0,1:1:0:0:
415,133,78455,1,0,1:1:0:0:
410,116,78540,2,0,B|359:97|325:128|325:128|300:180|239:172,1,178.499994552612,6|0,1:2|0:0,0:0:0:0:
169,64,78882,2,0,B|186:70|186:70|208:85|208:85|230:91,1,59.4999981842042,10|0,2:2|0:0,0:0:0:0:
329,234,79054,21,2,2:2:0:0:
196,319,79225,1,6,1:2:0:0:
206,232,79397,5,2,1:2:0:0:
327,349,79568,1,10,2:2:0:0:
206,232,79740,1,2,2:2:0:0:
12,345,79911,22,0,B|63:348|110:313|110:313|111:354|141:384,1,178.499994552612,6|0,1:2|0:0,0:0:0:0:
196,319,80254,2,0,B|210:324|210:324|225:342|225:342|257:355,1,59.4999981842042,10|0,2:2|0:0,0:0:0:0:
42,194,80425,5,0,1:1:0:0:
42,218,80511,1,0,1:1:0:0:
39,234,80597,1,2,1:3:0:0:
164,110,80768,1,0,1:1:0:0:
206,232,80940,22,0,B|131:202|131:202|171:92,1,178.499994552612,10|0,2:2|0:0,0:0:0:0:
87,58,81282,6,0,B|117:42|117:42|162:58|162:58|175:89|175:89|221:111|221:111|282:91,1,204,14|8,1:2|2:2,0:0:0:0:
346,102,81625,21,10,2:2:0:0:
367,129,81711,1,8,2:2:0:0:
357,151,81797,2,0,B|339:156|339:156|314:177|314:177|289:185,1,68,10|8,1:2|2:2,0:0:0:0:
227,26,81968,5,8,2:2:0:0:
250,24,82054,1,8,2:2:0:0:
272,53,82140,1,10,2:2:0:0:
256,88,82225,1,8,2:3:0:0:
208,119,82311,1,4,2:3:0:0:
194,161,82397,1,4,2:3:0:0:
212,222,82482,1,10,2:2:0:0:
278,258,82568,1,8,2:2:0:0:
278,258,82654,22,0,B|181:244|199:316|83:305,1,187.000005706787,6|10,1:2|2:2,0:0:0:0:
99,201,83168,1,2,2:2:0:0:
14,180,83340,2,0,B|57:208|57:208|126:195,1,93.5000028533936,6|2,1:2|2:2,0:0:0:0:
124,43,83682,2,0,B|122:25|134:0|134:0|88:39|88:39|97:82|71:134,1,187.000005706787,10|6,2:2|1:2,0:0:0:0:
77,119,85420,21,2,2:2:0:0:
114,135,85590,1,0,0:0:0:0:
195,129,85760,1,2,2:2:0:0:
258,163,85931,21,0,0:0:0:0:
163,210,86101,5,2,2:2:0:0:
144,237,86272,1,0,0:0:0:0:
186,297,86442,1,0,0:0:0:0:
258,260,86613,1,2,2:2:0:0:
163,320,86783,21,0,0:0:0:0:
94,339,86954,1,2,2:2:0:0:
291,341,87124,5,0,0:0:0:0:
356,365,87295,1,0,0:0:0:0:
215,378,87465,21,2,2:2:0:0:
330,273,87635,5,2,2:2:0:0:
185,201,87806,21,2,2:2:0:0:
305,82,87976,5,2,1:2:0:0:
