osu file format v14

[General]
AudioFilename: audio.ogg
AudioLeadIn: 0
PreviewTime: 66110
Countdown: 0
SampleSet: Soft
StackLeniency: 0.6
Mode: 0
LetterboxInBreaks: 0
WidescreenStoryboard: 1

[Editor]
Bookmarks: 11339,22310,27796,38768,44253,49739,55225,60710,66196,85396
DistanceSpacing: 1
BeatDivisor: 2
GridSize: 16
TimelineZoom: 1.5

[Metadata]
Title:abnormalize (TV Size)
TitleUnicode:abnormalize (TV Size)
Artist:Ling tosite sigure
ArtistUnicode:凛として時雨
Creator:muya-
Version:normal
Source:PSYCHO-PASS
Tags:サイコパス opening intro theme song anime animation japanese rock jrock j-rock shueisha tsunemori akane shinya kougami production i.g cyberpunk Tōru Toru Touru TK Kitajima Miyoko 345 Nakamura Masatoshi Pierre Nakano dkblaze airincat sajinn
BeatmapID:4137262
BeatmapSetID:1990496

[Difficulty]
HPDrainRate:3
CircleSize:3.4
OverallDifficulty:4
ApproachRate:5
SliderMultiplier:1.1
SliderTickRate:1

[Events]
//Background and Video events
Video,-1350,"Abnormalize.mp4"
0,0,"jgfjhgfhf.jpg",0,0
//Break Periods
2,49945,54012
//Storyboard Layer 0 (Background)
//Storyboard Layer 1 (Fail)
//Storyboard Layer 2 (Pass)
//Storyboard Layer 3 (Foreground)
//Storyboard Layer 4 (Overlay)
//Storyboard Sound Samples

[TimingPoints]
372,324.324324324324,4,2,1,50,1,0
372,-134.770889487871,4,2,1,50,0,0
696,342.857142857143,4,2,1,50,1,0
1724,342.857142857143,4,2,1,50,1,0
1724,-111.111111111111,4,2,1,50,0,0
3095,344.827586206897,4,2,1,50,1,0
3095,-111.111111111111,4,2,1,50,0,0
7232,341.880341880342,4,2,1,50,1,0
7232,-111.111111111111,4,2,1,50,0,0
9625,324.324324324324,4,2,1,50,1,0
9949,352.941176470588,4,2,1,50,1,0
9949,-111.111111111111,4,2,1,50,0,0
11007,315.789473684211,4,2,1,50,1,0
11322,347.826086956522,4,2,2,60,1,0
11322,-111.111111111111,4,2,2,60,0,0
11843,-110.497237569061,4,2,1,60,0,0
12017,342.857142857143,4,2,1,60,1,0
12359,-100,4,2,2,60,0,0
12368,-111.111111111111,4,2,2,60,0,0
12531,-111.111111111111,4,2,1,60,0,0
12539,-111.111111111111,4,2,1,60,0,0
12702,342.857142857143,4,2,1,60,1,0
13044,-100,4,2,2,60,0,0
13053,-111.111111111111,4,2,2,60,0,0
13216,-111.111111111111,4,2,1,60,0,0
13225,-111.111111111111,4,2,1,60,0,0
13730,-111.111111111111,4,2,2,60,0,0
13739,-111.111111111111,4,2,2,60,0,0
13902,-111.111111111111,4,2,1,60,0,0
13910,-111.111111111111,4,2,1,60,0,0
14416,-111.111111111111,4,2,2,60,0,0
14425,-111.111111111111,4,2,2,60,0,0
14587,-111.111111111111,4,2,1,60,0,0
14596,-111.111111111111,4,2,1,60,0,0
15102,-111.111111111111,4,2,2,60,0,0
15110,-111.111111111111,4,2,2,60,0,0
15273,-111.111111111111,4,2,1,60,0,0
15282,-111.111111111111,4,2,1,60,0,0
15444,-111.111111111111,4,2,2,60,0,0
15453,-111.111111111111,4,2,2,60,0,0
15787,-111.111111111111,4,2,1,60,0,0
15796,-111.111111111111,4,2,1,60,0,0
16644,-111.111111111111,4,2,2,60,0,0
16653,-111.111111111111,4,2,2,60,0,0
16816,352.941176470588,4,2,1,70,1,0
16825,-111.111111111111,4,2,1,70,0,0
17168,344.827586206897,4,2,1,70,1,0
17168,-111.111111111111,4,2,1,70,0,0
18202,344.827586206897,4,2,1,75,1,0
18202,-111.111111111111,4,2,1,75,0,0
19568,-111.111111111111,4,2,1,75,0,0
19581,335.195530726257,4,2,1,80,1,0
19581,-111.111111111111,4,2,1,80,0,0
19825,-111.111111111111,4,2,1,80,0,0
19832,-111.111111111111,4,2,2,80,0,0
19910,-111.111111111111,4,2,2,80,0,0
19916,-111.111111111111,4,2,1,80,0,0
20168,-111.111111111111,4,2,2,80,0,0
20253,-111.111111111111,4,2,3,80,0,0
20921,363.636363636364,4,2,3,80,1,0
21284,342.857142857143,4,2,3,80,1,0
21969,320.855614973262,4,2,3,80,1,0
22289,348.837209302326,4,2,2,80,1,0
22289,-111.111111111111,4,2,2,80,0,0
22376,-111.111111111111,4,2,1,80,0,0
22396,-111.111111111111,4,2,1,80,0,0
22986,-111.111111111111,4,2,2,80,0,0
22996,-111.111111111111,4,2,2,80,0,0
23161,-111.111111111111,4,2,1,80,0,0
23168,-111.111111111111,4,2,1,80,0,0
23682,-111.111111111111,4,2,2,80,0,0
23684,342.857142857143,4,2,2,80,1,0
23684,-111.111111111111,4,2,2,80,0,0
23769,-111.111111111111,4,2,1,80,0,0
24368,-111.111111111111,4,2,2,80,0,0
24539,-111.111111111111,4,2,1,80,0,0
25053,-111.111111111111,4,2,2,80,0,0
25139,-111.111111111111,4,2,1,80,0,0
25739,-111.111111111111,4,2,2,80,0,0
25910,-111.111111111111,4,2,1,80,0,0
26425,-111.111111111111,4,2,2,80,0,0
26510,-111.111111111111,4,2,1,80,0,0
27110,-111.111111111111,4,2,2,80,0,0
27112,328.767123287671,4,2,2,80,1,0
27112,-111.111111111111,4,2,2,80,0,0
27276,-111.111111111111,4,2,1,80,0,0
27769,375,4,2,4,70,1,0
27769,-111.111111111111,4,2,4,70,0,0
27956,-111.111111111111,4,2,1,70,0,0
27968,-111.111111111111,4,2,1,70,0,0
28144,342.857142857143,4,2,1,70,1,0
28482,-111.111111111111,4,2,1,70,0,0
28486,-111.111111111111,4,2,2,70,0,0
28739,-111.111111111111,4,2,2,70,0,0
28744,-111.111111111111,4,2,1,70,0,0
29172,342.857142857143,4,2,1,70,1,0
29343,-111.111111111111,4,2,1,70,0,0
29853,-111.111111111111,4,2,1,70,0,0
29857,-111.111111111111,4,2,2,70,0,0
30025,-111.111111111111,4,2,2,70,0,0
30029,-111.111111111111,4,2,1,70,0,0
31225,-111.111111111111,4,2,1,70,0,0
31229,-111.111111111111,4,2,2,70,0,0
31396,-111.111111111111,4,2,2,70,0,0
31400,-111.111111111111,4,2,1,70,0,0
32596,-111.111111111111,4,2,1,70,0,0
32600,-111.111111111111,4,2,2,70,0,0
32768,-111.111111111111,4,2,2,70,0,0
32772,-111.111111111111,4,2,1,70,0,0
34143,-107.758620689655,4,2,1,70,0,0
34314,329.67032967033,4,2,1,70,1,0
34643,342.857142857143,4,2,1,70,1,0
35328,-111.111111111111,4,2,2,70,0,0
35500,-111.111111111111,4,2,1,70,0,0
35510,-111.111111111111,4,2,1,70,0,0
37385,338.983050847458,4,2,5,80,1,0
37396,-111.111111111111,4,2,5,80,0,0
37723,-111.111111111111,4,2,1,80,0,0
37739,-111.111111111111,4,2,1,80,0,0
38062,-111.111111111111,4,2,5,80,0,0
38082,-111.111111111111,4,2,5,80,0,0
38401,-111.111111111111,4,2,1,80,0,0
38425,-111.111111111111,4,2,1,80,0,0
38740,345.821325648415,4,2,6,75,1,0
38768,-99.9999999999999,4,2,6,75,0,0
39085,-99.9999999999999,4,2,7,75,0,0
39110,-99.9999999999999,4,2,7,75,0,0
39258,-99.9999999999999,4,2,1,75,0,0
39282,-99.9999999999999,4,2,1,75,0,0
39431,-99.9999999999999,4,2,3,75,0,0
39453,-99.9999999999999,4,2,3,75,0,0
39604,-99.9999999999999,4,2,1,75,0,0
39625,-99.9999999999999,4,2,1,75,0,0
39777,-99.9999999999999,4,2,7,75,0,0
39796,-99.9999999999999,4,2,7,75,0,0
39950,-99.9999999999999,4,2,1,75,0,0
39968,-99.9999999999999,4,2,1,75,0,0
40123,-99.9999999999999,4,2,6,75,0,0
40139,-99.9999999999999,4,2,6,75,0,0
40642,-99.9999999999999,4,2,1,75,0,0
40653,-99.9999999999999,4,2,1,75,0,0
40814,-99.9999999999999,4,2,3,75,0,0
40825,-99.9999999999999,4,2,3,75,0,0
40987,-99.9999999999999,4,2,1,75,0,0
40996,-99.9999999999999,4,2,1,75,0,0
41160,-99.9999999999999,4,2,7,75,0,0
41168,-99.9999999999999,4,2,7,75,0,0
41333,-99.2063492063492,4,2,1,75,0,0
41506,342.857142857143,4,2,3,75,1,0
41510,-111.111111111111,4,2,3,75,0,0
41848,-111.111111111111,4,2,7,75,0,0
41853,-111.111111111111,4,2,7,75,0,0
42020,-111.111111111111,4,2,1,75,0,0
42025,-111.111111111111,4,2,1,75,0,0
42191,-111.111111111111,4,2,6,75,0,0
42196,-111.111111111111,4,2,6,75,0,0
42363,-111.111111111111,4,2,1,75,0,0
42368,-111.111111111111,4,2,1,75,0,0
42534,-111.111111111111,4,2,6,75,0,0
42539,-111.111111111111,4,2,6,75,0,0
42706,-111.111111111111,4,2,1,75,0,0
42710,-111.111111111111,4,2,1,75,0,0
42877,-111.111111111111,4,2,3,75,0,0
42882,-111.111111111111,4,2,3,75,0,0
43048,-111.111111111111,4,2,1,75,0,0
43053,-111.111111111111,4,2,1,75,0,0
43220,-111.111111111111,4,2,7,75,0,0
43225,-111.111111111111,4,2,7,75,0,0
43391,-111.111111111111,4,2,1,75,0,0
43396,-111.111111111111,4,2,1,75,0,0
43563,-111.111111111111,4,2,3,75,0,0
43568,-111.111111111111,4,2,3,75,0,0
43734,-111.111111111111,4,2,1,75,0,0
43739,-111.111111111111,4,2,1,75,0,0
43906,-111.111111111111,4,2,3,75,0,0
43910,-111.111111111111,4,2,3,75,0,0
43991,-111.111111111111,4,2,2,75,0,0
43996,-111.111111111111,4,2,2,75,0,0
44077,-111.111111111111,4,2,1,75,0,0
44082,-111.111111111111,4,2,1,75,0,0
44248,350.877192982456,4,2,3,80,1,0
44253,-111.111111111111,4,2,3,80,0,0
45110,-111.111111111111,4,2,3,80,0,0
45125,-111.111111111111,4,2,1,80,0,0
45282,-111.111111111111,4,2,1,80,0,0
45300,-111.111111111111,4,2,3,80,0,0
45453,-111.111111111111,4,2,3,80,0,0
45476,-111.111111111111,4,2,1,80,0,0
45651,341.880341880342,4,2,8,80,1,0
45651,-111.111111111111,4,2,8,80,0,0
46482,-111.111111111111,4,2,8,80,0,0
46505,-111.111111111111,4,2,1,80,0,0
46653,-111.111111111111,4,2,1,80,0,0
46676,-111.111111111111,4,2,9,80,0,0
46739,-111.111111111111,4,2,9,80,0,0
46762,-111.111111111111,4,2,1,80,0,0
46825,-111.111111111111,4,2,1,80,0,0
46847,-111.111111111111,4,2,4,80,0,0
46910,-111.111111111111,4,2,4,80,0,0
46933,-111.111111111111,4,2,2,80,0,0
46996,-111.111111111111,4,2,2,80,0,0
47018,342.857142857143,4,2,10,80,1,0
47339,-111.111111111111,4,2,10,80,0,0
47360,-111.111111111111,4,2,3,80,0,0
47853,-111.111111111111,4,2,3,80,0,0
47875,-111.111111111111,4,2,1,80,0,0
48046,333.333333333333,4,2,3,80,1,0
48046,-111.111111111111,4,2,3,80,0,0
48196,-111.111111111111,4,2,3,80,0,0
48212,-111.111111111111,4,2,1,80,0,0
48368,-111.111111111111,4,2,1,80,0,0
48379,338.028169014084,4,2,8,85,1,0
49393,352.941176470588,4,2,8,85,1,0
49739,-111.111111111111,4,2,8,85,0,0
49745,352.941176470588,4,2,3,85,1,0
51156,342.857142857143,4,2,3,85,1,0
51968,-111.111111111111,4,2,3,85,0,0
52013,-111.111111111111,4,2,1,50,0,0
52527,338.028169014084,4,2,1,50,1,0
53879,342.857142857143,4,2,1,50,1,0
54564,324.324324324324,4,2,1,50,1,0
55212,349.854227405248,4,2,2,60,1,0
55212,-111.111111111111,4,2,2,60,0,0
55225,-111.111111111111,4,2,2,60,0,0
55561,-111.111111111111,4,2,1,60,0,0
55568,-111.111111111111,4,2,1,60,0,0
55910,-111.111111111111,4,2,2,60,0,0
56082,-111.111111111111,4,2,2,60,0,0
56086,-111.111111111111,4,2,1,60,0,0
56596,-111.111111111111,4,2,1,60,0,0
56611,346.820809248555,4,2,2,65,1,0
56768,-111.111111111111,4,2,2,65,0,0
56784,-111.111111111111,4,2,1,65,0,0
57282,-111.111111111111,4,2,1,65,0,0
57304,338.983050847458,4,2,2,65,1,0
57453,-111.111111111111,4,2,2,65,0,0
57473,-111.111111111111,4,2,1,65,0,0
57968,-111.111111111111,4,2,1,65,0,0
57981,340.909090909091,4,2,2,70,1,0
58310,-111.111111111111,4,2,2,70,0,0
58321,-111.111111111111,4,2,1,70,0,0
58653,-111.111111111111,4,2,1,70,0,0
58662,-111.111111111111,4,2,2,70,0,0
58996,-111.111111111111,4,2,2,70,0,0
59003,-111.111111111111,4,2,1,70,0,0
59339,-111.111111111111,4,2,1,70,0,0
59344,342.857142857143,4,2,3,80,1,0
59682,-111.111111111111,4,2,3,80,0,0
59686,-111.111111111111,4,2,1,80,0,0
59853,-111.111111111111,4,2,1,80,0,0
59858,-111.111111111111,4,2,3,70,0,0
60196,-111.111111111111,4,2,3,70,0,0
60201,-111.111111111111,4,2,1,70,0,0
60710,-111.111111111111,4,2,1,70,0,0
60715,-111.111111111111,4,2,11,60,0,0
61053,-111.111111111111,4,2,11,60,0,0
61058,-111.111111111111,4,2,1,50,0,0
63453,-111.111111111111,4,2,1,50,0,0
63458,-111.111111111111,4,2,2,60,0,0
64482,-111.111111111111,4,2,2,60,0,0
64486,-111.111111111111,4,2,1,60,0,0
64825,-111.111111111111,4,2,1,60,0,0
64829,-111.111111111111,4,2,3,60,0,0
65339,-111.111111111111,4,2,3,60,0,0
65344,-111.111111111111,4,2,1,60,0,0
65510,-111.111111111111,4,2,1,60,0,0
65515,-111.111111111111,4,2,1,80,0,0
66201,-100,4,2,12,90,0,1
66539,-100,4,2,12,90,0,1
66544,-100,4,2,7,90,0,1
66882,-100,4,2,7,90,0,1
66886,-100,4,2,6,90,0,1
67225,-100,4,2,6,90,0,1
67229,-100,4,2,7,90,0,1
67568,-100,4,2,7,90,0,1
67572,-100,4,2,13,90,0,1
67910,-100,4,2,13,90,0,1
67915,-100,4,2,7,90,0,1
68253,-100,4,2,7,90,0,1
68258,-100,4,2,14,90,0,1
68596,-100,4,2,14,90,0,1
68601,-100,4,2,7,90,0,1
68939,-100,4,2,7,90,0,1
68944,338.983050847458,4,2,15,90,1,1
69282,-100,4,2,7,90,0,1
69621,-100,4,2,6,90,0,1
69625,-100,4,2,6,90,0,1
69960,-100,4,2,7,90,0,1
69968,-100,4,2,7,90,0,1
70299,340.909090909091,4,2,12,90,1,1
70310,-100,4,2,12,90,0,1
70384,-100,4,2,1,90,0,1
70396,-100,4,2,1,90,0,1
70980,346.820809248555,4,2,1,90,1,1
71413,-100,4,2,2,90,0,1
71425,-100,4,2,2,90,0,1
71500,-99.009900990099,4,2,7,90,0,1
71673,342.857142857143,4,2,7,90,1,1
71682,-100,4,2,7,90,0,1
71844,-100,4,2,1,90,0,1
71853,-100,4,2,1,90,0,1
72015,-100,4,2,7,90,0,1
72025,-100,4,2,7,90,0,1
72358,-100,4,2,6,90,0,1
72368,-100,4,2,6,90,0,1
72530,-100,4,2,1,90,0,1
72539,-100,4,2,1,90,0,1
72701,-100,4,2,6,90,0,1
72710,-100,4,2,6,90,0,1
72873,-100,4,2,1,90,0,1
72882,-100,4,2,1,90,0,1
73044,347.826086956522,4,2,16,90,1,1
73053,-100,4,2,16,90,0,1
73217,-100,4,2,1,90,0,1
73225,-100,4,2,1,90,0,1
73391,-100,4,2,7,90,0,1
73396,-100,4,2,7,90,0,1
73565,-100,4,2,1,90,0,1
73568,-100,4,2,1,90,0,1
73739,-100,4,2,3,90,0,1
73910,-100,4,2,3,90,0,1
73913,-100,4,2,1,90,0,1
74082,-100,4,2,1,90,0,1
74087,-100,4,2,7,90,0,1
74253,-100,4,2,7,90,0,1
74261,-100,4,2,1,90,0,1
74425,-100,4,2,1,90,0,1
74435,342.857142857143,4,2,15,90,1,1
74596,-100,4,2,15,90,0,1
74606,-100,4,2,1,90,0,1
74768,-100,4,2,1,90,0,1
74777,-100,4,2,6,90,0,1
74939,-100,4,2,6,90,0,1
74949,-100,4,2,1,90,0,1
75025,-100,4,2,1,90,0,1
75035,-100,4,2,2,90,0,1
75110,-100,4,2,2,90,0,1
75120,-100,4,2,14,90,0,1
75453,-100,4,2,14,90,0,1
75463,-100,4,2,6,90,0,1
75539,-100,4,2,6,90,0,1
75549,-100,4,2,1,90,0,1
75710,-100,4,2,1,90,0,1
75720,-100,4,2,2,90,0,1
75796,-100,4,2,2,90,0,1
75806,-100,4,2,17,90,0,1
75882,-100,4,2,17,90,0,1
75892,-100,4,2,4,90,0,1
75968,-100,4,2,4,90,0,1
75977,-100,4,2,5,90,0,1
76053,-100,4,2,5,90,0,1
76063,-100,4,2,2,90,0,1
76139,-100,4,2,2,90,0,1
76149,-100,4,2,1,85,0,1
76225,-100,4,2,1,85,0,1
76235,-100,4,2,5,85,0,1
76310,-100,4,2,5,85,0,1
76320,-100,4,2,4,85,0,1
76396,-100,4,2,4,85,0,1
76406,-100,4,2,1,85,0,1
76492,-100,4,2,1,80,0,0
76653,-100,4,2,1,80,0,0
76663,-100,4,2,5,80,0,0
76739,-100,4,2,5,80,0,0
76749,-100,4,2,1,80,0,0
76825,-100,4,2,1,80,0,0
76835,-100,4,2,1,75,0,0
76910,-100,4,2,1,75,0,0
76920,-100,4,2,2,75,0,0
77177,340.909090909091,4,2,12,90,1,1
77177,-100,4,2,12,90,0,1
77510,-100,4,2,12,90,0,1
77517,-100,4,2,7,90,0,1
77853,-100,4,2,7,90,0,1
77858,-100,4,2,6,90,0,1
78196,-100,4,2,6,90,0,1
78199,-100,4,2,7,90,0,1
78539,-100,4,2,13,90,0,1
78540,342.857142857143,4,2,13,90,1,1
78882,-100,4,2,7,90,0,1
79053,-100,4,2,1,90,0,1
79225,-100,4,2,14,90,0,1
79396,-100,4,2,1,90,0,1
79568,-100,4,2,7,90,0,1
79739,-100,4,2,1,90,0,1
79910,-100,4,2,18,90,0,1
80082,-100,4,2,1,90,0,1
80253,-100,4,2,7,90,0,1
80596,-100,4,2,3,90,0,1
80939,-100,4,2,7,90,0,1
81282,-100,4,2,12,90,0,1
81368,-100,4,2,1,90,0,1
82396,-100,4,2,2,90,0,1
82482,-100,4,2,1,90,0,1
82653,-100,4,2,19,90,0,1
82825,-100,4,2,3,90,0,1
82996,-100,4,2,7,90,0,1
83168,-100,4,2,3,90,0,1
83339,-100,4,2,20,90,0,1
83510,-100,4,2,3,90,0,1
83682,-100,4,2,6,90,0,1
83853,-100,4,2,3,90,0,1
83854,375,4,2,3,90,1,1
84041,344.827586206897,4,2,16,90,1,0
84041,-100,4,2,16,90,0,0
84196,-100,4,2,16,90,0,0
84213,-100,4,2,1,60,0,0
85396,-111.111111111111,4,2,1,60,0,0
85420,340.909090909091,4,2,1,50,1,0
85420,-111.111111111111,4,2,1,50,0,0
87625,-111.111111111111,4,2,1,50,0,0
87635,-111.111111111111,4,2,1,55,0,0
87796,-111.111111111111,4,2,1,55,0,0
87806,-111.111111111111,4,2,1,60,0,0
87968,-111.111111111111,4,2,1,60,0,0
87976,-111.111111111111,4,2,3,70,0,0

[Colours]
Combo1 : 155,68,70
Combo2 : 216,219,224
Combo3 : 113,162,185

[HitObjects]
250,379,11322,5,2,1:2:0:0:
349,357,11669,1,2,1:2:0:0:
349,357,11843,2,0,P|375:322|354:260,1,98.9999969787599,2|0,2:2|0:0,0:0:0:0:
335,236,12359,1,2,1:2:0:0:
335,236,12531,1,2,2:2:0:0:
210,164,13044,1,2,1:2:0:0:
210,164,13216,2,0,P|170:133|189:51,1,98.9999969787599,2|0,2:2|0:0,0:0:0:0:
191,48,13730,1,2,1:2:0:0:
191,48,13902,1,2,2:2:0:0:
338,13,14416,5,2,1:2:0:0:
338,13,14587,2,0,P|394:35|464:56,1,98.9999969787599,2|0,2:2|0:0,0:0:0:0:
475,68,15102,2,0,P|464:95|454:133,1,49.4999984893799,2|2,1:2|2:2,0:0:0:0:
447,163,15444,1,2,1:2:0:0:
354,197,15787,1,2,1:3:0:0:
264,154,16130,1,2,1:3:0:0:
185,93,16473,2,0,P|162:98|136:119,1,49.4999984893799,2|2,1:3|2:3,0:0:0:0:
96,133,16816,21,6,1:2:0:0:
56,226,17168,1,10,1:2:0:0:
56,226,17340,2,0,P|43:293|130:332,1,148.49999546814,10|10,2:2|1:2,0:0:0:0:
143,309,18030,2,0,P|188:278|256:291,1,98.9999969787599,10|8,2:2|2:2,0:0:0:0:
280,281,18546,2,0,P|310:297|328:322,1,49.4999984893799,10|10,1:2|2:2,0:0:0:0:
341,353,18891,1,8,1:2:0:0:
432,318,19236,1,8,1:2:0:0:
438,219,19581,6,0,P|403:181|339:179,1,98.9999969787599,8|8,1:2|1:2,0:0:0:0:
325,143,20083,1,4,2:3:0:0:
325,143,20251,2,0,P|297:146|264:164,1,49.4999984893799,8|8,1:2|2:2,0:0:0:0:
228,147,20586,2,0,P|203:167|191:194,1,49.4999984893799,8|8,2:2|2:2,0:0:0:0:
185,230,20921,1,2,1:2:0:0:
325,75,22129,21,8,2:2:0:0:
325,75,22289,2,0,P|334:45|360:1,2,49.4999984893799,6|2|10,1:2|1:2|2:2,0:0:0:0:
266,155,22986,2,0,P|236:149|211:122,1,49.4999984893799,2|2,2:2|1:2,0:0:0:0:
190,99,23335,1,10,2:2:0:0:
94,124,23684,2,0,P|48:148|42:199,1,98.9999969787599,2|10,1:2|2:2,0:0:0:0:
44,244,24198,1,2,2:2:0:0:
44,244,24369,2,0,P|90:223|157:210,1,98.9999969787599,2|10,2:2|2:2,0:0:0:0:
236,211,25055,6,0,P|244:183|265:140,2,49.4999984893799,2|2|10,1:2|1:2|2:2,0:0:0:0:
307,279,25741,2,0,P|328:310|369:321,1,49.4999984893799,2|2,2:2|1:2,0:0:0:0:
373,350,26084,2,0,P|397:343|419:326,1,49.4999984893799,10|2,2:2|2:2,0:0:0:0:
464,314,26426,1,2,1:2:0:0:
494,219,26769,1,10,2:2:0:0:
429,144,27112,2,0,L|377:163,1,49.4999984893799,6|10,1:2|2:2,0:0:0:0:
334,149,27440,2,0,L|254:175,1,49.4999984893799,10|10,2:2|2:2,0:0:0:0:
239,151,27769,22,0,L|128:184,1,98.9999969787599,6|10,1:2|2:2,0:0:0:0:
67,242,28486,2,0,P|31:254|-3:271,2,74.2499977340699,2|2|2,2:2|2:2|2:2,0:0:0:0:
161,286,29343,1,2,1:2:0:0:
161,286,29514,2,0,P|181:309|209:322,1,49.4999984893799,10|2,2:2|2:2,0:0:0:0:
245,329,29857,2,0,P|265:320|288:296,2,49.4999984893799,2|2|10,2:2|1:2|2:2,0:0:0:0:
198,192,30714,5,2,1:2:0:0:
198,192,30886,2,0,P|177:164|175:131,1,49.4999984893799,10|2,2:2|2:2,0:0:0:0:
180,101,31229,2,0,P|155:86|120:84,2,49.4999984893799,2|2|10,2:2|1:2|2:2,0:0:0:0:
225,82,31743,1,2,2:2:0:0:
330,107,32086,1,2,1:2:0:0:
330,107,32257,1,10,2:2:0:0:
421,69,32600,2,0,P|445:57|479:47,2,49.4999984893799,2|2|10,2:2|1:2|2:2,0:0:0:0:
410,117,33114,22,0,P|431:168|443:218,1,98.9999969787599,2|2,2:2|1:2,0:0:0:0:
462,307,33800,1,2,2:2:0:0:
383,366,34143,2,0,P|305:339|302:272,1,148.49999546814,2|2,1:2|1:3,0:0:0:0:
321,241,34814,1,2,1:2:0:0:
321,241,34985,1,10,2:2:0:0:
260,162,35328,2,0,P|243:143|218:131,1,49.4999984893799,2|2,2:2|1:2,0:0:0:0:
172,129,35671,1,10,2:2:0:0:
172,129,35843,6,0,P|103:146|89:223,1,148.49999546814,2|8,2:2|2:2,0:0:0:0:
106,259,36528,1,2,2:2:0:0:
203,294,36871,1,0,1:1:0:0:
203,294,37043,1,8,2:2:0:0:
297,322,37385,21,6,1:2:0:0:
314,224,37723,1,10,2:2:0:0:
238,160,38062,1,6,1:2:0:0:
190,73,38401,2,0,P|192:44|210:17,1,49.4999984893799,10|8,2:2|2:2,0:0:0:0:
253,9,38740,6,0,P|312:26|362:41,1,110,6|10,1:2|2:2,0:0:0:0:
412,52,39258,1,2,1:2:0:0:
504,111,39604,2,0,P|492:146|484:183,1,55,2|10,1:2|2:2,0:0:0:0:
478,222,39950,1,2,2:2:0:0:
478,222,40123,1,2,1:2:0:0:
386,279,40469,1,10,2:2:0:0:
386,279,40642,2,0,P|404:330|419:383,1,110,2|2,1:2|1:2,0:0:0:0:
308,383,41333,22,0,P|285:302|252:196,1,165,2|10,2:2|2:2,0:0:0:0:
219,210,42020,1,2,1:2:0:0:
219,210,42191,2,0,P|208:186|195:152,2,49.4999984893799,2|2|10,2:2|1:2|2:2,0:0:0:0:
182,243,42706,2,0,P|162:287|112:300,1,98.9999969787599,2|2,2:2|1:2,0:0:0:0:
18,280,43391,2,0,P|27:251|38:219,1,49.4999984893799,2|2,2:2|1:3,0:0:0:0:
22,184,43734,2,0,P|39:129|55:73,1,98.9999969787599,10|10,2:2|2:2,0:0:0:0:
41,40,44248,5,6,1:2:0:0:
137,19,44598,2,0,P|191:28|217:73,1,98.9999969787599,10|10,2:2|2:2,0:0:0:0:
212,111,45125,1,2,1:2:0:0:
212,111,45300,1,10,2:2:0:0:
268,192,45651,2,0,P|289:248|346:266,2,98.9999969787599,6|10|10,1:2|2:2|2:2,0:0:0:0:
299,153,46505,1,2,1:2:0:0:
375,89,46847,22,0,P|431:97|460:185,1,148.49999546814,6|10,2:3|2:2,0:0:0:0:
453,223,47532,1,0,1:1:0:0:
445,325,47875,1,2,1:2:0:0:
445,325,48046,2,0,P|421:338|389:340,1,49.4999984893799,10|2,2:2|2:2,0:0:0:0:
356,327,48379,5,14,2:2:0:0:
356,327,48548,1,8,2:2:0:0:
263,306,48886,1,12,2:2:0:0:
263,306,49055,1,10,2:2:0:0:
166,283,49393,1,12,2:2:0:0:
69,260,49745,1,6,1:2:0:0:
327,352,55212,22,0,P|347:327|352:294,1,49.4999984893799,2|0,1:3|1:1,0:0:0:0:
392,280,55561,1,10,2:2:0:0:
392,280,55736,2,0,P|383:233|345:203,1,98.9999969787599,2|2,2:2|1:2,0:0:0:0:
302,193,56261,1,10,2:2:0:0:
302,193,56436,1,2,2:2:0:0:
203,201,56784,2,0,P|177:212|153:225,1,49.4999984893799,2|10,1:2|2:2,0:0:0:0:
119,252,57131,1,2,2:2:0:0:
37,204,57473,2,0,P|28:179|10:145,1,49.4999984893799,2|10,1:2|2:2,0:0:0:0:
2,111,57812,6,0,P|50:85|116:16,1,148.49999546814,2|8,2:2|2:2,0:0:0:0:
212,35,58662,2,0,P|250:75|297:98,1,98.9999969787599,2|8,1:3|2:2,0:0:0:0:
341,92,59174,1,2,2:2:0:0:
341,92,59344,1,10,1:2:0:0:
432,48,59686,1,10,1:2:0:0:
432,48,59858,1,2,1:2:0:0:
254,210,60715,22,0,P|213:244|208:299,2,98.9999969787599,6|2|2,1:2|2:2|2:2,0:0:0:0:
452,221,62086,2,0,P|499:278|485:364,2,148.49999546814,2|2|0,2:2|2:2|0:0,0:0:0:0:
398,137,63458,6,0,P|357:166|295:176,1,98.9999969787599,2|2,2:2|2:2,0:0:0:0:
228,233,64144,2,0,P|187:204|125:194,1,98.9999969787599,2|2,2:2|2:3,0:0:0:0:
40,200,64829,1,2,1:2:0:0:
23,297,65172,1,2,1:2:0:0:
96,363,65515,2,0,P|127:355|150:333,1,49.4999984893799,8|10,2:2|2:2,0:0:0:0:
178,312,65858,1,8,2:2:0:0:
206,205,66201,6,0,P|190:177|159:92,1,110,6|10,1:2|2:2,0:0:0:0:
172,50,66715,1,0,0:0:0:0:
172,50,66886,2,0,P|208:40|235:27,1,55,2|0,1:2|1:1,0:0:0:0:
272,6,67229,1,10,2:2:0:0:
380,23,67572,2,0,P|408:73|424:128,1,110,6|10,1:2|2:2,0:0:0:0:
432,182,68086,1,0,0:0:0:0:
432,182,68258,2,0,P|400:199|366:210,1,55,6|0,1:2|1:1,0:0:0:0:
327,205,68601,1,10,2:2:0:0:
247,281,68944,6,0,P|265:346|329:356,1,110,6|10,1:2|2:2,0:0:0:0:
408,379,69621,2,0,P|436:364|449:337,1,55,2|0,1:2|1:1,0:0:0:0:
452,289,69960,1,10,2:2:0:0:
384,205,70299,2,0,B|359:198|359:198|357:194|357:194|326:190,1,55,14|8,1:2|2:2,0:0:0:0:
297,156,70639,1,10,2:2:0:0:
297,156,70810,1,10,1:2:0:0:
187,161,71153,1,10,2:2:0:0:
108,238,71500,22,0,B|69:204|69:204|37:194|37:194|24:158|24:158|32:96,1,165,6|10,1:2|2:2,0:0:0:0:
73,17,72358,1,2,1:2:0:0:
73,17,72530,2,0,P|103:29|136:35,1,55,2|10,1:2|2:2,0:0:0:0:
180,28,72873,2,0,P|233:45|239:106,1,110,2|2,2:2|1:2,0:0:0:0:
208,196,73565,2,0,P|161:210|101:242,2,110,2|2|2,2:2|1:2|2:2,0:0:0:0:
253,227,74435,5,6,1:2:0:0:
327,308,74777,1,10,2:2:0:0:
419,249,75120,2,0,P|397:204|378:146,1,110,6|10,1:2|2:2,0:0:0:0:
337,117,75635,1,4,2:3:0:0:
337,117,75806,21,6,1:2:0:0:
394,23,76149,1,2,1:2:0:0:
500,52,76492,1,2,1:2:0:0:
508,161,76835,2,0,P|490:186|454:199,1,55,2|4,1:2|2:3,0:0:0:0:
418,174,77177,6,0,P|365:157|307:142,1,110,6|10,1:2|2:2,0:0:0:0:
262,136,77688,1,0,0:0:0:0:
262,136,77858,2,0,P|230:141|199:161,1,55,2|0,1:2|1:1,0:0:0:0:
173,192,78199,1,10,2:2:0:0:
94,268,78540,2,0,P|85:325|137:369,1,110,6|10,1:2|2:2,0:0:0:0:
171,365,79054,2,0,P|197:375|228:382,2,55,2|6|2,2:2|1:2|1:2,0:0:0:0:
229,271,79740,21,2,2:2:0:0:
169,178,80082,2,0,P|183:131|199:67,1,110,2|0,1:2|0:0,0:0:0:0:
194,16,80597,2,0,P|167:9|141:-1,1,55,2|0,1:3|1:1,0:0:0:0:
87,1,80940,1,10,2:2:0:0:
4,73,81282,2,0,B|8:102|8:102|34:126,1,55,14|8,1:2|2:2,0:0:0:0:
34,178,81625,1,10,2:2:0:0:
34,178,81797,1,10,1:2:0:0:
134,216,82140,2,0,B|173:203|173:203|189:183|189:183|235:180,1,110,10|10,2:2|2:2,0:0:0:0:
290,191,82654,5,6,1:2:0:0:
290,191,82825,1,2,2:2:0:0:
372,118,83168,1,2,2:2:0:0:
481,150,83511,2,0,P|498:174|500:205,2,55,2|10|2,2:2|2:2|2:2,0:0:0:0:
492,95,84041,1,6,1:2:0:0:
157,173,85420,6,0,P|119:193|52:216,2,98.9999969787599,2|2|2,2:2|2:2|2:2,0:0:0:0:
235,111,86442,1,0,0:0:0:0:
235,111,86613,2,0,P|301:130|313:174,1,98.9999969787599,2|2,2:2|2:2,0:0:0:0:
305,255,87295,1,0,0:0:0:0:
305,255,87465,2,0,P|277:268|250:285,2,49.4999984893799,2|2|2,2:2|2:2|2:2,0:0:0:0:
345,284,87976,1,2,1:2:0:0:
