osu file format v14

[General]
AudioFilename: audio.ogg
AudioLeadIn: 0
PreviewTime: 66110
Countdown: 0
SampleSet: Soft
StackLeniency: 0.4
Mode: 0
LetterboxInBreaks: 0
WidescreenStoryboard: 1

[Editor]
Bookmarks: 11339,22310,27796,38768,44253,49739,55225,60710,66196,85396
DistanceSpacing: 1.4
BeatDivisor: 4
GridSize: 16
TimelineZoom: 1.9

[Metadata]
Title:abnormalize (TV Size)
TitleUnicode:abnormalize (TV Size)
Artist:Ling tosite sigure
ArtistUnicode:凛として時雨
Creator:muya-
Version:hard
Source:PSYCHO-PASS
Tags:サイコパス opening intro theme song anime animation japanese rock jrock j-rock shueisha tsunemori akane shinya kougami production i.g cyberpunk Tōru Toru Touru TK Kitajima Miyoko 345 Nakamura Masatoshi Pierre Nakano dkblaze airincat sajinn
BeatmapID:4162797
BeatmapSetID:1990496

[Difficulty]
HPDrainRate:4
CircleSize:4
OverallDifficulty:6.2
ApproachRate:8
SliderMultiplier:1.4
SliderTickRate:1

[Events]
//Background and Video events
Video,-1350,"Abnormalize.mp4"
0,0,"jgfjhgfhf.jpg",0,0
//Break Periods
2,49945,54462
2,60915,62708
//Storyboard Layer 0 (Background)
//Storyboard Layer 1 (Fail)
//Storyboard Layer 2 (Pass)
//Storyboard Layer 3 (Foreground)
//Storyboard Layer 4 (Overlay)
//Storyboard Sound Samples

[TimingPoints]
372,324.324324324324,4,2,1,50,1,0
372,-125,4,2,1,50,0,0
696,342.857142857143,4,2,1,50,1,0
696,-125,4,2,1,50,0,0
1724,342.857142857143,4,2,1,50,1,0
2752,-125,4,2,1,50,0,0
3095,344.827586206897,4,2,1,50,1,0
3095,-125,4,2,1,50,0,0
7060,-124.223602484472,4,2,1,50,0,0
7232,341.880341880342,4,2,1,50,1,0
8257,-125,4,2,1,50,0,0
9625,324.324324324324,4,2,1,50,1,0
9625,-125,4,2,1,50,0,0
9949,352.941176470588,4,2,1,50,1,0
11007,315.789473684211,4,2,1,50,1,0
11322,347.826086956522,4,2,2,60,1,0
11322,-111.111111111111,4,2,2,60,0,0
11339,-111.111111111111,4,2,2,60,0,0
11843,-110.497237569061,4,2,1,60,0,0
12017,342.857142857143,4,2,1,60,1,0
12359,-111.111111111111,4,2,2,60,0,0
12531,-111.111111111111,4,2,1,60,0,0
12539,-111.111111111111,4,2,1,60,0,0
12702,342.857142857143,4,2,1,60,1,0
12702,-111.111111111111,4,2,1,60,0,0
13044,-111.111111111111,4,2,2,60,0,0
13053,-111.111111111111,4,2,2,60,0,0
13216,-111.111111111111,4,2,1,60,0,0
13225,-111.111111111111,4,2,1,60,0,0
13730,-111.111111111111,4,2,2,60,0,0
13739,-111.111111111111,4,2,2,60,0,0
13902,-111.111111111111,4,2,1,60,0,0
13910,-111.111111111111,4,2,1,60,0,0
14416,-111.111111111111,4,2,2,60,0,0
14425,-111.111111111111,4,2,2,60,0,0
14587,-111.111111111111,4,2,1,60,0,0
14596,-111.111111111111,4,2,1,60,0,0
15102,-111.111111111111,4,2,2,60,0,0
15110,-111.111111111111,4,2,2,60,0,0
15273,-111.111111111111,4,2,1,60,0,0
15282,-111.111111111111,4,2,1,60,0,0
15444,-111.111111111111,4,2,2,60,0,0
15453,-111.111111111111,4,2,2,60,0,0
15787,-111.111111111111,4,2,1,60,0,0
15796,-111.111111111111,4,2,1,60,0,0
16644,-111.111111111111,4,2,2,60,0,0
16653,-111.111111111111,4,2,2,60,0,0
16816,352.941176470588,4,2,1,70,1,0
16825,-111.111111111111,4,2,1,70,0,0
17168,344.827586206897,4,2,1,70,1,0
17168,-111.111111111111,4,2,1,70,0,0
18196,-111.111111111111,4,2,1,70,0,0
18202,344.827586206897,4,2,1,75,1,0
18546,-111.111111111111,4,2,1,75,0,0
19568,-111.111111111111,4,2,1,75,0,0
19581,335.195530726257,4,2,1,80,1,0
19581,-111.111111111111,4,2,1,80,0,0
19825,-111.111111111111,4,2,1,80,0,0
19832,-111.111111111111,4,2,2,80,0,0
19910,-111.111111111111,4,2,2,80,0,0
19916,-111.111111111111,4,2,1,80,0,0
20168,-111.111111111111,4,2,2,80,0,0
20253,-111.111111111111,4,2,3,80,0,0
20921,363.636363636364,4,2,3,80,1,0
21284,342.857142857143,4,2,3,80,1,0
21969,320.855614973262,4,2,3,80,1,0
22289,348.837209302326,4,2,2,80,1,0
22310,-100,4,2,2,80,0,0
22376,-100,4,2,1,80,0,0
22396,-100,4,2,1,80,0,0
22986,-100,4,2,2,80,0,0
22996,-100,4,2,2,80,0,0
23161,-100,4,2,1,80,0,0
23168,-100,4,2,1,80,0,0
23682,-100,4,2,2,80,0,0
23684,342.857142857143,4,2,2,80,1,0
23768,-100,4,2,1,80,0,0
24368,-100,4,2,2,80,0,0
24539,-100,4,2,1,80,0,0
25053,-100,4,2,2,80,0,0
25139,-100,4,2,1,80,0,0
25739,-100,4,2,2,80,0,0
25910,-100,4,2,1,80,0,0
26425,-100,4,2,2,80,0,0
26510,-100,4,2,1,80,0,0
27110,-100,4,2,2,80,0,0
27112,328.767123287671,4,2,2,80,1,0
27276,-100,4,2,1,80,0,0
27282,-100,4,2,1,80,0,0
27769,375,4,2,4,70,1,0
27796,-100,4,2,4,70,0,0
27956,-100,4,2,1,70,0,0
27968,-100,4,2,1,70,0,0
28144,342.857142857143,4,2,1,70,1,0
28482,-100,4,2,1,70,0,0
28486,-100,4,2,2,70,0,0
28739,-100,4,2,2,70,0,0
28744,-100,4,2,1,70,0,0
29172,342.857142857143,4,2,1,70,1,0
29853,-100,4,2,1,70,0,0
29857,-100,4,2,2,70,0,0
30025,-100,4,2,2,70,0,0
30029,-100,4,2,1,70,0,0
31225,-100,4,2,1,70,0,0
31229,-100,4,2,2,70,0,0
31396,-100,4,2,2,70,0,0
31400,-100,4,2,1,70,0,0
32596,-100,4,2,1,70,0,0
32600,-100,4,2,2,70,0,0
32768,-100,4,2,2,70,0,0
32772,-100,4,2,1,70,0,0
34314,329.67032967033,4,2,1,70,1,0
34643,342.857142857143,4,2,1,70,1,0
35328,-100,4,2,2,70,0,0
35339,-100,4,2,2,70,0,0
35500,-100,4,2,1,70,0,0
35510,-100,4,2,1,70,0,0
37385,338.983050847458,4,2,5,80,1,0
37396,-100,4,2,5,80,0,0
37723,-100,4,2,1,80,0,0
37739,-100,4,2,1,80,0,0
38062,-100,4,2,5,80,0,0
38082,-100,4,2,5,80,0,0
38401,-100,4,2,1,80,0,0
38425,-100,4,2,1,80,0,0
38740,345.821325648415,4,2,6,75,1,0
38740,-90.9090909090909,4,2,6,75,0,0
38768,-90.9090909090909,4,2,6,75,0,0
39085,-90.9090909090909,4,2,7,75,0,0
39110,-90.9090909090909,4,2,7,75,0,0
39258,-90.9090909090909,4,2,1,75,0,0
39282,-90.9090909090909,4,2,1,75,0,0
39431,-90.9090909090909,4,2,3,75,0,0
39453,-90.9090909090909,4,2,3,75,0,0
39604,-90.9090909090909,4,2,1,75,0,0
39625,-90.9090909090909,4,2,1,75,0,0
39777,-90.9090909090909,4,2,7,75,0,0
39796,-90.9090909090909,4,2,7,75,0,0
39950,-90.9090909090909,4,2,1,75,0,0
39968,-90.9090909090909,4,2,1,75,0,0
40123,-90.9090909090909,4,2,6,75,0,0
40139,-90.9090909090909,4,2,6,75,0,0
40642,-90.9090909090909,4,2,1,75,0,0
40653,-90.9090909090909,4,2,1,75,0,0
40814,-90.9090909090909,4,2,3,75,0,0
40825,-90.9090909090909,4,2,3,75,0,0
40987,-90.9090909090909,4,2,1,75,0,0
40996,-90.9090909090909,4,2,1,75,0,0
41160,-90.9090909090909,4,2,7,75,0,0
41168,-90.9090909090909,4,2,7,75,0,0
41333,-90.9090909090909,4,2,1,75,0,0
41339,-90.9090909090909,4,2,1,75,0,0
41506,342.857142857143,4,2,3,75,1,0
41506,-90.9090909090909,4,2,3,75,0,0
41510,-90.9090909090909,4,2,3,75,0,0
41848,-90.9090909090909,4,2,7,75,0,0
41853,-90.9090909090909,4,2,7,75,0,0
42020,-90.9090909090909,4,2,1,75,0,0
42025,-90.9090909090909,4,2,1,75,0,0
42191,-90.9090909090909,4,2,6,75,0,0
42196,-90.9090909090909,4,2,6,75,0,0
42363,-90.9090909090909,4,2,1,75,0,0
42368,-90.9090909090909,4,2,1,75,0,0
42534,-90.9090909090909,4,2,6,75,0,0
42539,-90.9090909090909,4,2,6,75,0,0
42706,-90.9090909090909,4,2,1,75,0,0
42710,-90.9090909090909,4,2,1,75,0,0
42877,-90.9090909090909,4,2,3,75,0,0
42882,-90.9090909090909,4,2,3,75,0,0
43048,-90.9090909090909,4,2,1,75,0,0
43053,-90.9090909090909,4,2,1,75,0,0
43220,-90.9090909090909,4,2,7,75,0,0
43225,-90.9090909090909,4,2,7,75,0,0
43391,-90.9090909090909,4,2,1,75,0,0
43396,-90.9090909090909,4,2,1,75,0,0
43563,-90.9090909090909,4,2,3,75,0,0
43568,-90.9090909090909,4,2,3,75,0,0
43734,-90.9090909090909,4,2,1,75,0,0
43739,-90.9090909090909,4,2,1,75,0,0
43906,-90.9090909090909,4,2,3,75,0,0
43910,-90.9090909090909,4,2,3,75,0,0
43991,-90.9090909090909,4,2,2,75,0,0
43996,-90.9090909090909,4,2,2,75,0,0
44077,-90.9090909090909,4,2,1,75,0,0
44082,-90.9090909090909,4,2,1,75,0,0
44248,350.877192982456,4,2,3,80,1,0
44248,-90.9090909090909,4,2,3,80,0,0
44253,-90.9090909090909,4,2,3,80,0,0
45110,-90.9090909090909,4,2,3,80,0,0
45125,-90.9090909090909,4,2,1,80,0,0
45282,-90.9090909090909,4,2,1,80,0,0
45300,-90.9090909090909,4,2,3,80,0,0
45453,-90.9090909090909,4,2,3,80,0,0
45476,-90.9090909090909,4,2,1,80,0,0
45625,-90.9090909090909,4,2,1,80,0,0
45651,341.880341880342,4,2,8,80,1,0
45651,-90.9090909090909,4,2,8,80,0,0
46482,-90.9090909090909,4,2,8,80,0,0
46505,-90.9090909090909,4,2,1,80,0,0
46653,-90.9090909090909,4,2,1,80,0,0
46676,-90.9090909090909,4,2,9,80,0,0
46739,-90.9090909090909,4,2,9,80,0,0
46762,-90.9090909090909,4,2,1,80,0,0
46825,-90.9090909090909,4,2,1,80,0,0
46847,-90.9090909090909,4,2,4,80,0,0
46910,-90.9090909090909,4,2,4,80,0,0
46933,-90.9090909090909,4,2,2,80,0,0
46996,-90.9090909090909,4,2,2,80,0,0
47018,342.857142857143,4,2,10,80,1,0
47339,-90.9090909090909,4,2,10,80,0,0
47360,-90.9090909090909,4,2,3,80,0,0
47853,-90.9090909090909,4,2,3,80,0,0
47875,-90.9090909090909,4,2,1,80,0,0
48025,-90.9090909090909,4,2,1,80,0,0
48046,333.333333333333,4,2,3,80,1,0
48196,-90.9090909090909,4,2,3,80,0,0
48212,-90.9090909090909,4,2,1,80,0,0
48379,338.028169014084,4,2,8,85,1,0
48379,-90.9090909090909,4,2,8,85,0,0
49393,352.941176470588,4,2,8,85,1,0
49739,-90.9090909090909,4,2,8,85,0,0
49745,352.941176470588,4,2,3,85,1,0
51156,342.857142857143,4,2,3,85,1,0
51968,-90.9090909090909,4,2,3,85,0,0
52013,-90.9090909090909,4,2,1,50,0,0
52527,338.028169014084,4,2,1,50,1,0
53879,342.857142857143,4,2,1,50,1,0
54564,324.324324324324,4,2,1,50,1,0
55212,349.854227405248,4,2,2,60,1,0
55225,-100,4,2,2,60,0,0
55561,-100,4,2,1,60,0,0
55568,-100,4,2,1,60,0,0
55910,-100,4,2,2,60,0,0
56082,-100,4,2,2,60,0,0
56086,-100,4,2,1,60,0,0
56596,-100,4,2,1,60,0,0
56611,346.820809248555,4,2,2,65,1,0
56768,-100,4,2,2,65,0,0
56784,-100,4,2,1,65,0,0
57282,-100,4,2,1,65,0,0
57304,338.983050847458,4,2,2,65,1,0
57453,-100,4,2,2,65,0,0
57473,-100,4,2,1,65,0,0
57968,-100,4,2,1,65,0,0
57981,340.909090909091,4,2,2,70,1,0
58310,-100,4,2,2,70,0,0
58321,-100,4,2,1,70,0,0
58653,-100,4,2,1,70,0,0
58662,-100,4,2,2,70,0,0
58996,-100,4,2,2,70,0,0
59003,-100,4,2,1,70,0,0
59339,-100,4,2,1,70,0,0
59344,342.857142857143,4,2,3,80,1,0
59682,-100,4,2,3,80,0,0
59686,-100,4,2,1,80,0,0
59853,-100,4,2,1,80,0,0
59858,-100,4,2,3,70,0,0
60196,-100,4,2,3,70,0,0
60201,-100,4,2,1,70,0,0
60710,-100,4,2,1,70,0,0
60715,-100,4,2,11,60,0,0
61053,-100,4,2,11,60,0,0
61058,-100,4,2,1,50,0,0
63453,-100,4,2,1,50,0,0
63458,-100,4,2,2,60,0,0
64482,-100,4,2,2,60,0,0
64486,-100,4,2,1,60,0,0
64825,-100,4,2,1,60,0,0
64829,-100,4,2,3,60,0,0
65339,-100,4,2,3,60,0,0
65344,-100,4,2,1,60,0,0
65510,-100,4,2,1,60,0,0
65515,-100,4,2,1,80,0,0
66201,-83.3333333333333,4,2,12,90,0,1
66539,-83.3333333333333,4,2,12,90,0,1
66544,-83.3333333333333,4,2,7,90,0,1
66882,-83.3333333333333,4,2,7,90,0,1
66886,-83.3333333333333,4,2,6,90,0,1
67225,-83.3333333333333,4,2,6,90,0,1
67229,-83.3333333333333,4,2,7,90,0,1
67568,-83.3333333333333,4,2,7,90,0,1
67572,-83.3333333333333,4,2,13,90,0,1
67910,-83.3333333333333,4,2,13,90,0,1
67915,-83.3333333333333,4,2,7,90,0,1
68253,-83.3333333333333,4,2,7,90,0,1
68258,-83.3333333333333,4,2,14,90,0,1
68596,-83.3333333333333,4,2,14,90,0,1
68601,-83.3333333333333,4,2,7,90,0,1
68772,-83.3333333333333,4,2,1,90,0,1
68939,-83.3333333333333,4,2,7,90,0,1
68944,338.983050847458,4,2,15,90,1,1
68944,-83.3333333333333,4,2,15,90,0,1
69282,-83.3333333333333,4,2,7,90,0,1
69621,-83.3333333333333,4,2,6,90,0,1
69625,-83.3333333333333,4,2,6,90,0,1
69960,-83.3333333333333,4,2,7,90,0,1
69968,-83.3333333333333,4,2,7,90,0,1
70299,340.909090909091,4,2,12,90,1,1
70299,-83.3333333333333,4,2,12,90,0,1
70310,-83.3333333333333,4,2,12,90,0,1
70384,-83.3333333333333,4,2,1,90,0,1
70396,-83.3333333333333,4,2,1,90,0,1
70980,346.820809248555,4,2,1,90,1,1
71326,-83.3333333333333,4,2,1,90,0,1
71413,-83.3333333333333,4,2,2,90,0,1
71425,-83.3333333333333,4,2,2,90,0,1
71500,-83.3333333333333,4,2,1,90,0,1
71510,-83.3333333333333,4,2,1,90,0,1
71673,342.857142857143,4,2,7,90,1,1
71673,-83.3333333333333,4,2,7,90,0,1
71682,-83.3333333333333,4,2,7,90,0,1
71844,-83.3333333333333,4,2,1,90,0,1
71853,-83.3333333333333,4,2,1,90,0,1
72015,-83.3333333333333,4,2,7,90,0,1
72025,-83.3333333333333,4,2,7,90,0,1
72358,-83.3333333333333,4,2,6,90,0,1
72368,-83.3333333333333,4,2,6,90,0,1
72530,-83.3333333333333,4,2,1,90,0,1
72539,-83.3333333333333,4,2,1,90,0,1
72701,-83.3333333333333,4,2,6,90,0,1
72710,-83.3333333333333,4,2,6,90,0,1
72873,-83.3333333333333,4,2,1,90,0,1
72882,-83.3333333333333,4,2,1,90,0,1
73044,347.826086956522,4,2,16,90,1,1
73053,-83.3333333333333,4,2,16,90,0,1
73217,-83.3333333333333,4,2,1,90,0,1
73225,-83.3333333333333,4,2,1,90,0,1
73391,-83.3333333333333,4,2,7,90,0,1
73396,-83.3333333333333,4,2,7,90,0,1
73565,-83.3333333333333,4,2,1,90,0,1
73568,-83.3333333333333,4,2,1,90,0,1
73739,-83.3333333333333,4,2,3,90,0,1
73910,-83.3333333333333,4,2,3,90,0,1
73913,-83.3333333333333,4,2,1,90,0,1
74082,-83.3333333333333,4,2,1,90,0,1
74087,-83.3333333333333,4,2,7,90,0,1
74253,-83.3333333333333,4,2,7,90,0,1
74261,-83.3333333333333,4,2,1,90,0,1
74425,-83.3333333333333,4,2,1,90,0,1
74435,342.857142857143,4,2,15,90,1,1
74596,-83.3333333333333,4,2,15,90,0,1
74606,-83.3333333333333,4,2,1,90,0,1
74768,-83.3333333333333,4,2,1,90,0,1
74777,-83.3333333333333,4,2,6,90,0,1
74939,-83.3333333333333,4,2,6,90,0,1
74949,-83.3333333333333,4,2,1,90,0,1
75025,-83.3333333333333,4,2,1,90,0,1
75035,-83.3333333333333,4,2,2,90,0,1
75110,-83.3333333333333,4,2,2,90,0,1
75120,-83.3333333333333,4,2,14,90,0,1
75453,-83.3333333333333,4,2,14,90,0,1
75463,-83.3333333333333,4,2,6,90,0,1
75539,-83.3333333333333,4,2,6,90,0,1
75549,-83.3333333333333,4,2,1,90,0,1
75710,-83.3333333333333,4,2,1,90,0,1
75720,-83.3333333333333,4,2,2,90,0,1
75796,-83.3333333333333,4,2,2,90,0,1
75806,-83.3333333333333,4,2,17,90,0,1
75882,-83.3333333333333,4,2,17,90,0,1
75892,-83.3333333333333,4,2,4,90,0,1
75968,-83.3333333333333,4,2,4,90,0,1
75977,-83.3333333333333,4,2,5,90,0,1
76053,-83.3333333333333,4,2,5,90,0,1
76063,-83.3333333333333,4,2,2,90,0,1
76139,-83.3333333333333,4,2,2,90,0,1
76149,-83.3333333333333,4,2,1,85,0,1
76225,-83.3333333333333,4,2,1,85,0,1
76235,-83.3333333333333,4,2,5,85,0,1
76310,-83.3333333333333,4,2,5,85,0,1
76320,-83.3333333333333,4,2,4,85,0,1
76396,-83.3333333333333,4,2,4,85,0,1
76406,-83.3333333333333,4,2,1,85,0,1
76492,-83.3333333333333,4,2,1,80,0,0
76653,-83.3333333333333,4,2,1,80,0,0
76663,-83.3333333333333,4,2,5,80,0,0
76739,-83.3333333333333,4,2,5,80,0,0
76749,-83.3333333333333,4,2,1,80,0,0
76825,-83.3333333333333,4,2,1,80,0,0
76835,-83.3333333333333,4,2,1,75,0,0
76910,-83.3333333333333,4,2,1,75,0,0
76920,-83.3333333333333,4,2,2,75,0,0
77177,340.909090909091,4,2,12,90,1,1
77177,-83.3333333333333,4,2,12,90,0,1
77510,-83.3333333333333,4,2,12,90,0,1
77517,-83.3333333333333,4,2,7,90,0,1
77853,-83.3333333333333,4,2,7,90,0,1
77858,-83.3333333333333,4,2,6,90,0,1
78196,-83.3333333333333,4,2,6,90,0,1
78199,-83.3333333333333,4,2,7,90,0,1
78539,-83.3333333333333,4,2,13,90,0,1
78540,342.857142857143,4,2,13,90,1,1
78540,-83.3333333333333,4,2,13,90,0,1
78882,-83.3333333333333,4,2,7,90,0,1
79053,-83.3333333333333,4,2,1,90,0,1
79225,-83.3333333333333,4,2,14,90,0,1
79396,-83.3333333333333,4,2,1,90,0,1
79568,-83.3333333333333,4,2,7,90,0,1
79739,-83.3333333333333,4,2,1,90,0,1
79910,-83.3333333333333,4,2,18,90,0,1
80082,-83.3333333333333,4,2,1,90,0,1
80253,-83.3333333333333,4,2,7,90,0,1
80596,-83.3333333333333,4,2,3,90,0,1
80939,-83.3333333333333,4,2,7,90,0,1
81282,-83.3333333333333,4,2,12,90,0,1
81368,-83.3333333333333,4,2,1,90,0,1
82396,-83.3333333333333,4,2,2,90,0,1
82482,-83.3333333333333,4,2,1,90,0,1
82653,-83.3333333333333,4,2,19,90,0,1
82825,-83.3333333333333,4,2,3,90,0,1
82996,-83.3333333333333,4,2,7,90,0,1
83168,-83.3333333333333,4,2,3,90,0,1
83339,-83.3333333333333,4,2,20,90,0,1
83510,-83.3333333333333,4,2,3,90,0,1
83682,-83.3333333333333,4,2,6,90,0,1
83853,-83.3333333333333,4,2,3,90,0,1
83854,375,4,2,3,90,1,1
84041,344.827586206897,4,2,16,90,1,0
84041,-83.3333333333333,4,2,16,90,0,0
84196,-83.3333333333333,4,2,16,90,0,0
84213,-83.3333333333333,4,2,1,60,0,0
85396,-125,4,2,1,60,0,0
85420,340.909090909091,4,2,1,50,1,0
85420,-125,4,2,1,50,0,0
87625,-125,4,2,1,50,0,0
87635,-125,4,2,1,55,0,0
87796,-125,4,2,1,55,0,0
87806,-125,4,2,1,60,0,0
87968,-125,4,2,1,60,0,0
87976,-125,4,2,3,70,0,0

[Colours]
Combo1 : 155,68,70
Combo2 : 216,219,224
Combo3 : 113,162,185

[HitObjects]
273,331,372,5,2,2:2:0:0:
364,233,696,1,2,2:2:0:0:
364,233,867,2,0,P|341:189|318:115,1,112,2|0,2:2|0:0,0:0:0:0:
359,60,1381,1,2,2:2:0:0:
359,60,1553,2,0,P|427:83|422:137,1,112,2|0,2:2|0:0,0:0:0:0:
435,194,2066,1,2,2:2:0:0:
435,194,2238,1,2,2:2:0:0:
243,122,2752,2,0,P|218:110|182:101,1,56,2|2,2:2|2:2,0:0:0:0:
133,46,3095,6,0,P|82:67|72:125,1,112
35,193,3612,1,2,2:2:0:0:
35,193,3784,2,0,P|58:243|129:253,1,112,2|2,2:2|2:2,0:0:0:0:
256,192,4474,1,2,2:2:0:0:
256,192,5853,22,0,P|229:234|210:313,1,112,2|2,2:2|2:2,0:0:0:0:
243,366,6370,2,0,P|306:364|312:318,1,112,2|0,2:2|0:0,0:0:0:0:
342,250,6888,1,2,2:2:0:0:
342,250,7060,2,0,P|363:202|423:202,1,112,2|0,2:2|0:0,0:0:0:0:
496,221,7573,1,2,2:2:0:0:
496,221,7744,1,2,2:2:0:0:
342,250,8257,2,0,P|313:232|300:192,1,56,2|2,2:2|2:2,0:0:0:0:
251,129,8599,6,0,P|271:69|286:8,1,112
208,8,9112,2,0,P|193:62|175:115,1,112,2|0,2:2|0:0,0:0:0:0:
96,107,9625,2,0,P|113:53|128:0,1,112,2|2,2:2|2:2,0:0:0:0:
62,323,11322,22,0,P|86:307|134:295,1,62.9999980773926,2|0,1:2|0:0,0:0:0:0:
206,313,11669,1,2,1:2:0:0:
206,313,11843,2,0,P|264:288|248:224,1,125.999996154785,2|0,2:2|0:0,0:0:0:0:
244,152,12359,2,0,P|219:131|182:128,1,62.9999980773926,2|2,1:2|2:2,0:0:0:0:
105,146,12702,6,0,P|49:128|46:67,1,125.999996154785,2|2,1:3|1:2,0:0:0:0:
93,0,13216,2,0,P|157:25|226:46,1,125.999996154785,2|0,2:2|0:0,0:0:0:0:
293,18,13730,1,2,1:2:0:0:
293,18,13902,1,2,2:2:0:0:
362,68,14073,22,0,P|346:100|340:146,1,62.9999980773926,2|0,1:3|0:0,0:0:0:0:
299,204,14416,1,2,1:2:0:0:
299,204,14587,2,0,P|319:273|354:326,1,125.999996154785,2|0,2:2|0:0,0:0:0:0:
423,363,15102,2,0,P|449:342|458:299,1,62.9999980773926,2|2,1:2|2:2,0:0:0:0:
428,228,15444,5,2,1:2:0:0:
299,203,15787,1,2,1:3:0:0:
177,217,16130,1,2,1:3:0:0:
101,294,16473,2,0,P|111:331|136:353,1,62.9999980773926,2|2,1:3|2:3,0:0:0:0:
211,383,16816,21,6,1:2:0:0:
211,383,17168,2,0,P|222:346|238:319,1,62.9999980773926,10|10,1:2|2:2,0:0:0:0:
173,248,17512,2,0,P|162:211|146:184,1,62.9999980773926,8|8,1:2|2:2,0:0:0:0:
232,122,17857,2,0,P|243:85|259:58,1,62.9999980773926,10|10,1:2|2:2,0:0:0:0:
357,21,18202,5,8,1:2:0:0:
446,38,18374,1,8,2:2:0:0:
463,124,18546,2,0,P|447:152|438:190,1,62.9999980773926,10|10,1:2|2:2,0:0:0:0:
375,250,18891,2,0,P|347:234|251:208,1,125.999996154785,8|8,1:2|1:2,0:0:0:0:
168,210,19408,1,8,2:2:0:0:
143,295,19581,22,0,P|151:310|167:325,3,31.4999990386963,8|8|4|4,1:2|2:3|2:3|2:3,0:0:0:0:
176,363,19916,2,0,P|195:374|224:377,3,31.4999990386963,8|8|4|4,1:2|2:3|2:3|2:3,0:0:0:0:
252,379,20251,2,0,P|272:372|292:359,2,31.4999990386963,8|8|8,1:2|2:2|2:2,0:0:0:0:
341,302,20586,5,8,2:2:0:0:
348,289,20670,1,8,2:2:0:0:
351,274,20754,1,8,2:2:0:0:
350,260,20837,1,8,2:2:0:0:
346,246,20921,1,2,1:2:0:0:
146,119,22129,21,8,2:2:0:0:
228,163,22289,2,0,P|262:151|313:140,1,70,6|2,1:2|1:2,0:0:0:0:
379,133,22637,1,10,2:2:0:0:
455,200,22812,1,2,2:2:0:0:
455,200,22899,1,2,0:0:0:0:
455,200,22986,2,0,P|441:241|402:264,1,70,2|2,2:2|1:2,0:0:0:0:
379,341,23335,2,0,P|335:338|303:306,1,70,10|2,2:2|2:2,0:0:0:0:
227,260,23684,5,2,1:2:0:0:
158,313,23855,1,2,1:2:0:0:
70,269,24026,1,10,2:2:0:0:
115,136,24369,1,2,2:2:0:0:
92,51,24541,1,2,1:2:0:0:
92,51,24626,1,0,1:1:0:0:
92,51,24712,2,0,P|56:65|35:97,1,70,10|2,2:2|2:2,0:0:0:0:
116,137,25055,21,2,1:2:0:0:
189,83,25226,1,2,1:2:0:0:
272,114,25398,2,0,P|281:149|294:185,1,70,10|2,2:2|2:2,0:0:0:0:
368,240,25741,2,0,L|408:253,2,35,2|0|2,2:2|0:0|1:2,0:0:0:0:
430,167,26084,2,0,L|470:180,2,35,10|0|2,2:2|0:0|2:2,0:0:0:0:
377,62,26426,5,2,1:2:0:0:
294,72,26598,1,2,1:2:0:0:
261,148,26769,1,10,2:2:0:0:
284,314,27112,2,0,P|270:352|224:372,1,70,6|10,1:2|2:2,0:0:0:0:
216,361,27358,1,8,2:2:0:0:
216,361,27440,1,10,2:2:0:0:
120,331,27605,1,10,2:2:0:0:
120,331,27687,1,8,2:2:0:0:
120,331,27769,22,0,P|96:267|69:200,1,140,6|10,1:2|2:2,0:0:0:0:
30,117,28315,1,2,2:2:0:0:
30,117,28486,2,0,P|99:88|165:59,1,140,2|8,2:2|2:2,0:0:0:0:
267,55,29001,6,0,P|255:90|250:128,1,70,2|2,2:2|1:3,0:0:0:0:
227,212,29343,1,2,1:2:0:0:
227,212,29514,2,0,P|248:249|256:289,1,70,10|2,2:2|2:2,0:0:0:0:
279,365,29857,1,2,2:2:0:0:
279,365,30029,1,2,1:2:0:0:
364,377,30200,1,10,2:2:0:0:
505,274,30543,22,0,P|496:241|461:215,1,70,2|2,1:3|1:2,0:0:0:0:
453,131,30886,2,0,P|419:121|386:132,1,70,10|2,2:2|2:2,0:0:0:0:
307,171,31229,1,2,2:2:0:0:
307,171,31400,1,2,1:2:0:0:
284,252,31572,2,0,P|258:279|215:286,1,70,10|2,2:2|2:2,0:0:0:0:
134,250,31914,6,0,B|144:217|144:217|154:191|154:191|143:172|143:172|162:140|182:93,1,140,2|10,1:3|2:2,0:0:0:0:
131,38,32429,1,2,2:2:0:0:
131,38,32600,2,0,P|92:49|66:97,1,70,2|2,2:2|1:2,0:0:0:0:
6,137,32943,1,10,2:2:0:0:
64,200,33114,1,2,2:2:0:0:
17,272,33286,22,0,P|2:279|-13:289,4,35,2|0|2|0|8,1:3|1:1|1:2|1:1|2:2,0:0:0:0:
98,311,33800,2,0,B|185:337|145:365|245:395,1,140,2|2,2:2|1:2,0:0:0:0:
298,350,34314,2,0,P|276:295|253:214,1,140,8|2,2:2|1:3,0:0:0:0:
275,125,34814,5,2,1:2:0:0:
275,125,34985,2,0,P|298:100|346:97,1,70,10|2,2:2|2:2,0:0:0:0:
401,42,35328,2,0,P|430:58|444:104,1,70,2|2,2:2|1:2,0:0:0:0:
493,177,35671,1,10,2:2:0:0:
425,227,35843,1,2,2:2:0:0:
438,312,36014,22,0,L|474:330,4,35,2|0|0|0|8,1:3|1:1|1:1|1:1|2:2,0:0:0:0:
351,343,36528,2,0,P|284:320|282:254,1,140,2|0,2:2|1:1,0:0:0:0:
340,193,37043,2,0,P|337:157|306:126,1,70,8|0,2:2|0:0,0:0:0:0:
216,87,37385,5,6,1:2:0:0:
60,160,37723,1,10,2:2:0:0:
68,0,38062,1,6,1:2:0:0:
216,87,38401,2,0,P|203:124|194:172,1,70,10|8,2:2|2:2,0:0:0:0:
166,257,38740,22,0,B|96:225|121:200|39:161,1,154.000004699707,6|10,1:2|2:2,0:0:0:0:
9,264,39258,2,0,P|25:314|64:331,1,77.0000023498536,2|2,1:2|2:3,0:0:0:0:
128,384,39604,2,0,P|165:362|219:353,1,77.0000023498536,2|10,1:2|2:2,0:0:0:0:
302,370,39950,1,2,2:2:0:0:
384,304,40123,6,0,P|378:267|349:236,1,77.0000023498536,2|0,1:2|1:1,0:0:0:0:
314,232,40382,1,0,1:1:0:0:
314,232,40469,1,10,2:2:0:0:
217,191,40642,2,0,P|180:164|175:121,1,77.0000023498536,2|2,1:2|2:3,0:0:0:0:
219,36,40987,1,2,1:2:0:0:
312,96,41160,1,10,2:2:0:0:
312,96,41333,1,2,2:2:0:0:
409,45,41506,22,0,P|471:48|483:138,1,154.000004699707,2|10,1:3|2:2,0:0:0:0:
466,220,42020,1,2,1:2:0:0:
466,220,42191,2,0,P|428:202|389:194,1,77.0000023498536,2|2,2:2|1:2,0:0:0:0:
297,158,42534,1,10,2:2:0:0:
226,224,42706,6,0,P|246:268|257:307,1,77.0000023498536,2|2,2:2|1:3,0:0:0:0:
194,374,43048,2,0,P|151:374|125:342,1,77.0000023498536,2|10,1:2|2:2,0:0:0:0:
43,309,43391,1,2,2:2:0:0:
122,171,43734,2,0,P|149:179|170:188,2,38.5000011749268,10|8|6,2:2|2:3|2:3,0:0:0:0:
50,96,44077,1,10,2:2:0:0:
50,96,44163,1,8,2:2:0:0:
50,96,44248,22,0,P|31:58|15:5,1,77.0000023498536,6|0,1:2|1:1,0:0:0:0:
131,21,44598,2,0,P|143:57|161:91,1,77.0000023498536,10|0,2:2|1:1,0:0:0:0:
272,86,44949,2,0,P|254:52|242:16,1,77.0000023498536,10|2,2:2|1:2,0:0:0:0:
358,0,45300,1,10,2:2:0:0:
435,79,45476,1,2,1:2:0:0:
435,79,45563,1,0,1:1:0:0:
435,79,45651,6,0,P|431:122|401:150,1,77.0000023498536,6|0,1:2|1:1,0:0:0:0:
373,229,45992,2,0,P|340:241|297:219,1,77.0000023498536,10|0,2:2|1:1,0:0:0:0:
206,182,46334,1,10,2:2:0:0:
206,182,46420,1,0,1:1:0:0:
206,182,46505,2,0,P|196:166|188:144,2,38.5000011749268,2|0|10,1:2|1:1|2:2,0:0:0:0:
121,246,46847,1,6,2:3:0:0:
184,326,47018,21,6,1:2:0:0:
184,326,47189,1,0,1:1:0:0:
97,384,47360,1,10,2:2:0:0:
97,384,47532,2,0,P|29:364|31:283,1,154.000004699707,0|2,1:1|1:2,0:0:0:0:
121,246,48046,1,10,2:2:0:0:
121,246,48212,1,2,2:2:0:0:
207,316,48379,5,14,2:2:0:0:
309,275,48548,2,0,P|292:235|280:190,1,77.0000023498536,8|0,2:2|1:1,0:0:0:0:
345,114,48886,1,12,2:2:0:0:
443,137,49055,2,0,P|469:162|468:209,1,77.0000023498536,10|0,2:2|1:1,0:0:0:0:
471,305,49393,1,12,2:2:0:0:
282,201,49745,21,6,1:2:0:0:
272,153,55212,6,0,P|237:134|195:144,1,70,2|0,1:3|1:1,0:0:0:0:
123,119,55561,2,0,P|96:148|95:191,1,70,10|2,2:2|2:2,0:0:0:0:
52,254,55911,2,0,P|73:287|114:299,1,70,2|2,2:3|1:2,0:0:0:0:
183,274,56261,1,10,2:2:0:0:
183,274,56436,1,2,2:2:0:0:
262,312,56611,22,0,P|275:354|291:396,1,70,2|2,1:3|1:2,0:0:0:0:
371,352,56957,1,10,2:2:0:0:
371,352,57131,2,0,P|359:319|349:285,1,70,2|2,2:2|2:3,0:0:0:0:
286,220,57473,1,2,1:2:0:0:
286,220,57642,1,10,2:2:0:0:
409,120,57981,6,0,P|430:129|449:133,2,35,2|0|0,1:3|1:1|1:1,0:0:0:0:
356,53,58321,2,0,P|336:27|291:14,1,70,8|0,2:2|1:1,0:0:0:0:
213,31,58662,1,2,1:3:0:0:
213,31,58833,1,0,1:1:0:0:
161,95,59003,2,0,P|176:131|186:165,1,70,8|2,2:2|2:2,0:0:0:0:
203,259,59344,21,10,1:2:0:0:
113,296,59515,1,8,2:2:0:0:
98,296,59601,1,8,2:2:0:0:
84,287,59686,1,10,1:2:0:0:
78,272,59772,1,8,2:2:0:0:
77,254,59858,1,2,1:2:0:0:
237,33,60715,5,6,1:2:0:0:
490,209,63458,21,2,2:2:0:0:
390,158,63801,1,2,2:2:0:0:
269,138,64144,1,2,2:2:0:0:
144,143,64486,1,2,2:3:0:0:
39,192,64829,6,0,P|53:230|62:263,1,70,2|0,1:2|0:0,0:0:0:0:
166,209,65172,2,0,P|151:170|143:138,1,70,2|2,1:2|2:2,0:0:0:0:
118,48,65515,1,8,2:2:0:0:
118,48,65601,1,8,2:2:0:0:
118,48,65686,2,0,P|126:27|140:2,2,35,10|8|8,2:2|2:2|2:2,0:0:0:0:
269,189,66201,5,6,1:2:0:0:
339,127,66372,1,0,1:1:0:0:
428,165,66544,2,0,P|446:213|414:261,1,83.9999974365235,10|0,2:2|0:0,0:0:0:0:
404,337,66886,2,0,B|328:301|357:274|274:232,1,167.999994873047,2|10,1:2|2:2,0:0:0:0:
210,155,67401,1,0,0:0:0:0:
104,153,67572,6,0,P|69:176|57:232,1,83.9999974365235,6|0,1:2|1:1,0:0:0:0:
10,303,67915,2,0,P|33:342|87:342,1,83.9999974365235,10|0,2:2|0:0,0:0:0:0:
166,384,68258,2,0,P|187:303|224:215,1,167.999994873047,6|10,1:2|2:2,0:0:0:0:
315,148,68772,1,0,1:1:0:0:
315,148,68858,1,0,1:1:0:0:
315,148,68944,22,0,P|391:198|476:224,2,167.999994873047,6|10|2,1:2|2:2|1:2,0:0:0:0:
241,78,69791,1,0,1:1:0:0:
305,0,69960,2,0,P|332:15|342:75,1,83.9999974365235,10|0,2:2|0:0,0:0:0:0:
237,156,70299,6,0,B|209:170|209:170|199:169|199:169|182:169|182:169|141:202,1,83.9999974365235,14|8,1:2|2:2,0:0:0:0:
54,214,70639,1,10,2:2:0:0:
54,214,70725,1,8,2:2:0:0:
54,214,70810,2,0,B|65:244|65:244|75:257|75:257|74:290|74:290|88:306,1,83.9999974365235,10|8,1:2|2:2,0:0:0:0:
177,349,71153,1,10,2:2:0:0:
177,349,71240,1,8,2:3:0:0:
177,349,71326,2,0,B|169:371|169:371|165:370|165:370|162:390,2,41.9999987182618,4|4|10,2:3|2:3|2:2,0:0:0:0:
277,288,71673,21,6,1:2:0:0:
355,336,71844,1,0,1:1:0:0:
436,295,72015,2,0,P|419:256|400:205,1,83.9999974365235,10|0,2:2|0:0,0:0:0:0:
386,126,72358,1,2,1:2:0:0:
470,77,72530,2,0,P|486:111|472:161,1,83.9999974365235,2|10,1:2|2:2,0:0:0:0:
334,185,72873,6,0,B|250:147|294:118|187:75,1,167.999994873047,2|2,2:2|1:2,0:0:0:0:
111,38,73391,1,10,2:2:0:0:
36,99,73565,2,0,P|51:144|104:164,1,83.9999974365235,2|2,2:2|1:3,0:0:0:0:
180,164,73913,1,2,1:2:0:0:
217,254,74087,1,10,2:2:0:0:
36,384,74435,21,6,1:2:0:0:
36,384,74606,1,2,1:2:0:0:
21,295,74777,2,0,P|51:263|105:271,1,83.9999974365235,10|4,2:2|2:3,0:0:0:0:
180,337,75120,1,6,1:2:0:0:
180,337,75206,1,0,1:1:0:0:
180,337,75292,2,0,B|184:356|184:356|193:368|193:368|196:388,4,41.9999987182618,0|0|10|8|4,1:1|1:1|2:2|2:3|2:3,0:0:0:0:
257,270,75806,6,0,L|270:220,2,41.9999987182618,6|10|10,1:2|2:3|2:3,0:0:0:0:
338,326,76149,2,0,L|351:376,2,41.9999987182618,2|10|6,1:2|2:3|2:3,0:0:0:0:
421,276,76492,2,0,L|438:234,2,41.9999987182618,2|4|6,1:2|2:3|2:3,0:0:0:0:
485,341,76835,1,2,1:2:0:0:
253,265,77177,21,6,1:2:0:0:
323,208,77347,1,0,1:1:0:0:
274,125,77517,2,0,P|236:115|192:96,1,83.9999974365235,10|0,2:2|0:0,0:0:0:0:
122,24,77858,2,0,P|45:37|52:124,1,167.999994873047,2|10,1:2|2:2,0:0:0:0:
106,195,78370,1,0,0:0:0:0:
202,161,78540,6,0,P|235:132|295:128,1,83.9999974365235,6|0,1:2|1:1,0:0:0:0:
358,67,78882,2,0,P|404:88|430:134,1,83.9999974365235,10|2,2:2|2:2,0:0:0:0:
487,208,79225,1,6,1:2:0:0:
433,283,79397,2,0,P|395:265|354:250,1,83.9999974365235,2|10,1:2|2:2,0:0:0:0:
247,276,79740,1,2,1:2:0:0:
247,276,79825,1,0,1:0:0:0:
247,276,79911,22,0,P|175:297|182:385,2,167.999994873047,6|10|2,1:2|2:2|1:3,0:0:0:0:
330,334,80768,1,0,1:1:0:0:
411,292,80940,2,0,P|393:257|377:209,1,83.9999974365235,10|0,2:2|0:0,0:0:0:0:
301,109,81282,6,0,B|281:115|281:115|252:116|252:116|241:127|241:127|205:143,1,83.9999974365235,14|8,1:2|2:2,0:0:0:0:
107,143,81625,1,10,2:2:0:0:
107,143,81711,1,8,2:2:0:0:
107,143,81797,2,0,B|72:139|72:139|61:113|61:113|72:64,1,83.9999974365235,10|8,1:2|2:2,0:0:0:0:
142,18,82140,2,0,B|180:24|180:24|195:46|195:46|200:79,1,83.9999974365235,10|4,2:2|2:3,0:0:0:0:
180,199,82482,21,10,2:2:0:0:
180,199,82568,1,8,2:2:0:0:
180,199,82654,1,6,1:2:0:0:
101,245,82825,2,0,P|70:279|76:328,1,83.9999974365235,2|10,2:2|2:2,0:0:0:0:
148,382,83168,2,0,P|182:364|240:352,1,83.9999974365235,2|6,2:2|1:2,0:0:0:0:
330,376,83511,1,2,2:2:0:0:
411,320,83682,2,0,P|393:286|381:228,1,83.9999974365235,10|2,2:2|2:2,0:0:0:0:
404,132,84041,5,6,1:2:0:0:
284,64,85420,6,0,L|270:131,1,56,2|0,2:2|0:0,0:0:0:0:
197,115,85760,2,0,L|208:60,1,56,2|0,2:2|0:0,0:0:0:0:
134,51,86101,2,0,L|111:160,1,112,2|0,2:2|0:0,0:0:0:0:
97,236,86613,22,0,L|171:250,1,56,2|0,2:2|0:0,0:0:0:0:
223,214,86954,2,0,L|333:234,1,112,2|0,2:2|0:0,0:0:0:0:
392,287,87465,2,0,L|381:342,1,56,2|2,2:2|2:2,0:0:0:0:
316,384,87806,1,2,2:2:0:0:
249,348,87976,1,2,1:2:0:0:
