osu file format v14

[General]
AudioFilename: audio.ogg
AudioLeadIn: 0
PreviewTime: 66110
Countdown: 0
SampleSet: Soft
StackLeniency: 0.6
Mode: 0
LetterboxInBreaks: 0
WidescreenStoryboard: 1

[Editor]
DistanceSpacing: 0.6
BeatDivisor: 4
GridSize: 4
TimelineZoom: 1.8

[Metadata]
Title:abnormalize (TV Size)
TitleUnicode:abnormalize (TV Size)
Artist:Ling tosite sigure
ArtistUnicode:凛として時雨
Creator:muya-
Version:airin's insane
Source:PSYCHO-PASS
Tags:サイコパス opening intro theme song anime animation japanese rock jrock j-rock shueisha tsunemori akane shinya kougami production i.g cyberpunk Tōru Toru Touru TK Kitajima Miyoko 345 Nakamura Masatoshi Pierre Nakano dkblaze airincat sajinn
BeatmapID:4162729
BeatmapSetID:1990496

[Difficulty]
HPDrainRate:5
CircleSize:4
OverallDifficulty:8
ApproachRate:9
SliderMultiplier:1.6
SliderTickRate:1

[Events]
//Background and Video events
Video,-1350,"Abnormalize.mp4"
0,0,"jgfjhgfhf.jpg",0,0
//Break Periods
2,51356,54612
//Storyboard Layer 0 (Background)
//Storyboard Layer 1 (Fail)
//Storyboard Layer 2 (Pass)
//Storyboard Layer 3 (Foreground)
//Storyboard Layer 4 (Overlay)
//Storyboard Sound Samples

[TimingPoints]
372,324.324324324324,4,2,1,50,1,0
372,-166.666666666667,4,2,1,50,0,0
696,342.857142857143,4,2,1,50,1,0
1724,342.857142857143,4,2,1,50,1,0
3095,344.827586206897,4,2,1,50,1,0
7232,341.880341880342,4,2,1,50,1,0
9625,324.324324324324,4,2,1,50,1,0
9949,352.941176470588,4,2,1,50,1,0
11007,315.789473684211,4,2,1,50,1,0
11007,-166.666666666667,4,2,1,50,0,0
11322,347.826086956522,4,2,2,60,1,0
11322,-125,4,2,2,60,0,0
11843,-125,4,2,1,60,0,0
11853,-125,4,2,1,60,0,0
12017,342.857142857143,4,2,1,60,1,0
12017,-125,4,2,1,60,0,0
12359,-125,4,2,2,60,0,0
12368,-125,4,2,2,60,0,0
12531,-125,4,2,1,60,0,0
12539,-125,4,2,1,60,0,0
12702,342.857142857143,4,2,1,60,1,0
12702,-125,4,2,1,60,0,0
13044,-125,4,2,2,60,0,0
13053,-125,4,2,2,60,0,0
13216,-125,4,2,1,60,0,0
13225,-125,4,2,1,60,0,0
13730,-125,4,2,2,60,0,0
13739,-125,4,2,2,60,0,0
13902,-125,4,2,1,60,0,0
13910,-125,4,2,1,60,0,0
14416,-125,4,2,2,60,0,0
14425,-125,4,2,2,60,0,0
14587,-125,4,2,1,60,0,0
14596,-125,4,2,1,60,0,0
15102,-125,4,2,2,60,0,0
15110,-125,4,2,2,60,0,0
15273,-125,4,2,1,60,0,0
15282,-125,4,2,1,60,0,0
15444,-125,4,2,2,60,0,0
15453,-125,4,2,2,60,0,0
15787,-125,4,2,1,60,0,0
15796,-125,4,2,1,60,0,0
16644,-125,4,2,2,60,0,0
16653,-125,4,2,2,60,0,0
16816,352.941176470588,4,2,1,70,1,0
16825,-125,4,2,1,70,0,0
17168,344.827586206897,4,2,1,70,1,0
17168,-125,4,2,1,70,0,0
18202,344.827586206897,4,2,1,75,1,0
18202,-125,4,2,1,75,0,0
19568,-100,4,2,1,75,0,0
19581,335.195530726257,4,2,1,80,1,0
19581,-100,4,2,1,80,0,0
19825,-100,4,2,1,80,0,0
19832,-100,4,2,2,80,0,0
19910,-100,4,2,2,80,0,0
19916,-100,4,2,1,80,0,0
20168,-100,4,2,2,80,0,0
20253,-100,4,2,3,80,0,0
20921,363.636363636364,4,2,3,80,1,0
21284,342.857142857143,4,2,3,80,1,0
21796,-50,4,2,3,80,0,0
21839,-100,4,2,3,80,0,0
21969,320.855614973262,4,2,3,80,1,0
22289,348.837209302326,4,2,2,80,1,0
22289,-90.9090909090909,4,2,2,80,0,0
22376,-90.9090909090909,4,2,1,80,0,0
22396,-90.9090909090909,4,2,1,80,0,0
22986,-90.9090909090909,4,2,2,80,0,0
22996,-90.9090909090909,4,2,2,80,0,0
23161,-90.9090909090909,4,2,1,80,0,0
23168,-90.9090909090909,4,2,1,80,0,0
23684,342.857142857143,4,2,2,80,1,0
23684,-90.9090909090909,4,2,2,80,0,0
23768,-90.9090909090909,4,2,1,80,0,0
24368,-90.9090909090909,4,2,2,80,0,0
24539,-90.9090909090909,4,2,1,80,0,0
25053,-90.9090909090909,4,2,2,80,0,0
25139,-90.9090909090909,4,2,1,80,0,0
25739,-90.9090909090909,4,2,2,80,0,0
25910,-90.9090909090909,4,2,1,80,0,0
26425,-90.9090909090909,4,2,2,80,0,0
26510,-90.9090909090909,4,2,1,80,0,0
27112,328.767123287671,4,2,2,80,1,0
27112,-90.9090909090909,4,2,2,80,0,0
27276,-90.9090909090909,4,2,1,80,0,0
27282,-90.9090909090909,4,2,1,80,0,0
27769,375,4,2,4,70,1,0
27769,-100,4,2,4,70,0,0
27956,-100,4,2,1,70,0,0
27968,-100,4,2,1,70,0,0
28144,342.857142857143,4,2,1,70,1,0
28482,-100,4,2,1,70,0,0
28486,-100,4,2,2,70,0,0
28739,-100,4,2,2,70,0,0
28744,-100,4,2,1,70,0,0
29172,342.857142857143,4,2,1,70,1,0
29853,-100,4,2,1,70,0,0
29857,-100,4,2,2,70,0,0
30025,-100,4,2,2,70,0,0
30029,-100,4,2,1,70,0,0
31225,-100,4,2,1,70,0,0
31229,-100,4,2,2,70,0,0
31396,-100,4,2,2,70,0,0
31400,-100,4,2,1,70,0,0
32596,-100,4,2,1,70,0,0
32600,-100,4,2,2,70,0,0
32768,-100,4,2,2,70,0,0
32772,-100,4,2,1,70,0,0
34314,329.67032967033,4,2,1,70,1,0
34643,342.857142857143,4,2,1,70,1,0
35328,-100,4,2,2,70,0,0
35339,-100,4,2,2,70,0,0
35500,-100,4,2,1,70,0,0
35510,-100,4,2,1,70,0,0
37385,338.983050847458,4,2,5,80,1,0
37396,-100,4,2,5,80,0,0
37723,-100,4,2,1,80,0,0
37739,-100,4,2,1,80,0,0
38062,-100,4,2,5,80,0,0
38082,-100,4,2,5,80,0,0
38401,-100,4,2,1,80,0,0
38425,-100,4,2,1,80,0,0
38740,345.821325648415,4,2,6,75,1,0
38740,-90.9090909090909,4,2,6,75,0,0
38768,-90.9090909090909,4,2,6,75,0,0
39085,-90.9090909090909,4,2,7,75,0,0
39110,-90.9090909090909,4,2,7,75,0,0
39258,-90.9090909090909,4,2,1,75,0,0
39282,-90.9090909090909,4,2,1,75,0,0
39431,-90.9090909090909,4,2,3,75,0,0
39453,-90.9090909090909,4,2,3,75,0,0
39604,-90.9090909090909,4,2,1,75,0,0
39625,-90.9090909090909,4,2,1,75,0,0
39777,-90.9090909090909,4,2,7,75,0,0
39796,-90.9090909090909,4,2,7,75,0,0
39950,-90.9090909090909,4,2,1,75,0,0
39968,-90.9090909090909,4,2,1,75,0,0
40123,-90.9090909090909,4,2,6,75,0,0
40139,-90.9090909090909,4,2,6,75,0,0
40642,-90.9090909090909,4,2,1,75,0,0
40653,-90.9090909090909,4,2,1,75,0,0
40814,-90.9090909090909,4,2,3,75,0,0
40825,-90.9090909090909,4,2,3,75,0,0
40987,-90.9090909090909,4,2,1,75,0,0
40996,-90.9090909090909,4,2,1,75,0,0
41160,-90.9090909090909,4,2,7,75,0,0
41168,-90.9090909090909,4,2,7,75,0,0
41333,-90.9090909090909,4,2,1,75,0,0
41339,-90.9090909090909,4,2,1,75,0,0
41506,342.857142857143,4,2,3,75,1,0
41510,-90.9090909090909,4,2,3,75,0,0
41848,-90.9090909090909,4,2,7,75,0,0
41853,-90.9090909090909,4,2,7,75,0,0
42020,-90.9090909090909,4,2,1,75,0,0
42025,-90.9090909090909,4,2,1,75,0,0
42191,-90.9090909090909,4,2,6,75,0,0
42196,-90.9090909090909,4,2,6,75,0,0
42363,-90.9090909090909,4,2,1,75,0,0
42368,-90.9090909090909,4,2,1,75,0,0
42534,-90.9090909090909,4,2,6,75,0,0
42539,-90.9090909090909,4,2,6,75,0,0
42706,-90.9090909090909,4,2,1,75,0,0
42710,-90.9090909090909,4,2,1,75,0,0
42877,-90.9090909090909,4,2,3,75,0,0
42882,-90.9090909090909,4,2,3,75,0,0
43048,-90.9090909090909,4,2,1,75,0,0
43053,-90.9090909090909,4,2,1,75,0,0
43220,-90.9090909090909,4,2,7,75,0,0
43225,-90.9090909090909,4,2,7,75,0,0
43391,-90.9090909090909,4,2,1,75,0,0
43396,-90.9090909090909,4,2,1,75,0,0
43563,-90.9090909090909,4,2,3,75,0,0
43568,-90.9090909090909,4,2,3,75,0,0
43734,-90.9090909090909,4,2,1,75,0,0
43739,-90.9090909090909,4,2,1,75,0,0
43906,-90.9090909090909,4,2,3,75,0,0
43910,-90.9090909090909,4,2,3,75,0,0
43991,-90.9090909090909,4,2,2,75,0,0
43996,-90.9090909090909,4,2,2,75,0,0
44077,-90.9090909090909,4,2,1,75,0,0
44082,-90.9090909090909,4,2,1,75,0,0
44248,350.877192982456,4,2,3,80,1,0
44248,-90.9090909090909,4,2,3,80,0,0
45110,-90.9090909090909,4,2,3,80,0,0
45125,-90.9090909090909,4,2,1,80,0,0
45282,-90.9090909090909,4,2,1,80,0,0
45300,-90.9090909090909,4,2,3,80,0,0
45453,-90.9090909090909,4,2,3,80,0,0
45476,-90.9090909090909,4,2,1,80,0,0
45625,-90.9090909090909,4,2,1,80,0,0
45651,341.880341880342,4,2,8,80,1,0
45651,-90.9090909090909,4,2,8,80,0,0
46482,-90.9090909090909,4,2,8,80,0,0
46505,-90.9090909090909,4,2,1,80,0,0
46653,-90.9090909090909,4,2,1,80,0,0
46676,-90.9090909090909,4,2,9,80,0,0
46739,-90.9090909090909,4,2,9,80,0,0
46762,-90.9090909090909,4,2,1,80,0,0
46825,-90.9090909090909,4,2,1,80,0,0
46847,-90.9090909090909,4,2,4,80,0,0
46910,-90.9090909090909,4,2,4,80,0,0
46933,-90.9090909090909,4,2,2,80,0,0
46996,-90.9090909090909,4,2,2,80,0,0
47018,342.857142857143,4,2,10,80,1,0
47018,-90.9090909090909,4,2,10,80,0,0
47339,-90.9090909090909,4,2,10,80,0,0
47360,-90.9090909090909,4,2,3,80,0,0
47853,-90.9090909090909,4,2,3,80,0,0
47875,-90.9090909090909,4,2,1,80,0,0
48025,-90.9090909090909,4,2,1,80,0,0
48046,333.333333333333,4,2,3,80,1,0
48196,-90.9090909090909,4,2,3,80,0,0
48212,-90.9090909090909,4,2,1,80,0,0
48368,-90.9090909090909,4,2,1,80,0,0
48379,338.028169014084,4,2,8,85,1,0
48379,-90.9090909090909,4,2,8,85,0,0
49393,352.941176470588,4,2,8,85,1,0
49393,-90.9090909090909,4,2,8,85,0,0
49745,352.941176470588,4,2,3,85,1,0
49745,-125,4,2,3,85,0,0
50450,-125,4,2,3,25,0,0
50803,-125,4,2,3,15,0,0
51156,342.857142857143,4,2,3,5,1,0
51968,-90.9090909090909,4,2,3,85,0,0
52013,-90.9090909090909,4,2,1,50,0,0
52527,338.028169014084,4,2,1,50,1,0
53879,342.857142857143,4,2,1,50,1,0
54564,324.324324324324,4,2,1,50,1,0
55212,349.854227405248,4,2,2,60,1,0
55212,-100,4,2,2,60,0,0
55561,-100,4,2,1,60,0,0
55568,-100,4,2,1,60,0,0
55910,-100,4,2,2,60,0,0
56082,-100,4,2,2,60,0,0
56086,-100,4,2,1,60,0,0
56596,-100,4,2,1,60,0,0
56611,346.820809248555,4,2,2,65,1,0
56768,-100,4,2,2,65,0,0
56784,-100,4,2,1,65,0,0
57131,-99.009900990099,4,2,1,65,0,0
57282,-100,4,2,1,65,0,0
57304,338.983050847458,4,2,2,65,1,0
57453,-100,4,2,2,65,0,0
57473,-100,4,2,1,65,0,0
57968,-100,4,2,1,65,0,0
57981,340.909090909091,4,2,2,70,1,0
58310,-100,4,2,2,70,0,0
58321,-100,4,2,1,70,0,0
58653,-100,4,2,1,70,0,0
58662,-100,4,2,2,70,0,0
58996,-100,4,2,2,70,0,0
59003,-100,4,2,1,70,0,0
59339,-100,4,2,1,70,0,0
59344,342.857142857143,4,2,3,80,1,0
59682,-100,4,2,3,80,0,0
59686,-100,4,2,1,80,0,0
59853,-100,4,2,1,80,0,0
59858,-100,4,2,3,70,0,0
60196,-100,4,2,3,70,0,0
60201,-100,4,2,1,70,0,0
60710,-100,4,2,1,70,0,0
60715,-100,4,2,11,60,0,0
61053,-166.666666666667,4,2,11,60,0,0
61058,-166.666666666667,4,2,1,50,0,0
63453,-100,4,2,1,50,0,0
63458,-100,4,2,2,60,0,0
64482,-100,4,2,2,60,0,0
64486,-100,4,2,1,60,0,0
64825,-100,4,2,1,60,0,0
64829,-100,4,2,3,60,0,0
65339,-100,4,2,3,60,0,0
65344,-100,4,2,1,60,0,0
65510,-100,4,2,1,60,0,0
65515,-100,4,2,1,80,0,0
65853,-142.857142857143,4,2,1,80,0,0
66201,-66.6666666666667,4,2,12,90,0,1
66539,-83.3333333333333,4,2,12,90,0,1
66544,-83.3333333333333,4,2,7,90,0,1
66882,-83.3333333333333,4,2,7,90,0,1
66886,-83.3333333333333,4,2,6,90,0,1
67225,-83.3333333333333,4,2,6,90,0,1
67229,-83.3333333333333,4,2,7,90,0,1
67568,-83.3333333333333,4,2,7,90,0,1
67572,-83.3333333333333,4,2,13,90,0,1
67910,-83.3333333333333,4,2,13,90,0,1
67915,-83.3333333333333,4,2,7,90,0,1
68253,-83.3333333333333,4,2,7,90,0,1
68258,-83.3333333333333,4,2,14,90,0,1
68596,-83.3333333333333,4,2,14,90,0,1
68601,-83.3333333333333,4,2,7,90,0,1
68939,-83.3333333333333,4,2,7,90,0,1
68944,338.983050847458,4,2,15,90,1,1
69282,-83.3333333333333,4,2,7,90,0,1
69621,-83.3333333333333,4,2,6,90,0,1
69625,-83.3333333333333,4,2,6,90,0,1
69960,-83.3333333333333,4,2,7,90,0,1
69968,-83.3333333333333,4,2,7,90,0,1
70299,340.909090909091,4,2,12,90,1,1
70299,-71.4285714285714,4,2,12,90,0,1
70384,-71.4285714285714,4,2,1,90,0,1
70396,-71.4285714285714,4,2,1,90,0,1
70980,346.820809248555,4,2,1,90,1,1
71326,-71.4285714285714,4,2,1,90,0,1
71413,-71.4285714285714,4,2,2,90,0,1
71425,-83.3333333333333,4,2,2,90,0,1
71500,-83.3333333333333,4,2,1,90,0,1
71510,-83.3333333333333,4,2,1,90,0,1
71673,342.857142857143,4,2,7,90,1,1
71682,-83.3333333333333,4,2,7,90,0,1
71844,-83.3333333333333,4,2,1,90,0,1
71853,-83.3333333333333,4,2,1,90,0,1
72015,-83.3333333333333,4,2,7,90,0,1
72025,-83.3333333333333,4,2,7,90,0,1
72358,-83.3333333333333,4,2,6,90,0,1
72368,-83.3333333333333,4,2,6,90,0,1
72530,-83.3333333333333,4,2,1,90,0,1
72539,-83.3333333333333,4,2,1,90,0,1
72701,-83.3333333333333,4,2,6,90,0,1
72710,-83.3333333333333,4,2,6,90,0,1
72873,-83.3333333333333,4,2,1,90,0,1
72882,-83.3333333333333,4,2,1,90,0,1
73044,347.826086956522,4,2,16,90,1,1
73053,-83.3333333333333,4,2,16,90,0,1
73217,-83.3333333333333,4,2,1,90,0,1
73225,-83.3333333333333,4,2,1,90,0,1
73391,-83.3333333333333,4,2,7,90,0,1
73396,-83.3333333333333,4,2,7,90,0,1
73565,-83.3333333333333,4,2,1,90,0,1
73568,-83.3333333333333,4,2,1,90,0,1
73739,-83.3333333333333,4,2,3,90,0,1
73910,-83.3333333333333,4,2,3,90,0,1
73913,-83.3333333333333,4,2,1,90,0,1
74082,-83.3333333333333,4,2,1,90,0,1
74087,-83.3333333333333,4,2,7,90,0,1
74253,-83.3333333333333,4,2,7,90,0,1
74261,-83.3333333333333,4,2,1,90,0,1
74425,-83.3333333333333,4,2,1,90,0,1
74435,342.857142857143,4,2,15,90,1,1
74596,-83.3333333333333,4,2,15,90,0,1
74606,-83.3333333333333,4,2,1,90,0,1
74768,-83.3333333333333,4,2,1,90,0,1
74777,-83.3333333333333,4,2,6,90,0,1
74939,-83.3333333333333,4,2,6,90,0,1
74949,-83.3333333333333,4,2,1,90,0,1
75025,-83.3333333333333,4,2,1,90,0,1
75035,-83.3333333333333,4,2,2,90,0,1
75110,-83.3333333333333,4,2,2,90,0,1
75120,-83.3333333333333,4,2,14,90,0,1
75453,-83.3333333333333,4,2,14,90,0,1
75463,-83.3333333333333,4,2,6,90,0,1
75539,-83.3333333333333,4,2,6,90,0,1
75549,-83.3333333333333,4,2,1,90,0,1
75710,-83.3333333333333,4,2,1,90,0,1
75720,-83.3333333333333,4,2,2,90,0,1
75796,-83.3333333333333,4,2,2,90,0,1
75806,-83.3333333333333,4,2,17,90,0,1
75882,-83.3333333333333,4,2,17,90,0,1
75892,-83.3333333333333,4,2,4,90,0,1
75968,-83.3333333333333,4,2,4,90,0,1
75977,-83.3333333333333,4,2,5,90,0,1
76053,-83.3333333333333,4,2,5,90,0,1
76063,-83.3333333333333,4,2,2,90,0,1
76139,-83.3333333333333,4,2,2,90,0,1
76149,-83.3333333333333,4,2,1,85,0,1
76225,-83.3333333333333,4,2,1,85,0,1
76235,-83.3333333333333,4,2,5,85,0,1
76310,-83.3333333333333,4,2,5,85,0,1
76320,-83.3333333333333,4,2,4,85,0,1
76396,-83.3333333333333,4,2,4,85,0,1
76406,-83.3333333333333,4,2,1,85,0,1
76482,-83.3333333333333,4,2,1,85,0,1
76492,-83.3333333333333,4,2,1,80,0,1
76653,-83.3333333333333,4,2,1,80,0,1
76663,-83.3333333333333,4,2,5,80,0,1
76739,-83.3333333333333,4,2,5,80,0,1
76749,-83.3333333333333,4,2,1,80,0,1
76825,-111.111111111111,4,2,1,80,0,1
76835,-111.111111111111,4,2,1,75,0,1
76910,-250,4,2,1,75,0,1
76920,-250,4,2,2,75,0,1
77177,340.909090909091,4,2,12,90,1,1
77177,-66.6666666666667,4,2,12,90,0,1
77517,-83.3333333333333,4,2,7,90,0,1
77853,-83.3333333333333,4,2,7,90,0,1
77858,-83.3333333333333,4,2,6,90,0,1
78196,-83.3333333333333,4,2,6,90,0,1
78199,-83.3333333333333,4,2,7,90,0,1
78540,342.857142857143,4,2,13,90,1,1
78540,-83.3333333333333,4,2,13,90,0,1
78882,-83.3333333333333,4,2,7,90,0,1
79053,-83.3333333333333,4,2,1,90,0,1
79225,-83.3333333333333,4,2,14,90,0,1
79396,-83.3333333333333,4,2,1,90,0,1
79568,-83.3333333333333,4,2,7,90,0,1
79739,-83.3333333333333,4,2,1,90,0,1
79910,-83.3333333333333,4,2,18,90,0,1
80082,-83.3333333333333,4,2,1,90,0,1
80253,-83.3333333333333,4,2,7,90,0,1
80596,-83.3333333333333,4,2,3,90,0,1
80939,-83.3333333333333,4,2,7,90,0,1
81282,-71.4285714285714,4,2,12,90,0,1
81368,-71.4285714285714,4,2,1,90,0,1
82396,-71.4285714285714,4,2,2,90,0,1
82482,-71.4285714285714,4,2,1,90,0,1
82653,-83.3333333333333,4,2,19,90,0,1
82825,-83.3333333333333,4,2,3,90,0,1
82996,-83.3333333333333,4,2,7,90,0,1
83168,-83.3333333333333,4,2,3,90,0,1
83339,-83.3333333333333,4,2,20,90,0,1
83510,-83.3333333333333,4,2,3,90,0,1
83682,-83.3333333333333,4,2,6,90,0,1
83853,-83.3333333333333,4,2,3,90,0,1
83854,375,4,2,3,90,1,1
84041,344.827586206897,4,2,16,90,1,0
84041,-166.666666666667,4,2,16,90,0,0
84196,-166.666666666667,4,2,16,90,0,0
84213,-166.666666666667,4,2,1,60,0,0
85420,340.909090909091,4,2,1,50,1,0
85420,-166.666666666667,4,2,1,60,0,0
86425,-250,4,2,1,50,0,0
87625,-250,4,2,1,50,0,0
87635,-250,4,2,1,55,0,0
87796,-250,4,2,1,55,0,0
87806,-250,4,2,1,60,0,0
87968,-250,4,2,1,60,0,0
87976,-250,4,2,3,70,0,0

[Colours]
Combo1 : 155,68,70
Combo2 : 216,219,224
Combo3 : 113,162,185

[HitObjects]
119,326,11007,6,0,P|80:322|50:341,1,71.9999978027344
53,340,11322,2,0,P|86:286|78:224,1,128,2|2,1:2|1:2,0:0:0:0:
0,109,11843,1,2,2:2:0:0:
0,109,11930,1,2,0:0:0:0:
0,109,12017,2,0,P|46:117|125:131,1,128,2|2,1:3|1:2,0:0:0:0:
239,92,12531,5,2,2:2:0:0:
239,92,12617,1,2,0:0:0:0:
239,92,12702,2,0,P|249:55|258:20,1,64,2|0,1:3|0:0,0:0:0:0:
212,190,13044,2,0,P|220:220|228:259,1,64,2|2,1:2|2:2,0:0:0:0:
229,266,13302,1,2,0:0:0:0:
226,279,13387,2,0,P|171:305|108:265,1,128,2|2,1:3|1:2,0:0:0:0:
296,144,13902,2,0,P|327:151|358:159,1,64,2|2,2:2|1:3,0:0:0:0:
357,160,14416,21,2,1:2:0:0:
512,44,14587,1,2,2:2:0:0:
512,44,14673,1,2,0:0:0:0:
512,44,14759,2,0,P|449:45|402:86,1,128,2|2,1:3|1:2,0:0:0:0:
491,217,15273,1,2,2:2:0:0:
491,217,15359,1,2,0:0:0:0:
491,217,15444,2,0,P|499:178|513:131,1,64,2|0,1:2|0:0,0:0:0:0:
318,30,15787,6,0,P|245:46|189:61,1,128,2|2,1:3|1:3,0:0:0:0:
187,61,16302,1,0,0:0:0:0:
256,209,16473,2,0,L|272:147,1,64,2|2,1:3|2:3,0:0:0:0:
47,7,16816,21,6,1:2:0:0:
47,7,17168,2,0,L|29:72,1,64,10|10,1:2|2:2,0:0:0:0:
76,207,17512,1,8,1:2:0:0:
122,150,17685,1,8,2:2:0:0:
8,164,17857,1,10,1:2:0:0:
122,150,18030,1,10,2:2:0:0:
56,307,18202,5,8,1:2:0:0:
204,342,18374,1,8,2:2:0:0:
127,264,18546,1,10,1:2:0:0:
254,222,18719,1,10,2:2:0:0:
137,82,18891,1,8,1:2:0:0:
351,19,19064,1,8,2:2:0:0:
137,82,19236,1,8,1:2:0:0:
351,19,19408,1,8,2:2:0:0:
245,0,19581,22,0,L|234:42,3,40,8|8|4|4,1:2|2:3|2:3|2:3,0:0:0:0:
305,104,19916,2,0,L|315:159,3,40,8|8|4|4,1:2|2:3|2:3|2:3,0:0:0:0:
227,218,20251,2,0,L|217:257,3,40,8|8|8|8,1:2|2:2|2:2|2:2,0:0:0:0:
271,346,20586,1,8,2:2:0:0:
303,320,20670,1,8,2:2:0:0:
348,350,20754,1,8,2:2:0:0:
384,323,20837,1,8,2:2:0:0:
428,347,20921,5,2,1:2:0:0:
480,288,21102,2,0,L|465:210,1,80
464,209,21455,1,0,0:0:0:0:
303,320,21798,21,0,0:0:0:0:
425,29,22129,5,8,2:2:0:0:
265,116,22289,21,6,1:2:0:0:
265,116,22463,1,2,1:2:0:0:
316,0,22637,2,0,P|330:37|343:87,1,88.000002685547,10|2,2:2|2:2,0:0:0:0:
412,123,22899,1,2,0:0:0:0:
422,127,22986,2,0,P|462:128|502:85,1,88.000002685547,2|2,2:2|1:2,0:0:0:0:
199,45,23335,6,0,P|148:59|99:80,1,88.000002685547,10|2,2:2|2:2,0:0:0:0:
106,63,23597,1,2,0:0:0:0:
110,53,23684,2,0,P|126:88|131:148,1,88.000002685547,2|2,1:2|1:2,0:0:0:0:
29,305,24026,1,10,2:2:0:0:
0,232,24198,1,2,2:2:0:0:
0,232,24284,1,2,0:0:0:0:
0,232,24369,1,2,2:2:0:0:
78,244,24541,1,2,1:2:0:0:
164,384,24712,22,0,P|141:348|155:297,1,88.000002685547,10|2,2:2|2:2,0:0:0:0:
204,256,24969,1,2,0:0:0:0:
213,254,25055,2,0,P|263:268|329:287,1,88.000002685547,2|2,1:2|1:2,0:0:0:0:
488,123,25398,2,0,L|398:146,1,88.000002685547,10|2,2:2|2:2,0:0:0:0:
391,157,25655,1,2,0:0:0:0:
389,170,25741,2,0,L|400:217,3,44.0000013427735,2|0|2|0,2:2|0:0|1:2|0:0,0:0:0:0:
478,314,26084,6,0,P|487:264|499:217,1,88.000002685547,10|2,2:2|2:2,0:0:0:0:
287,92,26426,2,0,P|274:142|266:189,1,88.000002685547,2|2,1:2|1:2,0:0:0:0:
137,328,26769,1,10,2:2:0:0:
45,269,26941,1,2,2:2:0:0:
45,269,27026,1,2,0:0:0:0:
45,269,27112,2,0,L|98:250,1,44.0000013427735,6|0,1:2|0:0,0:0:0:0:
136,179,27276,2,0,L|183:193,1,44.0000013427735,10|8,2:2|2:2,0:0:0:0:
248,259,27440,2,0,L|305:247,3,44.0000013427735,10|8|10|8,2:2|2:2|2:2|2:2,0:0:0:0:
356,180,27769,22,0,P|348:138|338:101,1,80,6|2,1:2|1:2,0:0:0:0:
124,0,28144,1,10,2:2:0:0:
124,0,28315,1,2,2:2:0:0:
180,51,28486,2,0,P|221:43|256:27,1,80,2|0,2:2|1:1,0:0:0:0:
474,103,28829,1,8,2:2:0:0:
481,24,29001,6,0,P|404:28|360:92,1,160,2|2,2:2|1:2,0:0:0:0:
263,158,29514,2,0,P|271:194|279:238,1,80,10|2,2:2|2:2,0:0:0:0:
414,377,29857,1,2,2:2:0:0:
484,304,30029,1,2,1:2:0:0:
429,251,30200,2,0,P|391:261|348:272,1,80,10|0,2:2|0:0,0:0:0:0:
205,362,30543,21,2,1:3:0:0:
205,362,30714,1,2,1:2:0:0:
132,265,30886,1,10,2:2:0:0:
224,265,31057,1,2,2:2:0:0:
111,354,31229,2,0,P|67:339|26:324,1,80,2|2,2:2|1:2,0:0:0:0:
94,173,31572,1,10,2:2:0:0:
189,197,31743,5,2,2:2:0:0:
189,197,31829,1,2,0:0:0:0:
189,197,31914,2,0,B|200:161|238:139|238:139|241:83|212:41,1,160,2|10,1:3|2:2,0:0:0:0:
140,33,32429,1,2,2:2:0:0:
333,90,32600,2,0,P|319:48|312:9,1,80,2|2,2:2|1:2,0:0:0:0:
222,59,32943,1,10,2:2:0:0:
353,193,33114,21,2,2:2:0:0:
353,193,33200,1,2,0:0:0:0:
353,193,33286,1,2,1:3:0:0:
291,265,33457,2,0,P|253:279|214:288,1,80,2|8,1:2|2:2,0:0:0:0:
23,159,33800,2,0,B|44:139|44:139|126:113|165:176,1,160,2|2,2:2|1:2,0:0:0:0:
95,331,34314,2,0,P|88:279|79:248,1,80,8|0,2:2|0:0,0:0:0:0:
231,61,34643,5,2,1:3:0:0:
307,116,34814,1,2,1:2:0:0:
376,38,34985,1,10,2:2:0:0:
307,116,35157,1,2,2:2:0:0:
394,169,35328,2,0,P|432:155|473:146,1,80,2|2,2:2|1:2,0:0:0:0:
504,79,35671,1,10,2:2:0:0:
504,79,35843,1,2,2:2:0:0:
355,253,36014,22,0,B|335:246|335:246|305:210|305:210|251:197|211:202,1,160,2|8,1:3|2:2,0:0:0:0:
40,346,36528,2,0,B|66:357|66:357|151:354|165:283,1,160,2|0,2:2|1:1,0:0:0:0:
28,156,37043,2,0,P|46:198|63:245,1,80,8|0,2:2|0:0,0:0:0:0:
365,384,37385,6,0,P|375:327|394:253,1,120,6|0,1:2|0:0,0:0:0:0:
399,261,37723,2,0,P|450:273|478:285,1,80,10|8,2:2|2:2,0:0:0:0:
144,384,38062,1,6,1:2:0:0:
144,384,38401,2,0,P|100:344|95:285,1,120,10|8,2:2|2:2,0:0:0:0:
69,209,38740,22,0,P|130:268|214:256,1,176.000005371094,6|10,1:2|2:2,0:0:0:0:
257,51,39258,2,0,P|223:66|162:78,1,88.000002685547,2|2,1:2|2:3,0:0:0:0:
355,271,39604,2,0,P|365:223|382:184,1,88.000002685547,2|10,1:2|2:2,0:0:0:0:
266,169,39950,1,2,2:2:0:0:
378,53,40123,6,0,P|448:58|486:117,1,132.00000402832,2|0,1:2|1:1,0:0:0:0:
484,116,40469,1,10,2:2:0:0:
355,271,40642,2,0,B|262:278|278:234|184:235,1,176.000005371094,2|2,1:2|1:2,0:0:0:0:
99,382,41160,2,0,P|136:363|193:348,1,88.000002685547,10|2,2:2|2:2,0:0:0:0:
104,159,41506,1,2,1:3:0:0:
41,223,41677,1,0,1:1:0:0:
41,223,41763,1,0,1:1:0:0:
41,223,41848,1,10,2:2:0:0:
42,88,42020,21,2,1:2:0:0:
199,172,42191,1,2,2:2:0:0:
271,96,42363,1,2,1:2:0:0:
196,27,42534,1,10,2:2:0:0:
108,139,42706,6,0,P|122:181|155:310,1,176.000005371094,2|2,2:2|1:2,0:0:0:0:
148,323,43134,1,0,1:1:0:0:
137,323,43220,1,10,2:2:0:0:
232,221,43391,2,0,P|275:232|329:242,1,88.000002685547,2|2,2:2|1:3,0:0:0:0:
427,151,43734,2,0,L|369:138,3,44.0000013427735,10|8|6|4,2:2|2:3|2:3|2:3,0:0:0:0:
458,239,44077,21,10,2:2:0:0:
471,244,44163,1,8,2:2:0:0:
482,249,44248,2,0,P|519:196|512:132,1,132.00000402832,6|0,1:2|0:0,0:0:0:0:
512,27,44598,2,0,L|426:47,1,88.000002685547,10|0,2:2|1:1,0:0:0:0:
327,72,44862,1,0,1:1:0:0:
320,82,44949,2,0,L|234:61,1,88.000002685547,10|2,2:2|1:2,0:0:0:0:
167,0,45212,1,0,1:1:0:0:
151,0,45300,2,0,L|125:84,1,88.000002685547,10|2,2:2|1:2,0:0:0:0:
171,156,45563,5,0,1:1:0:0:
172,168,45651,2,0,P|206:193|299:173,1,132.00000402832,6|0,1:2|0:0,0:0:0:0:
494,170,45992,2,0,P|421:171|380:231,1,132.00000402832,10|0,2:2|1:1,0:0:0:0:
375,222,46334,21,10,2:2:0:0:
445,384,46505,2,0,P|455:338|469:293,1,88.000002685547,2|10,1:2|2:2,0:0:0:0:
307,95,46847,1,6,2:3:0:0:
307,95,46933,1,4,2:3:0:0:
307,95,47018,2,0,P|296:139|286:204,1,88.000002685547,6|0,1:2|1:1,0:0:0:0:
191,347,47360,1,10,2:2:0:0:
116,285,47532,1,0,1:1:0:0:
116,285,47618,1,0,1:1:0:0:
116,285,47703,1,2,1:2:0:0:
205,256,47875,5,2,1:2:0:0:
97,384,48046,1,10,2:2:0:0:
205,256,48212,1,2,2:2:0:0:
0,250,48379,21,14,2:2:0:0:
158,147,48548,2,0,P|111:135|59:118,1,88.000002685547,8|0,2:2|1:1,0:0:0:0:
187,13,48886,5,12,2:2:0:0:
377,193,49055,2,0,P|419:182|462:174,1,88.000002685547,10|0,2:2|1:1,0:0:0:0:
313,19,49393,2,0,P|264:59|267:124,1,132.00000402832,12|0,2:2|0:0,0:0:0:0:
274,128,49745,22,0,B|315:146|366:121|335:-13|210:1|127:91|125:203|155:280|187:308|268:336|318:330|342:255|269:251|277:288,1,512,6|0,1:2|0:0,0:0:0:0:
147,344,55212,6,0,P|88:345|42:294,1,120,2|0,1:3|0:0,0:0:0:0:
53,294,55561,1,10,2:2:0:0:
153,136,55736,2,0,P|223:170|247:244,1,160,2|2,2:2|1:2,0:0:0:0:
235,261,56174,1,0,1:1:0:0:
215,259,56261,1,10,2:2:0:0:
314,111,56436,22,0,P|358:124|407:130,1,80,2|2,2:2|1:3,0:0:0:0:
502,78,56784,1,2,1:2:0:0:
402,13,56957,1,10,2:2:0:0:
355,217,57131,2,0,P|373:292|391:392,1,160,2|2,2:2|1:2,0:0:0:0:
512,293,57642,2,0,P|502:249|495:209,1,80,10|2,2:2|2:2,0:0:0:0:
249,342,57981,6,0,L|210:352,3,40,2|0|0|0,1:3|1:1|1:1|1:1,0:0:0:0:
122,336,58321,2,0,P|111:288|96:248,1,80,8|0,2:2|1:1,0:0:0:0:
202,118,58662,1,2,1:3:0:0:
279,221,58833,1,0,1:1:0:0:
406,139,59003,2,0,P|360:126|318:109,1,80,8|2,2:2|2:2,0:0:0:0:
0,346,59344,21,10,1:2:0:0:
0,346,59686,2,0,L|50:331,1,40,10|8,1:2|2:2,0:0:0:0:
132,216,59858,2,0,B|147:211|147:211|212:217|201:246|251:278|251:278|291:280,2,160,2|2|2,1:2|2:2|2:2,0:0:0:0:
373,384,60715,5,6,1:2:0:0:
373,384,61058,2,0,P|381:337|388:322,1,47.9999985351563,2|0,2:2|0:0,0:0:0:0:
342,265,61401,2,0,P|333:214|330:206,3,47.9999985351563,2|0|0|0,2:2|0:0|0:0|0:0,0:0:0:0:
419,266,62086,2,0,B|462:263|462:245|530:237,1,95.9999970703126,2|2,2:2|2:2,0:0:0:0:
280,357,62601,2,0,B|234:345|238:332|171:327,1,95.9999970703126,2|2,2:2|2:2,0:0:0:0:
95,335,63115,2,0,P|107:356|112:388,1,47.9999985351563
264,224,63458,21,2,2:2:0:0:
264,224,63801,1,2,2:2:0:0:
264,224,64144,1,2,2:2:0:0:
264,224,64486,1,2,2:3:0:0:
128,358,64829,5,2,1:2:0:0:
458,196,65172,1,2,1:2:0:0:
66,67,65515,2,0,L|82:124,1,40,8|8,2:2|2:2,0:0:0:0:
172,219,65686,2,0,L|182:180,1,40,10|8,2:2|2:2,0:0:0:0:
241,58,65858,2,0,P|211:70|184:78,1,55.9999982910157,8|0,2:2|0:0,0:0:0:0:
324,228,66201,6,0,B|405:236|397:292|483:305,1,180.000006866455,6|0,1:2|0:0,0:0:0:0:
512,226,66544,2,0,P|470:240|419:254,1,95.9999970703126,10|0,2:2|0:0,0:0:0:0:
92,380,66886,2,0,P|47:323|67:245,1,143.999995605469,2|0,1:2|0:0,0:0:0:0:
27,158,67229,2,0,P|81:175|127:192,1,95.9999970703126,10|0,2:2|0:0,0:0:0:0:
420,253,67572,6,0,P|496:187|497:100,1,191.999994140625,6|10,1:2|2:2,0:0:0:0:
419,57,68086,1,0,0:0:0:0:
297,188,68258,2,0,P|306:229|314:291,1,95.9999970703126,6|0,1:2|1:1,0:0:0:0:
492,375,68601,2,0,P|502:328|517:282,1,95.9999970703126,10|0,2:2|0:0,0:0:0:0:
284,87,68944,21,6,1:2:0:0:
185,215,69113,1,0,1:1:0:0:
0,117,69282,2,0,P|73:69|172:105,1,191.999994140625,10|2,2:2|1:2,0:0:0:0:
93,280,69791,1,0,1:1:0:0:
93,280,69960,2,0,P|81:233|65:183,1,95.9999970703126,10|0,2:2|0:0,0:0:0:0:
375,0,70299,6,0,B|391:33|391:33|363:90|363:90|366:147|399:167,1,167.999994873047,14|8,1:2|2:2,0:0:0:0:
460,180,70639,1,10,2:2:0:0:
467,185,70725,1,8,2:2:0:0:
473,191,70810,2,0,B|508:167|508:167|512:121|512:121|495:104,1,111.999996582031,10|8,1:2|2:2,0:0:0:0:
197,35,71153,1,10,2:2:0:0:
186,34,71240,1,8,2:3:0:0:
176,41,71326,2,0,B|145:58|145:58|138:99|138:99|159:136,1,111.999996582031,4|10,2:3|2:2,0:0:0:0:
422,276,71673,21,6,1:2:0:0:
422,276,71844,1,0,1:1:0:0:
227,369,72015,2,0,P|214:318|197:270,1,95.9999970703126,10|0,2:2|0:0,0:0:0:0:
385,71,72358,1,2,1:2:0:0:
423,197,72530,2,0,P|377:182|330:172,1,95.9999970703126,2|10,1:2|2:2,0:0:0:0:
0,105,72873,6,0,P|69:42|162:48,1,191.999994140625,2|2,2:2|1:2,0:0:0:0:
240,184,73391,1,10,2:2:0:0:
330,172,73565,2,0,P|359:135|360:88,1,95.9999970703126,2|2,2:2|1:3,0:0:0:0:
116,139,73913,1,2,1:2:0:0:
116,139,74087,2,0,P|128:188|140:239,1,95.9999970703126,10|2,2:2|2:2,0:0:0:0:
98,384,74435,21,6,1:2:0:0:
229,267,74606,1,2,1:2:0:0:
229,267,74692,1,0,1:1:0:0:
229,267,74777,1,10,2:2:0:0:
0,195,74949,1,4,2:3:0:0:
0,195,75035,1,4,2:3:0:0:
0,195,75120,1,6,1:2:0:0:
52,271,75292,2,0,B|110:260|134:193|134:193|181:194|212:171,1,191.999994140625,0|4,1:1|2:3,0:0:0:0:
488,315,75806,5,6,1:2:0:0:
482,311,75920,2,2,P|443:323|413:338,1,63.9999980468751
412,155,76149,1,2,1:2:0:0:
408,165,76263,2,2,P|440:188|470:204,1,63.9999980468751
335,296,76492,1,2,1:2:0:0:
342,293,76606,2,2,P|335:261|321:232,1,63.9999980468751
470,196,76835,2,0,B|504:148|504:148|472:81,1,107.999996704102,2|4,1:2|2:3,0:0:0:0:
394,47,77177,22,0,B|309:37|306:88|222:90,1,180.000006866455,6|0,1:2|0:0,0:0:0:0:
197,17,77517,2,0,P|242:36|292:50,1,95.9999970703126,10|0,2:2|0:0,0:0:0:0:
338,331,77858,2,0,P|293:311|286:206,1,143.999995605469,2|0,1:2|0:0,0:0:0:0:
344,143,78199,2,0,P|356:188|371:235,1,95.9999970703126,10|0,2:2|0:0,0:0:0:0:
0,278,78540,6,0,P|51:200|143:195,1,191.999994140625,6|10,1:2|2:2,0:0:0:0:
127,274,79054,1,2,2:2:0:0:
26,114,79225,1,6,1:2:0:0:
227,47,79397,2,0,P|215:96|206:148,1,95.9999970703126,2|10,1:2|2:2,0:0:0:0:
468,374,79740,22,0,P|481:325|491:272,1,95.9999970703126,2|6,2:2|1:2,0:0:0:0:
310,162,80082,1,2,1:2:0:0:
270,270,80254,2,0,P|362:264|418:189,1,191.999994140625,10|2,2:2|1:3,0:0:0:0:
310,53,80768,1,0,1:1:0:0:
310,53,80940,2,0,P|261:66|206:82,1,95.9999970703126,10|0,2:2|0:0,0:0:0:0:
67,368,81282,6,0,B|36:364|36:364|-9:337|3:273|3:273|32:234,1,167.999994873047,14|8,1:2|2:2,0:0:0:0:
76,178,81625,1,10,2:2:0:0:
83,173,81711,1,8,2:2:0:0:
89,168,81797,2,0,B|108:196|108:196|104:240|104:240|124:283,1,111.999996582031,10|8,1:2|2:2,0:0:0:0:
396,372,82140,1,10,2:2:0:0:
403,377,82225,1,8,2:3:0:0:
409,382,82311,2,0,B|428:353|428:353|437:307|437:307|410:275,1,111.999996582031,4|10,2:3|2:2,0:0:0:0:
355,236,82568,21,8,2:2:0:0:
345,227,82654,2,0,L|252:253,1,95.9999970703126,6|2,1:2|2:2,0:0:0:0:
182,68,82997,1,10,2:2:0:0:
61,145,83168,2,0,L|155:161,1,95.9999970703126,2|6,2:2|1:2,0:0:0:0:
144,375,83511,1,2,2:2:0:0:
0,311,83682,2,0,L|94:295,1,95.9999970703126,10|2,2:2|2:2,0:0:0:0:
378,366,84041,5,6,1:2:0:0:
256,185,85420,5,2,2:2:0:0:
256,192,85505,12,2,87976,1:2:0:0:
