osu file format v14

[General]
AudioFilename: audio.mp3
AudioLeadIn: 0
PreviewTime: 66192
Countdown: 0
SampleSet: Soft
StackLeniency: 0.7
Mode: 0
LetterboxInBreaks: 0
WidescreenStoryboard: 1

[Editor]
DistanceSpacing: 1.4
BeatDivisor: 4
GridSize: 4
TimelineZoom: 1.7

[Metadata]
Title:abnormalize (TV Size)
TitleUnicode:abnormalize (TV Size)
Artist:Ling tosite sigure
ArtistUnicode:凛として時雨
Creator:Addy2607
Version:Insane
Source:PSYCHO-PASS
Tags:サイコパス opening intro theme song anime animation japanese rock jrock j-rock shueisha tsunemori akane shinya kougami production i.g cyberpunk Tōru Toru Touru TK Kitajima Miyoko 345 Nakamura Masatoshi Pierre Nakano
BeatmapID:2558128
BeatmapSetID:1230498

[Difficulty]
HPDrainRate:5.5
CircleSize:3.6
OverallDifficulty:7
ApproachRate:9
SliderMultiplier:1.6
SliderTickRate:1

[Events]
//Background and Video events
Video,-575,"Psycho-Pass Opening 1 - Creditless 1080p.mp4"
0,0,"Kougami-Shinya-22313.jpg",0,0
//Break Periods
2,50106,54792
2,61077,63020
//Storyboard Layer 0 (Background)
//Storyboard Layer 1 (Fail)
//Storyboard Layer 2 (Pass)
//Storyboard Layer 3 (Foreground)
//Storyboard Layer 4 (Overlay)
//Storyboard Sound Samples

[TimingPoints]
535,342.857142857143,4,2,2,40,1,0
535,-142.857142857143,4,2,2,40,0,0
11506,-125,4,2,1,50,0,0
17335,-166.666666666667,4,2,1,50,0,0
17677,-153.846153846154,4,2,1,50,0,0
18020,-142.857142857143,4,2,1,50,0,0
18363,-133.333333333333,4,2,1,50,0,0
18706,-125,4,2,1,60,0,0
19049,-117.647058823529,4,2,1,60,0,0
19392,-111.111111111111,4,2,1,60,0,0
19735,-100,4,2,1,70,0,0
21106,-125,4,2,2,40,0,0
22477,-100,4,2,1,60,0,0
27963,-133.333333333333,4,2,1,50,0,0
37563,-100,4,2,2,50,0,0
38935,-117.647058823529,4,2,1,60,0,0
44420,-100,4,2,1,70,0,0
49906,-333.333333333333,4,2,3,40,0,0
52135,-222.222222222222,4,2,3,40,0,0
54020,-250,4,2,3,40,0,0
55392,-117.647058823529,4,2,1,60,0,0
58135,-142.857142857143,4,2,1,60,0,0
58477,-133.333333333333,4,2,1,60,0,0
58820,-125,4,2,1,60,0,0
59163,-117.647058823529,4,2,1,60,0,0
60877,-250,4,2,1,50,0,0
63620,-153.846153846154,4,2,1,60,0,0
65677,-153.846153846154,4,2,1,70,0,0
66020,-100,4,2,1,60,0,0
66277,-100,4,2,1,5,0,0
66363,-90.9090909090909,4,2,1,80,0,1
69106,-100,4,2,1,80,0,1
70477,-83.3333333333333,4,2,1,90,0,1
71849,-90.9090909090909,4,2,1,80,0,1
74592,-100,4,2,1,80,0,1
75963,-83.3333333333333,4,2,1,80,0,1
77335,-90.9090909090909,4,2,1,80,0,1
80077,-100,4,2,1,80,0,1
81449,-83.3333333333333,4,2,1,90,0,1
82820,-111.111111111111,4,2,1,75,0,1
84192,-142.857142857143,4,2,1,50,0,0
85563,-133.333333333333,4,2,2,40,0,0

[Colours]
Combo1 : 217,0,0
Combo2 : 0,140,255
Combo3 : 127,127,127
Combo4 : 191,191,191

[HitObjects]
446,43,535,6,0,L|519:34,2,55.9999982910157,0|0|2,3:0|3:0|3:2,0:0:0:0:
375,112,1049,2,0,P|309:133|264:109,1,111.999996582031,2|0,3:2|3:0,0:0:0:0:
201,48,1563,1,2,3:2:0:0:
201,48,1735,2,0,P|135:27|90:51,1,111.999996582031,2|0,3:2|3:0,0:0:0:0:
29,115,2249,1,2,3:2:0:0:
29,115,2420,2,0,L|32:244,1,111.999996582031,2|0,3:2|3:0,0:0:0:0:
113,285,2935,1,2,3:2:0:0:
113,285,3106,1,2,3:2:0:0:
197,179,3277,6,0,P|246:157|307:185,1,111.999996582031,0|0,3:0|3:0,0:0:0:0:
360,290,3792,1,2,3:2:0:0:
360,290,3963,2,0,L|363:231,1,55.9999982910157,2|0,0:0|3:0,0:0:0:0:
368,154,4306,1,2,3:2:0:0:
368,154,4477,1,2,3:2:0:0:
447,94,4649,2,0,L|502:105,2,55.9999982910157,0|0|0,3:0|3:0|3:0,0:0:0:0:
370,30,5163,2,0,L|253:37,1,111.999996582031,0|0,3:0|3:0,0:0:0:0:
219,129,5677,2,0,L|146:124,1,55.9999982910157,0|0,3:0|3:0,0:0:0:0:
80,72,6020,6,0,P|62:138|84:191,1,111.999996582031,0|2,3:0|3:2,0:0:0:0:
131,261,6535,2,0,P|197:243|250:265,1,111.999996582031,2|0,3:2|3:0,0:0:0:0:
315,317,7049,1,2,3:2:0:0:
315,317,7220,2,0,L|436:308,1,111.999996582031,2|0,3:2|3:0,0:0:0:0:
456,213,7735,1,2,3:2:0:0:
456,213,7906,2,0,L|335:222,1,111.999996582031,2|0,3:2|3:0,0:0:0:0:
265,159,8420,1,2,3:2:0:0:
184,218,8592,1,2,3:2:0:0:
115,148,8763,6,0,P|96:77|121:31,1,111.999996582031,0|0,3:0|3:0,0:0:0:0:
203,11,9277,2,0,L|332:13,1,111.999996582031,2|0,3:2|3:0,0:0:0:0:
409,48,9792,2,0,L|415:110,1,55.9999982910157,2|0,3:2|3:0,0:0:0:0:
432,201,10135,6,0,L|499:191,2,55.9999982910157,0|0|0,3:0|3:0|3:0,0:0:0:0:
375,283,10649,2,0,P|317:261|270:276,1,111.999996582031,0|0,3:0|3:0,0:0:0:0:
181,317,11163,2,0,P|130:334|91:318,1,83.9999974365235,0|0,3:0|3:0,0:0:0:0:
71,302,11506,6,0,L|69:237,1,64,0|0,3:0|0:0,0:0:0:0:
6,115,11848,1,2,3:2:0:0:
6,115,12020,2,0,P|52:90|127:122,1,128,2|0,0:0|0:0,0:0:0:0:
221,195,12535,1,2,3:2:0:0:
221,195,12706,2,0,L|373:189,1,128,2|0,0:0|0:0,0:0:0:0:
449,105,13221,1,2,3:2:0:0:
449,105,13392,2,0,B|431:164|431:164|456:236,1,128,2|0,0:0|0:0,0:0:0:0:
495,326,13906,1,2,3:2:0:0:
439,254,14077,1,2,0:0:0:0:
495,326,14249,6,0,P|424:352|371:323,1,128,0|2,3:0|3:2,0:0:0:0:
296,232,14763,2,0,P|225:206|172:235,1,128,2|0,0:0|0:0,0:0:0:0:
52,296,15277,2,0,L|58:228,1,64,2|2,3:2|0:0,0:0:0:0:
75,99,15620,2,0,L|8:92,2,64,0|0|0,3:0|0:0|3:0,0:0:0:0:
156,41,16135,2,0,B|228:32|210:84|287:66,1,128
369,28,16649,2,0,L|377:99,1,64,0|0,3:0|0:0,0:0:0:0:
381,123,16906,1,0,0:0:0:0:
381,123,16992,5,4,0:0:0:0:
262,332,17335,2,0,L|257:277,1,47.9999985351563,2|2,3:2|3:2,0:0:0:0:
169,296,17677,2,0,L|164:241,1,51.999997619629,0|0,3:0|3:0,0:0:0:0:
76,260,18020,2,0,L|71:205,1,55.9999982910157,2|2,3:2|3:2,0:0:0:0:
32,115,18363,6,0,L|95:109,1,60.0000022888184,0|0,3:0|3:0,0:0:0:0:
156,32,18706,2,0,L|219:38,1,64,2|2,3:2|3:2,0:0:0:0:
287,109,19049,1,0,3:0:0:0:
287,109,19220,1,0,3:0:0:0:
376,63,19392,1,0,3:0:0:0:
376,63,19563,1,0,3:0:0:0:
429,149,19735,5,8,0:0:0:0:
428,188,19820,1,8,0:0:0:0:
427,228,19906,1,8,0:0:0:0:
426,268,19992,1,8,0:0:0:0:
426,308,20077,2,0,L|366:304,3,40,8|8|8|8,0:0|0:0|0:0|0:0,0:0:0:0:
247,347,20420,5,8,0:0:0:0:
211,364,20505,1,8,0:0:0:0:
171,361,20591,1,8,0:0:0:0:
138,340,20677,1,8,0:0:0:0:
119,305,20763,2,0,L|118:242,3,40,8|8|8|8,0:0|0:0|0:0|0:0,0:0:0:0:
115,151,21106,5,14,0:0:0:0:
488,150,22306,5,8,0:0:0:0:
424,54,22477,6,0,L|330:61,1,80,6|0,3:2|3:0,0:0:0:0:
190,142,22820,2,0,L|270:148,1,80,10|2,0:0|0:0,0:0:0:0:
92,79,23163,2,0,L|83:21,2,40,2|0|2,0:0|0:0|3:2,0:0:0:0:
35,178,23506,1,10,0:0:0:0:
35,178,23592,1,0,0:0:0:0:
35,178,23677,1,2,0:0:0:0:
78,302,23849,6,0,P|116:313|154:303,1,80,2|0,3:2|3:0,0:0:0:0:
308,221,24192,2,0,P|270:210|232:220,1,80,10|2,0:0|0:0,0:0:0:0:
377,294,24535,2,0,L|369:333,2,40,2|0|2,0:0|0:0|3:2,0:0:0:0:
496,238,24877,1,10,0:0:0:0:
496,238,24963,1,0,0:0:0:0:
496,238,25049,1,2,0:0:0:0:
396,181,25220,6,0,L|384:101,1,80,2|0,3:2|3:0,0:0:0:0:
499,40,25563,2,0,L|486:131,1,80,10|2,0:0|0:0,0:0:0:0:
390,1,25906,2,0,L|329:18,2,40,2|0|2,0:0|0:0|3:2,0:0:0:0:
285,104,26249,1,10,0:0:0:0:
285,104,26335,1,0,0:0:0:0:
285,104,26420,1,2,0:0:0:0:
183,50,26592,6,0,L|191:148,1,80,2|0,3:2|3:0,0:0:0:0:
139,232,26935,2,0,P|178:217|227:235,1,80,10|2,0:0|0:0,0:0:0:0:
319,247,27277,2,0,L|325:200,2,40,10|8|10,0:0|0:0|0:0,0:0:0:0:
357,353,27620,1,10,0:0:0:0:
395,363,27705,1,8,0:0:0:0:
434,356,27791,1,10,0:0:0:0:
466,333,27877,1,8,0:0:0:0:
486,299,27963,6,0,L|493:221,1,60.0000022888184,4|2,3:2|3:2,0:0:0:0:
420,169,28306,2,0,L|426:90,1,60.0000022888184,10|2,0:0|0:0,0:0:0:0:
387,16,28649,2,0,P|427:5|481:26,2,90.0000034332277,2|2|2,0:0|0:0|0:0,0:0:0:0:
298,90,29335,6,0,L|221:82,1,60.0000022888184,0|2,3:0|3:2,0:0:0:0:
157,26,29677,2,0,L|80:34,1,60.0000022888184,10|2,0:0|0:0,0:0:0:0:
59,45,29935,1,0,0:0:0:0:
59,45,30020,2,0,P|53:88|61:112,1,60.0000022888184,2|2,0:0|3:2,0:0:0:0:
128,231,30363,2,0,P|132:201|126:172,1,60.0000022888184,10|0,0:0|0:0,0:0:0:0:
32,334,30706,6,0,L|102:327,1,60.0000022888184,0|2,3:0|3:2,0:0:0:0:
217,271,31049,1,10,0:0:0:0:
200,369,31220,1,2,0:0:0:0:
308,330,31392,2,0,P|341:337|381:324,1,60.0000022888184,2|2,0:0|3:2,0:0:0:0:
453,284,31735,1,10,0:0:0:0:
474,119,31906,1,2,0:0:0:0:
408,194,32077,6,0,L|340:192,1,60.0000022888184,0|2,3:0|3:2,0:0:0:0:
285,116,32420,1,10,0:0:0:0:
222,213,32591,1,2,0:0:0:0:
143,128,32763,2,0,L|144:68,1,60.0000022888184,2|2,0:0|3:2,0:0:0:0:
64,209,33106,2,0,L|66:277,1,60.0000022888184,10|2,0:0|0:0,0:0:0:0:
74,313,33363,1,0,0:0:0:0:
74,313,33449,6,0,P|112:320|142:310,1,60.0000022888184,0|2,3:0|3:2,0:0:0:0:
220,263,33792,1,8,0:0:0:0:
311,304,33963,2,0,L|318:384,1,60.0000022888184
390,244,34306,2,0,L|397:164,1,60.0000022888184,0|8,3:0|0:0,0:0:0:0:
496,129,34649,1,0,0:0:0:0:
464,34,34820,6,0,P|419:28|400:35,1,60.0000022888184,0|2,3:0|3:2,0:0:0:0:
346,110,35163,1,10,0:0:0:0:
287,29,35335,1,2,0:0:0:0:
194,63,35506,2,0,L|115:74,1,60.0000022888184,2|2,0:0|3:2,0:0:0:0:
42,165,35849,2,0,L|121:176,1,60.0000022888184,10|2,0:0|0:0,0:0:0:0:
177,237,36192,5,0,3:0:0:0:
245,163,36363,1,2,3:2:0:0:
306,241,36535,1,8,0:0:0:0:
375,169,36706,2,0,L|446:173,1,60.0000022888184
482,262,37049,2,0,L|411:266,1,60.0000022888184,0|8,3:0|0:0,0:0:0:0:
338,346,37392,1,0,0:0:0:0:
338,346,37563,6,0,P|300:356|262:346,1,80,6|0,3:2|0:0,0:0:0:0:
176,228,37906,2,0,P|221:218|259:231,1,80,10|0,0:0|0:0,0:0:0:0:
89,328,38249,2,0,L|82:239,1,80,6|0,3:2|0:0,0:0:0:0:
0,145,38592,2,0,L|7:56,1,80,10|0,0:0|0:0,0:0:0:0:
98,19,38849,1,0,0:0:0:0:
98,19,38935,6,0,B|177:5|160:62|240:38,1,136.000002593994,6|8,3:2|0:0,0:0:0:0:
320,2,39449,1,2,0:0:0:0:
397,64,39620,2,0,L|469:57,2,68.0000012969971,2|2|8,0:0|3:2|0:0,0:0:0:0:
321,128,40135,1,2,0:0:0:0:
242,277,40306,6,0,L|236:209,1,68.0000012969971,2|2,3:2|3:2,0:0:0:0:
233,174,40563,1,2,0:0:0:0:
233,174,40649,1,10,0:0:0:0:
159,334,40820,2,0,L|153:254,1,68.0000012969971,2|0,0:0|0:0,0:0:0:0:
70,210,41163,2,0,L|76:130,1,68.0000012969971,2|8,3:2|0:0,0:0:0:0:
85,42,41506,1,2,0:0:0:0:
180,73,41677,6,0,L|269:76,1,68.0000012969971,0|0,3:0|3:0,0:0:0:0:
284,43,41935,1,0,0:0:0:0:
284,43,42020,2,0,L|373:40,1,68.0000012969971,8|2,0:0|0:0,0:0:0:0:
462,75,42363,2,0,P|473:115|455:159,1,68.0000012969971,2|2,0:0|3:2,0:0:0:0:
384,192,42706,1,10,0:0:0:0:
464,344,42877,2,0,B|441:310|441:310|342:301,1,136.000002593994,2|2,0:0|3:2,0:0:0:0:
252,330,43392,1,8,0:0:0:0:
252,330,43563,2,0,P|183:353|117:318,1,136.000002593994,2|10,0:0|0:0,0:0:0:0:
41,266,44077,5,8,0:0:0:0:
39,232,44162,1,8,0:0:0:0:
38,198,44248,1,10,0:0:0:0:
37,164,44334,1,8,0:0:0:0:
65,135,44420,6,0,P|112:122|150:139,1,80,4|0,3:2|3:0,0:0:0:0:
295,194,44763,2,0,P|257:204|220:191,1,80,8|0,0:0|3:0,0:0:0:0:
377,136,45106,2,0,L|392:233,1,80,8|2,0:0|3:2,0:0:0:0:
461,80,45449,2,0,L|474:160,1,80,10|2,0:0|3:2,0:0:0:0:
379,24,45792,6,0,P|334:13|284:33,1,80,10|2,0:0|3:2,0:0:0:0:
215,71,46135,2,0,P|170:82|120:62,1,80,10|2,0:0|3:2,0:0:0:0:
94,45,46392,1,2,3:2:0:0:
94,45,46477,2,0,L|87:141,1,80,10|2,0:0|3:2,0:0:0:0:
28,205,46820,2,0,L|35:301,1,80,10|2,0:0|3:2,0:0:0:0:
94,363,47163,5,2,3:2:0:0:
94,363,47335,1,0,3:0:0:0:
170,299,47506,2,0,B|211:312|211:312|251:297,1,80,8|0,0:0|3:0,0:0:0:0:
282,282,47763,1,0,3:0:0:0:
282,282,47849,1,0,3:0:0:0:
352,354,48020,1,2,3:2:0:0:
388,260,48192,1,10,0:0:0:0:
462,327,48363,1,2,3:2:0:0:
380,253,48535,5,14,0:0:0:0:
486,150,48706,2,0,L|483:230,1,80,8|0,0:0|3:0,0:0:0:0:
410,63,49049,1,8,0:0:0:0:
342,156,49220,2,0,L|263:149,1,80,10|0,0:0|3:0,0:0:0:0:
145,91,49563,2,0,P|159:139|144:180,1,80,8|0,0:0|0:0,0:0:0:0:
68,247,49906,5,6,3:2:0:0:
372,321,55392,6,0,L|279:316,1,68.0000012969971,4|0,3:2|3:0,0:0:0:0:
270,288,55649,1,0,0:0:0:0:
270,288,55735,2,0,L|177:293,1,68.0000012969971,10|2,0:0|0:0,0:0:0:0:
85,349,56077,2,0,L|80:256,1,68.0000012969971,0|2,0:0|3:2,0:0:0:0:
52,247,56334,1,0,0:0:0:0:
52,247,56420,2,0,L|57:154,1,68.0000012969971,10|2,0:0|0:0,0:0:0:0:
159,60,56763,6,0,B|193:68|193:68|228:58,1,68.0000012969971,4|2,3:2|3:2,0:0:0:0:
264,40,57020,1,0,0:0:0:0:
264,40,57106,2,0,B|298:32|298:32|333:42,1,68.0000012969971,10|2,0:0|0:0,0:0:0:0:
434,89,57449,2,0,L|440:172,1,68.0000012969971,0|2,0:0|3:2,0:0:0:0:
417,196,57706,1,0,0:0:0:0:
417,196,57792,1,10,0:0:0:0:
487,288,57963,1,2,0:0:0:0:
335,346,58135,6,0,P|308:351|281:347,1,55.9999982910157,6|0,3:2|3:2,0:0:0:0:
141,288,58477,2,0,P|170:282|199:291,1,60.0000022888184,8|0,0:0|0:0,0:0:0:0:
31,336,58820,2,0,L|23:248,1,64,0|0,0:0|3:0,0:0:0:0:
106,118,59163,2,0,L|101:186,1,68.0000012969971,8|2,0:0|0:0,0:0:0:0:
29,38,59507,5,10,0:0:0:0:
61,13,59592,1,8,0:0:0:0:
101,5,59678,1,8,0:0:0:0:
140,13,59764,1,8,0:0:0:0:
173,37,59849,1,10,0:0:0:0:
193,72,59935,1,8,0:0:0:0:
205,105,60020,2,0,L|282:100,1,68.0000012969971,10|0,0:0|0:0,0:0:0:0:
350,35,60363,2,0,L|427:30,1,68.0000012969971,2|0,0:0|0:0,0:0:0:0:
496,114,60706,1,2,0:0:0:0:
356,197,60877,5,6,3:2:0:0:
465,278,63620,6,0,P|418:262|362:281,1,103.999995239258,0|2,0:0|0:0,0:0:0:0:
271,343,64306,2,0,P|224:359|168:340,1,103.999995239258,2|0,0:0|0:0,0:0:0:0:
93,260,64992,2,0,L|88:186,1,51.999997619629,2|2,3:2|0:0,0:0:0:0:
21,134,65335,2,0,L|26:60,1,51.999997619629,2|2,3:2|0:0,0:0:0:0:
137,14,65677,5,8,0:0:0:0:
169,15,65762,1,8,0:0:0:0:
201,16,65848,1,10,0:0:0:0:
234,17,65934,1,8,0:0:0:0:
266,18,66019,1,8,0:0:0:0:
466,143,66363,6,0,L|475:46,1,88.000002685547,6|0,3:2|3:0,0:0:0:0:
343,97,66706,2,0,L|352:194,1,88.000002685547,8|0,0:0|0:0,0:0:0:0:
369,315,67049,1,2,0:0:0:0:
270,257,67220,1,0,3:0:0:0:
190,342,67392,2,0,L|97:333,1,88.000002685547,8|0,0:0|0:0,0:0:0:0:
23,231,67735,6,0,B|69:141|-10:144|24:56,1,176.000005371094,2|8,3:2|0:0,0:0:0:0:
124,7,68249,1,0,0:0:0:0:
200,95,68420,2,0,L|293:107,1,88.000002685547,2|0,0:0|3:0,0:0:0:0:
419,2,68763,2,0,L|326:14,1,88.000002685547,8|0,0:0|0:0,0:0:0:0:
507,131,69106,6,0,B|501:191|501:191|478:213|478:213|471:285,1,160,2|8,3:2|0:0,0:0:0:0:
386,359,69620,1,0,0:0:0:0:
301,280,69792,2,0,P|259:266|214:283,1,80,0|0,0:0|3:0,0:0:0:0:
132,343,70135,2,0,P|90:357|45:340,1,80,8|0,0:0|0:0,0:0:0:0:
2,246,70477,5,6,3:2:0:0:
6,198,70562,1,0,3:0:0:0:
10,150,70648,1,8,0:0:0:0:
15,102,70734,1,8,0:0:0:0:
19,54,70820,2,0,L|85:45,1,47.9999985351563,10|8,0:0|0:0,0:0:0:0:
143,134,70992,2,0,L|77:143,1,47.9999985351563,2|0,3:2|3:0,0:0:0:0:
204,36,71163,5,8,0:0:0:0:
244,10,71248,1,8,0:0:0:0:
290,2,71334,1,10,0:2:0:0:
337,10,71420,1,8,0:0:0:0:
378,36,71506,2,0,L|383:115,1,47.9999985351563,0|0,3:0|3:0,0:0:0:0:
301,168,71677,2,0,L|295:88,1,47.9999985351563,10|8,0:0|0:0,0:0:0:0:
478,57,71849,6,0,L|490:160,1,88.000002685547,4|0,3:2|3:0,0:0:0:0:
455,255,72192,2,0,P|409:244|366:257,1,88.000002685547,8|0,0:0|0:0,0:0:0:0:
286,354,72535,1,2,0:0:0:0:
257,242,72706,1,2,3:2:0:0:
174,323,72878,1,10,0:0:0:0:
145,211,73049,1,2,0:0:0:0:
4,263,73220,6,0,L|-1:170,1,88.000002685547,0|2,3:0|3:2,0:0:0:0:
53,84,73563,1,8,0:0:0:0:
53,84,73735,2,0,P|98:71|144:84,1,88.000002685547,2|0,0:0|0:0,0:0:0:0:
243,122,74077,2,0,P|288:135|334:122,1,88.000002685547,2|8,3:2|0:0,0:0:0:0:
413,75,74420,1,2,0:0:0:0:
503,116,74592,6,0,L|500:201,1,80,0|0,3:0|3:0,0:0:0:0:
446,299,74935,1,8,0:0:0:0:
418,327,75020,1,8,0:0:0:0:
380,339,75106,1,8,0:0:0:0:
341,332,75192,1,8,0:0:0:0:
309,309,75277,2,0,P|270:297|225:309,1,80,8|0,0:0|3:0,0:0:0:0:
132,362,75620,2,0,L|124:278,1,80,8|8,0:0|0:0,0:0:0:0:
201,196,75963,5,4,3:2:0:0:
224,204,76049,1,0,3:0:0:0:
247,212,76135,1,0,3:0:0:0:
94,150,76306,1,8,0:0:0:0:
71,158,76392,1,0,3:0:0:0:
48,166,76478,1,0,3:0:0:0:
199,95,76649,5,8,0:0:0:0:
222,103,76735,1,8,0:0:0:0:
245,111,76821,1,8,0:0:0:0:
93,50,76992,1,8,0:0:0:0:
70,58,77078,1,8,0:0:0:0:
47,66,77164,1,10,0:0:0:0:
225,10,77335,6,0,B|327:-11|296:68|403:38,1,176.000005371094,6|8,3:2|0:0,0:0:0:0:
499,0,77849,1,0,0:0:0:0:
453,107,78020,2,0,P|464:155|452:200,1,88.000002685547,2|0,0:0|3:0,0:0:0:0:
369,285,78363,2,0,L|456:293,1,88.000002685547,8|0,0:0|0:0,0:0:0:0:
267,339,78706,6,0,L|156:350,1,88.000002685547,2|0,3:2|3:0,0:0:0:0:
106,258,79049,1,8,0:0:0:0:
168,160,79220,1,2,0:0:0:0:
240,248,79392,1,2,0:0:0:0:
309,158,79563,2,0,L|397:169,1,88.000002685547,2|8,3:2|0:0,0:0:0:0:
287,29,79906,6,0,L|199:40,1,88.000002685547,2|0,0:0|3:0,0:0:0:0:
98,96,80249,1,2,3:2:0:0:
98,96,80420,2,0,L|92:195,1,80,8|0,0:0|0:0,0:0:0:0:
198,221,80763,2,0,L|202:300,1,80,0|0,0:0|3:0,0:0:0:0:
302,358,81106,2,0,P|340:368|383:356,1,80,8|0,0:0|0:0,0:0:0:0:
462,279,81449,5,6,3:2:0:0:
465,231,81534,1,0,3:0:0:0:
468,183,81620,1,8,0:0:0:0:
472,135,81706,1,8,0:0:0:0:
475,87,81792,2,0,L|420:75,1,47.9999985351563,10|8,0:0|0:0,0:0:0:0:
342,126,81963,2,0,L|286:113,1,47.9999985351563,2|0,3:2|3:0,0:0:0:0:
217,31,82135,5,8,0:0:0:0:
173,12,82220,1,8,0:0:0:0:
125,14,82306,1,10,0:0:0:0:
83,36,82392,1,8,0:0:0:0:
54,74,82477,2,0,L|47:144,1,47.9999985351563,0|0,3:0|3:0,0:0:0:0:
119,195,82649,2,0,L|113:265,1,47.9999985351563,10|8,0:0|0:0,0:0:0:0:
191,336,82820,6,0,P|230:327|271:340,1,71.9999978027344,6|2,3:2|0:0,0:0:0:0:
352,375,83163,1,8,0:0:0:0:
429,310,83335,2,0,L|439:215,1,71.9999978027344,2|2,0:0|3:2,0:0:0:0:
454,140,83677,1,2,0:0:0:0:
367,189,83849,2,0,P|327:199|290:186,1,71.9999978027344,10|2,0:0|0:0,0:0:0:0:
222,85,84192,5,4,3:2:0:0:
256,192,84363,12,2,85220,0:0:0:0:
133,338,85563,6,0,L|73:331,2,60.0000022888184,2|2|2,0:0|0:0|0:0,0:0:0:0:
197,283,86077,2,0,L|257:290,2,60.0000022888184,2|2|2,0:0|0:0|0:0,0:0:0:0:
118,232,86592,2,0,P|110:195|121:161,2,60.0000022888184,2|2|2,0:0|0:0|0:0,0:0:0:0:
212,196,87106,2,0,P|220:159|209:125,2,60.0000022888184,2|2|2,0:0|0:0|0:0,0:0:0:0:
197,283,87620,2,0,L|272:292,1,60.0000022888184,2|2,0:0|0:0,0:0:0:0:
340,300,87963,1,2,0:0:0:0:
212,196,88135,5,6,0:0:0:0:
