osu file format v14

[General]
AudioFilename: audio.mp3
AudioLeadIn: 0
PreviewTime: 66192
Countdown: 0
SampleSet: Soft
StackLeniency: 0.7
Mode: 0
LetterboxInBreaks: 0
WidescreenStoryboard: 1

[Editor]
DistanceSpacing: 1.8
BeatDivisor: 4
GridSize: 4
TimelineZoom: 1.4

[Metadata]
Title:abnormalize (TV Size)
TitleUnicode:abnormalize (TV Size)
Artist:Ling tosite sigure
ArtistUnicode:凛として時雨
Creator:Addy2607
Version:Hard
Source:PSYCHO-PASS
Tags:サイコパス opening intro theme song anime animation japanese rock jrock j-rock shueisha tsunemori akane shinya kougami production i.g cyberpunk Tōru Toru Touru TK Kitajima Miyoko 345 Nakamura Masatoshi Pierre Nakano
BeatmapID:2558127
BeatmapSetID:1230498

[Difficulty]
HPDrainRate:5
CircleSize:3.4
OverallDifficulty:6
ApproachRate:7.5
SliderMultiplier:1.3
SliderTickRate:1

[Events]
//Background and Video events
Video,-575,"Psycho-Pass Opening 1 - Creditless 1080p.mp4"
0,0,"Kougami-Shinya-22313.jpg",0,0
//Break Periods
2,50106,54567
2,61077,62795
//Storyboard Layer 0 (Background)
//Storyboard Layer 1 (Fail)
//Storyboard Layer 2 (Pass)
//Storyboard Layer 3 (Foreground)
//Storyboard Layer 4 (Overlay)
//Storyboard Sound Samples

[TimingPoints]
535,342.857142857143,4,2,2,40,1,0
535,-125,4,2,2,40,0,0
11506,-111.111111111111,4,2,1,50,0,0
17335,-100,4,2,1,50,0,0
17677,-100,4,2,1,50,0,0
18020,-100,4,2,1,50,0,0
18363,-100,4,2,1,50,0,0
18706,-100,4,2,1,60,0,0
19049,-100,4,2,1,60,0,0
19392,-100,4,2,1,60,0,0
19735,-100,4,2,1,70,0,0
21106,-100,4,2,2,40,0,0
22477,-100,4,2,1,60,0,0
27963,-111.111111111111,4,2,1,50,0,0
37563,-100,4,2,2,50,0,0
38935,-100,4,2,1,60,0,0
44420,-100,4,2,1,70,0,0
49906,-100,4,2,3,40,0,0
52135,-100,4,2,3,40,0,0
54020,-100,4,2,3,40,0,0
55392,-100,4,2,1,60,0,0
60877,-100,4,2,1,50,0,0
63620,-111.111111111111,4,2,1,60,0,0
65677,-100,4,2,1,70,0,0
66020,-100,4,2,1,60,0,0
66277,-100,4,2,1,5,0,0
66363,-90.9090909090909,4,2,1,80,0,1
69106,-90.9090909090909,4,2,1,80,0,1
70477,-86.9565217391304,4,2,1,90,0,1
71849,-90.9090909090909,4,2,1,80,0,1
74592,-90.9090909090909,4,2,1,80,0,1
75963,-90.9090909090909,4,2,1,80,0,1
77335,-90.9090909090909,4,2,1,80,0,1
80077,-90.9090909090909,4,2,1,80,0,1
81449,-86.9565217391304,4,2,1,90,0,1
82820,-90.9090909090909,4,2,1,75,0,1
84192,-100,4,2,1,50,0,0
85563,-100,4,2,2,40,0,0

[Colours]
Combo1 : 217,0,0
Combo2 : 0,140,255
Combo3 : 127,127,127
Combo4 : 191,191,191

[HitObjects]
454,270,535,6,0,P|400:249|353:267,1,104,0|2,3:0|3:2,0:0:0:0:
271,297,1049,2,0,L|265:189,1,104,2|0,3:2|3:0,0:0:0:0:
244,106,1563,1,2,3:2:0:0:
244,106,1735,2,0,P|195:88|140:110,1,104,2|0,3:2|3:0,0:0:0:0:
76,163,2249,1,2,3:2:0:0:
76,163,2420,2,0,P|95:215|79:264,1,104,2|0,3:2|3:0,0:0:0:0:
90,354,2935,1,2,3:2:0:0:
158,290,3106,1,2,3:2:0:0:
236,340,3277,6,0,B|285:362|285:362|337:338,1,104,0|0,3:0|3:0,0:0:0:0:
389,267,3792,1,2,3:2:0:0:
389,267,3963,2,0,L|394:144,1,104,2|2,0:0|3:2,0:0:0:0:
388,73,4477,1,2,3:2:0:0:
388,73,4649,2,0,L|461:67,2,52,0|0|0,3:0|3:0|3:0,0:0:0:0:
306,26,5163,2,0,P|253:9|203:28,1,104,0|0,3:0|3:0,0:0:0:0:
126,69,5677,2,0,L|121:142,1,52,0|0,3:0|3:0,0:0:0:0:
114,214,6020,5,0,3:0:0:0:
259,334,6363,1,2,3:2:0:0:
259,334,6535,2,0,L|250:213,1,104,2|0,3:2|3:0,0:0:0:0:
243,141,7049,1,2,3:2:0:0:
243,141,7220,2,0,P|292:111|345:130,1,104,2|0,3:2|3:0,0:0:0:0:
417,176,7735,1,2,3:2:0:0:
417,176,7906,2,0,P|481:173|506:133,1,104,2|0,3:2|3:0,0:0:0:0:
494,50,8420,2,0,L|422:62,1,52,2|2,3:2|3:2,0:0:0:0:
354,25,8763,6,0,L|229:15,1,104,0|0,3:0|3:0,0:0:0:0:
160,42,9277,2,0,B|185:91|185:91|166:145,1,104,2|0,3:2|3:0,0:0:0:0:
112,212,9792,1,2,3:2:0:0:
233,354,10135,6,0,L|160:360,2,52,0|0|0,3:0|3:0|3:0,0:0:0:0:
288,277,10649,2,0,P|339:255|394:278,1,104,0|0,3:0|3:0,0:0:0:0:
457,326,11163,1,0,3:0:0:0:
497,133,11506,6,0,B|456:152|456:152|370:123,1,116.999996429443,0|2,3:0|3:2,0:0:0:0:
364,25,12020,2,0,B|323:44|323:44|239:16,1,116.999996429443,2|0,0:0|0:0,0:0:0:0:
152,22,12535,1,2,3:2:0:0:
152,22,12706,2,0,P|174:84|151:143,1,116.999996429443,2|0,0:0|0:0,0:0:0:0:
95,215,13220,1,2,3:2:0:0:
95,215,13392,2,0,P|73:277|97:332,1,116.999996429443,2|0,0:0|0:0,0:0:0:0:
193,362,13906,1,2,3:2:0:0:
193,362,14077,6,0,L|328:351,1,116.999996429443,2|0,0:0|0:0,0:0:0:0:
399,292,14592,1,2,3:2:0:0:
399,292,14763,2,0,P|421:217|394:170,1,116.999996429443,2|0,0:0|0:0,0:0:0:0:
335,106,15277,1,2,3:2:0:0:
250,169,15449,1,2,0:0:0:0:
186,85,15620,2,0,L|106:77,1,58.4999982147217,0|0,3:0|0:0,0:0:0:0:
58,158,15963,2,0,L|138:166,1,58.4999982147217,0|0,3:0|0:0,0:0:0:0:
168,255,16306,2,0,L|88:247,1,58.4999982147217,0|0,3:0|0:0,0:0:0:0:
44,331,16649,2,0,L|124:339,1,58.4999982147217,0|0,3:0|0:0,0:0:0:0:
203,366,16992,5,4,0:0:0:0:
400,276,17335,2,0,L|335:282,1,65,2|2,3:2|3:2,0:0:0:0:
287,202,17677,2,0,L|360:195,1,65,0|0,3:0|3:0,0:0:0:0:
435,144,18020,2,0,L|428:71,1,65,2|2,3:2|3:2,0:0:0:0:
357,14,18363,6,0,P|322:4|287:13,1,65,0|0,3:0|3:0,0:0:0:0:
211,59,18706,2,0,P|176:69|141:60,1,65,2|2,3:2|3:2,0:0:0:0:
58,25,19049,2,0,L|66:110,1,65,0|0,3:0|3:0,0:0:0:0:
32,182,19392,2,0,L|24:267,1,65,0|0,3:0|3:0,0:0:0:0:
72,332,19735,6,0,P|112:342|145:330,1,65,8|8,0:0|0:0,0:0:0:0:
218,287,20077,2,0,P|258:277|291:289,1,65,8|8,0:0|0:0,0:0:0:0:
358,340,20420,1,8,0:0:0:0:
358,340,20592,1,8,0:0:0:0:
431,276,20763,1,8,0:0:0:0:
431,276,20935,1,8,0:0:0:0:
495,348,21106,5,14,0:0:0:0:
443,58,22306,5,8,0:0:0:0:
358,106,22477,6,0,L|281:97,1,65,6|0,3:2|3:0,0:0:0:0:
223,30,22820,2,0,L|146:39,1,65,10|2,0:0|0:0,0:0:0:0:
62,56,23163,1,2,0:0:0:0:
62,56,23249,1,0,0:0:0:0:
62,56,23335,1,2,3:2:0:0:
121,132,23506,2,0,L|124:207,1,65,10|2,0:0|0:0,0:0:0:0:
134,294,23849,6,0,P|168:303|208:288,1,65,2|0,3:2|3:0,0:0:0:0:
283,251,24192,2,0,P|317:242|357:257,1,65,10|2,0:0|0:0,0:0:0:0:
427,302,24535,1,2,0:0:0:0:
427,302,24620,1,0,0:0:0:0:
427,302,24706,1,2,3:2:0:0:
481,221,24877,2,0,L|486:150,1,65,10|2,0:0|0:0,0:0:0:0:
492,58,25220,6,0,P|452:48|418:61,1,65,2|0,3:2|3:0,0:0:0:0:
341,95,25563,2,0,P|301:105|267:92,1,65,10|2,0:0|0:0,0:0:0:0:
197,44,25906,1,2,0:0:0:0:
197,44,25992,1,0,0:0:0:0:
197,44,26077,1,2,3:2:0:0:
114,97,26249,2,0,L|109:180,1,65,10|2,0:0|0:0,0:0:0:0:
38,228,26592,6,0,L|43:311,1,65,2|0,3:2|3:0,0:0:0:0:
111,362,26935,2,0,P|143:370|185:357,1,65,10|2,0:0|0:0,0:0:0:0:
248,301,27277,1,10,0:0:0:0:
248,301,27363,1,8,0:0:0:0:
248,301,27449,1,10,0:0:0:0:
197,217,27620,2,0,L|145:220,2,32.5,10|8|10,0:0|0:0|0:0,0:0:0:0:
231,125,27963,6,0,P|279:105|347:128,1,116.999996429443,4|10,3:2|0:0,0:0:0:0:
434,178,28477,1,2,0:0:0:0:
434,178,28649,2,0,L|445:77,2,87.7499973220826,2|2|2,0:0|0:0|0:0,0:0:0:0:
407,280,29335,6,0,B|343:264|352:317|275:292,1,116.999996429443,0|10,3:0|0:0,0:0:0:0:
204,242,29849,1,2,0:0:0:0:
112,293,30020,2,0,L|108:218,1,58.4999982147217,2|2,0:0|3:2,0:0:0:0:
34,160,30363,2,0,L|38:85,1,58.4999982147217,10|0,0:0|0:0,0:0:0:0:
103,21,30706,6,0,P|161:2|221:30,1,116.999996429443,0|10,3:0|0:0,0:0:0:0:
295,93,31220,1,2,0:0:0:0:
295,93,31392,2,0,P|354:117|409:89,1,116.999996429443,2|10,0:0|0:0,0:0:0:0:
488,37,31906,1,2,0:0:0:0:
488,37,32077,6,0,L|500:122,1,58.4999982147217,0|2,3:0|3:2,0:0:0:0:
434,180,32420,2,0,L|446:265,1,58.4999982147217,10|2,0:0|0:0,0:0:0:0:
416,340,32763,2,0,P|349:364|298:341,1,116.999996429443,2|10,0:0|0:0,0:0:0:0:
239,269,33277,1,2,0:0:0:0:
162,342,33449,6,0,L|84:335,1,58.4999982147217,0|2,3:0|3:2,0:0:0:0:
25,274,33792,1,8,0:0:0:0:
25,274,33963,2,0,B|56:220|0:218|32:148,1,116.999996429443,0|0,0:0|3:0,0:0:0:0:
44,57,34477,2,0,L|112:70,1,58.4999982147217,8|0,0:0|0:0,0:0:0:0:
187,129,34820,6,0,P|242:106|297:133,1,116.999996429443,0|10,3:0|0:0,0:0:0:0:
360,215,35335,1,2,0:0:0:0:
360,215,35506,2,0,L|360:285,1,58.4999982147217,2|2,0:0|3:2,0:0:0:0:
459,236,35849,2,0,L|459:157,1,58.4999982147217,10|2,0:0|0:0,0:0:0:0:
450,72,36192,6,0,B|390:95|390:95|333:69,1,116.999996429443,0|8,3:0|0:0,0:0:0:0:
259,15,36706,1,0,0:0:0:0:
259,15,36877,2,0,L|248:79,1,58.4999982147217,0|0,0:0|3:0,0:0:0:0:
154,118,37220,2,0,L|165:54,1,58.4999982147217,8|0,0:0|0:0,0:0:0:0:
89,8,37563,6,0,L|78:72,1,65,6|0,3:2|0:0,0:0:0:0:
13,163,37906,2,0,L|24:227,1,65,10|0,0:0|0:0,0:0:0:0:
38,273,38163,1,0,0:0:0:0:
38,273,38249,2,0,P|76:284|109:272,1,65,6|0,3:2|0:0,0:0:0:0:
185,230,38592,2,0,P|223:219|256:231,1,65,10|0,0:0|0:0,0:0:0:0:
337,262,38935,6,0,B|346:203|346:203|335:176|335:176|343:127,1,130,6|8,3:2|0:0,0:0:0:0:
353,38,39449,2,0,L|269:41,2,65,2|2|2,0:0|0:0|3:2,0:0:0:0:
443,0,39963,1,8,0:0:0:0:
501,78,40135,1,2,0:0:0:0:
501,78,40306,6,0,L|505:151,1,65,2|2,3:2|3:2,0:0:0:0:
465,232,40649,1,10,0:0:0:0:
502,321,40820,2,0,P|463:329|431:318,1,65,2|0,0:0|0:0,0:0:0:0:
355,271,41163,2,0,P|316:263|284:274,1,65,2|8,3:2|0:0,0:0:0:0:
218,333,41506,1,2,0:0:0:0:
143,269,41677,6,0,L|144:187,1,65,0|0,3:0|3:0,0:0:0:0:
145,154,41935,1,0,0:0:0:0:
145,154,42020,1,8,0:0:0:0:
203,75,42192,1,2,0:0:0:0:
117,28,42363,2,0,L|34:35,2,65,2|2|10,0:0|3:2|0:0,0:0:0:0:
203,75,42877,6,0,L|267:66,1,65,2|0,0:0|3:0,0:0:0:0:
342,3,43220,2,0,L|406:12,1,65,2|8,3:2|0:0,0:0:0:0:
471,85,43563,2,0,P|462:129|469:153,1,65,2|0,0:0|0:0,0:0:0:0:
498,240,43906,2,0,P|507:284|500:308,1,65,10|8,0:0|0:0,0:0:0:0:
421,357,44249,1,10,0:0:0:0:
421,357,44335,1,8,0:0:0:0:
421,357,44420,6,0,L|344:346,1,65,4|0,3:2|3:0,0:0:0:0:
266,310,44763,2,0,L|201:319,1,65,8|0,0:0|3:0,0:0:0:0:
104,333,45106,2,0,L|115:256,1,65,8|2,0:0|3:2,0:0:0:0:
47,195,45449,2,0,L|37:130,1,65,10|2,0:0|3:2,0:0:0:0:
87,47,45792,6,0,P|122:37|164:50,1,65,10|2,0:0|3:2,0:0:0:0:
234,90,46135,2,0,P|269:100|311:87,1,65,10|2,0:0|3:2,0:0:0:0:
340,72,46392,1,2,3:2:0:0:
340,72,46477,2,0,L|347:146,1,65,10|2,0:0|3:2,0:0:0:0:
416,204,46820,2,0,L|409:278,1,65,10|2,0:0|3:2,0:0:0:0:
343,340,47163,6,0,P|272:365|210:332,1,130,2|8,3:2|0:0,0:0:0:0:
152,279,47677,1,0,3:0:0:0:
68,329,47849,2,0,L|59:252,1,65,0|2,3:0|3:2,0:0:0:0:
111,180,48192,2,0,L|120:103,1,65,10|2,0:0|3:2,0:0:0:0:
138,19,48535,6,0,P|197:-2|255:23,1,130,14|0,0:0|3:0,0:0:0:0:
297,111,49049,1,8,0:0:0:0:
297,111,49220,2,0,L|366:114,1,65,10|0,0:0|3:0,0:0:0:0:
404,202,49563,2,0,L|473:205,1,65,8|0,0:0|0:0,0:0:0:0:
509,115,49906,5,6,3:2:0:0:
274,20,55392,6,0,B|204:14|213:60|131:39,1,130,4|10,3:2|0:0,0:0:0:0:
51,34,55906,2,0,P|26:97|64:163,1,130,2|2,0:0|3:2,0:0:0:0:
118,220,56420,1,10,0:0:0:0:
118,220,56592,2,0,B|184:194|184:194|255:224,1,130,2|2,0:0|3:2,0:0:0:0:
322,266,57106,1,10,0:0:0:0:
322,266,57278,2,0,B|388:292|388:292|459:262,1,130,2|2,0:0|3:2,0:0:0:0:
506,195,57792,1,10,0:0:0:0:
450,115,57963,1,2,0:0:0:0:
500,31,58135,6,0,B|442:28|442:28|427:39|427:39|365:34,1,130,6|8,3:2|0:0,0:0:0:0:
282,0,58649,1,0,0:0:0:0:
202,55,58820,2,0,L|196:135,1,65,0|0,0:0|3:0,0:0:0:0:
124,185,59163,2,0,L|130:265,1,65,8|2,0:0|0:0,0:0:0:0:
149,345,59506,6,0,B|207:345|207:345|222:333|222:333|286:333,1,130,10|10,0:0|0:0,0:0:0:0:
372,341,60020,2,0,L|384:268,1,65,10|0,0:0|0:0,0:0:0:0:
323,199,60363,2,0,L|311:126,1,65,2|0,0:0|0:0,0:0:0:0:
377,61,60706,1,2,0:0:0:0:
377,61,60877,5,6,3:2:0:0:
47,274,63620,6,0,P|83:294|161:260,1,116.999996429443,0|2,0:0|0:0,0:0:0:0:
227,214,64135,1,0,0:0:0:0:
227,214,64306,2,0,P|277:193|345:225,1,116.999996429443,2|0,0:0|0:0,0:0:0:0:
417,269,64820,1,0,0:0:0:0:
417,269,64992,2,0,L|423:141,1,116.999996429443,2|2,3:2|3:2,0:0:0:0:
455,64,65506,2,0,P|423:54|385:66,1,58.4999982147217,2|8,0:0|0:0,0:0:0:0:
303,29,65849,1,10,0:0:0:0:
303,29,66020,1,8,0:0:0:0:
331,260,66363,6,0,B|259:245|272:309|176:278,1,143.000004364014,6|8,3:2|0:0,0:0:0:0:
119,205,66877,1,0,0:0:0:0:
42,281,67049,2,0,L|36:137,1,143.000004364014,2|8,0:0|0:0,0:0:0:0:
26,30,67563,1,0,0:0:0:0:
115,89,67735,6,0,P|179:110|254:85,1,143.000004364014,2|8,3:2|0:0,0:0:0:0:
319,6,68249,1,0,0:0:0:0:
366,101,68420,2,0,L|380:252,1,143.000004364014,2|8,0:0|0:0,0:0:0:0:
440,332,68935,1,0,0:0:0:0:
337,364,69106,6,0,L|266:352,1,71.5000021820069,2|0,3:2|3:0,0:0:0:0:
208,261,69449,2,0,L|137:273,1,71.5000021820069,8|0,0:0|0:0,0:0:0:0:
33,299,69792,2,0,P|25:256|40:214,1,71.5000021820069,0|0,0:0|3:0,0:0:0:0:
102,148,70135,2,0,P|110:105|95:68,1,71.5000021820069,8|0,0:0|0:0,0:0:0:0:
14,9,70477,6,0,B|41:39|41:39|151:34,1,149.500002851486,6|10,3:2|0:0,0:0:0:0:
221,121,70992,2,0,L|295:117,1,74.7500014257431,2|8,3:2|0:0,0:0:0:0:
347,13,71335,2,0,L|421:17,1,74.7500014257431,10|0,0:2|3:0,0:0:0:0:
484,109,71677,1,10,0:0:0:0:
484,109,71763,1,8,0:0:0:0:
484,109,71849,6,0,P|511:174|483:249,1,143.000004364014,4|8,3:2|0:0,0:0:0:0:
408,310,72363,1,0,0:0:0:0:
408,310,72535,2,0,L|335:303,1,71.5000021820069,2|2,0:0|3:2,0:0:0:0:
276,214,72877,1,10,0:0:0:0:
276,214,73049,6,0,B|203:203|215:263|134:243,1,143.000004364014,2|2,0:0|3:2,0:0:0:0:
50,187,73563,1,8,0:0:0:0:
50,187,73735,2,0,L|45:110,1,71.5000021820069,2|0,0:0|0:0,0:0:0:0:
99,23,74077,2,0,P|133:14|173:23,1,71.5000021820069,2|8,3:2|0:0,0:0:0:0:
222,113,74420,1,2,0:0:0:0:
293,33,74592,6,0,B|365:33|365:33|382:25|382:25|450:25,1,143.000004364014,0|8,3:0|0:0,0:0:0:0:
496,112,75106,1,8,0:0:0:0:
496,112,75192,1,8,0:0:0:0:
496,112,75277,2,0,L|504:258,1,143.000004364014,8|8,0:0|0:0,0:0:0:0:
512,362,75792,1,8,0:0:0:0:
415,316,75963,6,0,L|261:314,1,143.000004364014,4|8,3:2|0:0,0:0:0:0:
208,227,76477,1,0,3:0:0:0:
153,319,76649,2,0,P|177:267|140:167,1,143.000004364014,8|8,0:0|0:0,0:0:0:0:
97,97,77163,1,10,0:0:0:0:
174,22,77335,6,0,P|246:-1|308:39,1,143.000004364014,6|8,3:2|0:0,0:0:0:0:
381,102,77849,1,0,0:0:0:0:
381,102,78020,2,0,L|389:246,1,143.000004364014,2|8,0:0|0:0,0:0:0:0:
316,323,78535,1,0,0:0:0:0:
316,323,78706,6,0,B|241:339|258:288|173:310,1,143.000004364014,2|8,3:2|0:0,0:0:0:0:
93,375,79220,1,2,0:0:0:0:
18,297,79392,1,2,0:0:0:0:
102,231,79563,2,0,L|108:152,1,71.5000021820069,2|8,3:2|0:0,0:0:0:0:
26,88,79906,1,2,0:0:0:0:
89,17,80077,6,0,P|157:-10|223:21,1,143.000004364014,0|8,3:0|0:0,0:0:0:0:
278,98,80592,1,0,0:0:0:0:
278,98,80763,2,0,P|287:139|276:175,1,71.5000021820069,0|0,0:0|3:0,0:0:0:0:
213,251,81106,2,0,P|204:292|215:328,1,71.5000021820069,8|0,0:0|0:0,0:0:0:0:
305,381,81449,6,0,B|331:338|331:338|431:338,1,149.500002851486,6|10,3:2|0:0,0:0:0:0:
510,259,81963,2,0,L|499:184,1,74.7500014257431,2|8,3:2|0:0,0:0:0:0:
382,179,82306,2,0,L|393:104,1,74.7500014257431,10|0,0:0|3:0,0:0:0:0:
469,22,82649,1,10,0:0:0:0:
469,22,82735,1,8,0:0:0:0:
469,22,82820,6,0,P|404:-8|339:23,1,143.000004364014,6|8,3:2|0:0,0:0:0:0:
274,103,83335,2,0,P|209:133|142:100,1,143.000004364014,2|2,0:0|0:0,0:0:0:0:
61,41,83849,2,0,L|53:118,1,71.5000021820069,10|2,0:0|0:0,0:0:0:0:
53,209,84192,6,0,B|169:179|121:277|257:237,1,195,4|2,3:2|0:0,0:0:0:0:
319,193,84877,2,0,L|396:197,1,65,2|0,0:0|0:0,0:0:0:0:
426,108,85220,2,0,L|349:104,1,65,2|0,0:0|0:0,0:0:0:0:
297,30,85563,5,2,0:0:0:0:
256,192,85649,12,6,88135,0:0:0:0:
