osu file format v14

[General]
AudioFilename: audio.ogg
AudioLeadIn: 0
PreviewTime: 59088
Countdown: 0
SampleSet: Normal
StackLeniency: 0.7
Mode: 1
LetterboxInBreaks: 0
WidescreenStoryboard: 1

[Editor]
Bookmarks: 11506,16992,22477,27963,38935,44420,49906,55392,77335
DistanceSpacing: 1.2
BeatDivisor: 4
GridSize: 32
TimelineZoom: 1.399999

[Metadata]
Title:abnormalize (TV Size)
TitleUnicode:abnormalize (TV Size)
Artist:Ling tosite sigure
ArtistUnicode:凛として時雨
Creator:-Flashlight-
Version:Oni
Source:PSYCHO-PASS
Tags:サイコパス opening intro theme song anime animation japanese rock jrock j-rock production i.g cyberpunk 集英社 shueisha 監視官常守朱 inspector tsunemori akane 狡噛慎也 shinya kōgami kogami kougami 北嶋徹 Tōru Toru Touru Kitajima TK 中村美代子 Miyoko 345 Nakamura 中野正敏 ピエール中野 Masatoshi Pierre Nakano
BeatmapID:4264728
BeatmapSetID:2043506

[Difficulty]
HPDrainRate:5
CircleSize:5
OverallDifficulty:5.5
ApproachRate:5
SliderMultiplier:1.4
SliderTickRate:1

[Events]
//Background and Video events
0,0,"Kougami-Shinya-22313.jpg",0,150
Video,-1165,"output.mp4"
//Break Periods
2,60915,62258
//Storyboard Layer 0 (Background)
//Storyboard Layer 1 (Fail)
//Storyboard Layer 2 (Pass)
//Storyboard Layer 3 (Foreground)
//Storyboard Layer 4 (Overlay)
//Storyboard Sound Samples

[TimingPoints]
372,324.324324324324,4,1,0,60,1,0
372,-105.714285714286,4,1,0,60,0,0
696,342.857142857143,4,1,0,60,1,8
696,-100,4,1,0,60,0,8
1724,342.857142857143,4,1,0,60,1,0
1724,-100,4,1,0,60,0,0
3095,344.827586206897,4,1,0,60,1,0
3095,-99.4285714285713,4,1,0,60,0,0
7232,341.880341880342,4,1,0,60,1,0
7232,-100.285714285714,4,1,0,60,0,0
9625,324.324324324324,4,1,0,60,1,8
9625,-105.714285714286,4,1,0,60,0,8
9949,352.941176470588,4,1,0,60,1,0
9949,-97.1428571428572,4,1,0,60,0,0
11007,315.789473684211,4,1,0,60,1,8
11007,-108.571428571428,4,1,0,60,0,8
11322,347.826086956522,4,1,0,70,1,0
11322,-98.5714285714285,4,1,0,70,0,0
12017,342.857142857143,4,1,0,70,1,8
12017,-100,4,1,0,70,0,8
12702,342.857142857143,4,1,0,70,1,0
12702,-100,4,1,0,70,0,0
16816,352.941176470588,4,1,0,80,1,0
16816,-97.1428571428572,4,1,0,80,0,0
17168,344.827586206897,4,1,0,80,1,8
17168,-99.4285714285713,4,1,0,80,0,8
18202,344.827586206897,4,1,0,80,1,0
18202,-99.4285714285713,4,1,0,80,0,0
19581,335.195530726257,4,1,0,80,1,0
19581,-102.285714285714,4,1,0,80,0,0
20921,363.636363636364,4,1,0,80,1,0
20921,-94.2857142857142,4,1,0,80,0,0
21284,342.857142857143,4,1,0,80,1,8
21284,-100,4,1,0,80,0,8
21969,320.855614973262,4,1,0,80,1,8
21969,-106.857142857143,4,1,0,80,0,8
22289,348.837209302326,4,1,0,80,1,1
22289,-98.2857142857142,4,1,0,80,0,1
23684,342.857142857143,4,1,0,90,1,1
23684,-100,4,1,0,90,0,1
27112,328.767123287671,4,1,0,90,1,9
27112,-104.285714285714,4,1,0,90,0,9
27769,375,4,1,0,70,1,0
27769,-91.4285714285714,4,1,0,70,0,0
28144,342.857142857143,4,1,0,70,1,8
28144,-100,4,1,0,70,0,8
29172,342.857142857143,4,1,0,70,1,0
29172,-100,4,1,0,70,0,0
34314,329.67032967033,4,1,0,70,1,8
34314,-104,4,1,0,70,0,8
34643,342.857142857143,4,1,0,70,1,0
34643,-100,4,1,0,70,0,0
37385,338.983050847458,4,1,0,80,1,0
37385,-101.142857142857,4,1,0,80,0,0
38740,345.821325648415,4,1,0,80,1,0
38740,-99.1428571428571,4,1,0,80,0,0
41506,342.857142857143,4,1,0,80,1,0
41506,-100,4,1,0,80,0,0
44248,350.877192982456,4,1,0,90,1,0
44248,-97.7142857142857,4,1,0,90,0,0
45651,341.880341880342,4,1,0,90,1,0
45651,-100.285714285714,4,1,0,90,0,0
47018,342.857142857143,4,1,0,90,1,0
47018,-100,4,1,0,90,0,0
48046,333.333333333333,4,1,0,90,1,8
48046,-102.857142857143,4,1,0,90,0,8
48379,338.028169014084,4,1,0,90,1,0
48379,-101.428571428572,4,1,0,90,0,0
49393,352.941176470588,4,1,0,90,1,8
49393,-97.1428571428572,4,1,0,90,0,8
49745,352.941176470588,4,1,0,90,1,0
49745,-97.1428571428572,4,1,0,90,0,0
51156,342.857142857143,4,1,0,60,1,0
51156,-100,4,1,0,60,0,0
52527,338.028169014084,4,1,0,60,1,0
52527,-101.428571428572,4,1,0,60,0,0
53879,342.857142857143,4,1,0,60,1,0
53879,-100,4,1,0,60,0,0
54564,324.324324324324,4,1,0,60,1,8
54564,-105.714285714286,4,1,0,60,0,8
55212,349.854227405248,4,1,0,90,1,0
55212,-97.9999999999999,4,1,0,90,0,0
56611,346.820809248555,4,1,0,90,1,0
56611,-98.8571428571428,4,1,0,90,0,0
57304,338.983050847458,4,1,0,90,1,8
57304,-101.142857142857,4,1,0,90,0,8
57981,340.909090909091,4,1,0,90,1,0
57981,-100.571428571429,4,1,0,90,0,0
59344,342.857142857143,4,1,0,100,1,0
59344,-100,4,1,0,100,0,0
61058,-100,4,1,0,80,0,0
64744,-100,4,1,0,90,0,0
66201,-100,4,1,0,100,0,1
68943,338.983050847458,4,1,0,100,1,1
68943,-101.142857142857,4,1,0,100,0,1
70298,340.909090909091,4,1,0,100,1,0
70298,-100.571428571429,4,1,0,100,0,0
70980,346.820809248555,4,1,0,100,1,8
70980,-98.8571428571428,4,1,0,100,0,8
71673,342.857142857143,4,1,0,100,1,1
71673,-100,4,1,0,100,0,1
73044,347.826086956522,4,1,0,100,1,1
73044,-98.5714285714285,4,1,0,100,0,1
74435,342.857142857143,4,1,0,100,1,0
74435,-100,4,1,0,100,0,0
77177,340.909090909091,4,1,0,100,1,1
77177,-100.571428571429,4,1,0,100,0,1
78540,342.857142857143,4,1,0,100,1,1
78540,-100,4,1,0,100,0,1
81282,-100,4,1,0,100,0,0
82654,-100,4,1,0,100,0,1
83854,375,4,1,0,90,1,9
83854,-91.4285714285714,4,1,0,90,0,9
84041,344.827586206897,4,1,0,90,1,0
84041,-99.4285714285713,4,1,0,90,0,0
85420,340.909090909091,4,1,0,90,1,0
85420,-100.571428571429,4,1,0,90,0,0

[HitObjects]
256,192,696,5,8,0:0:0:0:
256,192,867,1,0,0:0:0:0:
256,192,1381,1,8,0:0:0:0:
256,192,1553,1,8,0:0:0:0:
256,192,2066,1,0,0:0:0:0:
256,192,2238,1,8,0:0:0:0:
256,192,2752,1,0,0:0:0:0:
256,192,2924,1,0,0:0:0:0:
256,192,3612,1,8,0:0:0:0:
256,192,3784,1,0,0:0:0:0:
256,192,4129,1,0,0:0:0:0:
256,192,4301,1,0,0:0:0:0:
256,192,6198,1,8,0:0:0:0:
256,192,6370,1,0,0:0:0:0:
256,192,6888,1,0,0:0:0:0:
256,192,7060,1,8,0:0:0:0:
256,192,7573,1,8,0:0:0:0:
256,192,7744,1,8,0:0:0:0:
256,192,8257,1,0,0:0:0:0:
256,192,8428,1,0,0:0:0:0:
256,192,9112,1,8,0:0:0:0:
256,192,9625,1,8,0:0:0:0:
256,192,11322,1,0,0:0:0:0:
256,192,11669,1,8,0:0:0:0:
256,192,11843,1,0,0:0:0:0:
256,192,12017,1,8,0:0:0:0:
256,192,12359,1,8,0:0:0:0:
256,192,12531,1,8,0:0:0:0:
256,192,12702,1,0,0:0:0:0:
256,192,13044,1,0,0:0:0:0:
256,192,13216,1,0,0:0:0:0:
256,192,13387,1,8,0:0:0:0:
256,192,13730,1,8,0:0:0:0:
256,192,13902,1,0,0:0:0:0:
256,192,14073,1,8,0:0:0:0:
256,192,14416,1,0,0:0:0:0:
256,192,14587,1,0,0:0:0:0:
256,192,14759,1,8,0:0:0:0:
256,192,15102,1,8,0:0:0:0:
256,192,15273,1,8,0:0:0:0:
256,192,15444,1,0,0:0:0:0:
256,192,15787,1,8,0:0:0:0:
256,192,16130,1,0,0:0:0:0:
256,192,16473,1,8,0:0:0:0:
256,192,16816,1,4,0:0:0:0:
256,192,17168,5,8,0:0:0:0:
256,192,17340,1,0,0:0:0:0:
256,192,17512,1,8,0:0:0:0:
256,192,17685,1,8,0:0:0:0:
256,192,17857,1,0,0:0:0:0:
256,192,18030,1,0,0:0:0:0:
256,192,18202,1,8,0:0:0:0:
256,192,18374,1,0,0:0:0:0:
256,192,18546,1,8,0:0:0:0:
256,192,18719,1,8,0:0:0:0:
256,192,18891,1,0,0:0:0:0:
256,192,19064,1,8,0:0:0:0:
256,192,19236,1,0,0:0:0:0:
256,192,19408,1,0,0:0:0:0:
256,192,19581,1,8,0:0:0:0:
256,192,19664,1,8,0:0:0:0:
256,192,19748,1,8,0:0:0:0:
256,192,19832,1,8,0:0:0:0:
256,192,19916,1,0,0:0:0:0:
256,192,20083,1,0,0:0:0:0:
256,192,20251,1,8,0:0:0:0:
256,192,20335,1,8,0:0:0:0:
256,192,20418,1,0,0:0:0:0:
256,192,20502,1,0,0:0:0:0:
256,192,20586,1,8,0:0:0:0:
256,192,20754,1,8,0:0:0:0:
256,192,20921,1,4,0:0:0:0:
256,192,22129,1,8,0:0:0:0:
256,192,22289,1,4,0:0:0:0:
256,192,22637,1,0,0:0:0:0:
256,192,22725,1,0,0:0:0:0:
256,192,22812,1,8,0:0:0:0:
256,192,22986,1,0,0:0:0:0:
256,192,23161,1,8,0:0:0:0:
256,192,23335,1,8,0:0:0:0:
256,192,23422,1,0,0:0:0:0:
256,192,23509,1,8,0:0:0:0:
256,192,23684,1,0,0:0:0:0:
256,192,24026,1,8,0:0:0:0:
256,192,24112,1,0,0:0:0:0:
256,192,24198,1,8,0:0:0:0:
256,192,24369,1,0,0:0:0:0:
256,192,24541,1,8,0:0:0:0:
256,192,24712,1,8,0:0:0:0:
256,192,24798,1,8,0:0:0:0:
256,192,24884,1,0,0:0:0:0:
256,192,25055,1,0,0:0:0:0:
256,192,25398,1,0,0:0:0:0:
256,192,25484,1,0,0:0:0:0:
256,192,25569,1,8,0:0:0:0:
256,192,25741,1,0,0:0:0:0:
256,192,25912,1,8,0:0:0:0:
256,192,26084,1,8,0:0:0:0:
256,192,26169,1,0,0:0:0:0:
256,192,26255,1,8,0:0:0:0:
256,192,26426,1,0,0:0:0:0:
256,192,26769,1,8,0:0:0:0:
256,192,26855,1,0,0:0:0:0:
256,192,26941,1,8,0:0:0:0:
256,192,27112,1,0,0:0:0:0:
256,192,27276,1,8,0:0:0:0:
256,192,27358,1,8,0:0:0:0:
256,192,27440,1,8,0:0:0:0:
256,192,27522,1,8,0:0:0:0:
256,192,27605,1,8,0:0:0:0:
256,192,27769,1,4,0:0:0:0:
256,192,28144,1,0,0:0:0:0:
256,192,28315,1,0,0:0:0:0:
256,192,28486,1,8,0:0:0:0:
256,192,28658,1,0,0:0:0:0:
256,192,28744,1,0,0:0:0:0:
256,192,28829,1,0,0:0:0:0:
256,192,29001,1,8,0:0:0:0:
256,192,29343,1,8,0:0:0:0:
256,192,29514,1,0,0:0:0:0:
256,192,29686,1,8,0:0:0:0:
256,192,29772,1,8,0:0:0:0:
256,192,29857,1,8,0:0:0:0:
256,192,30029,1,8,0:0:0:0:
256,192,30200,1,0,0:0:0:0:
256,192,30543,1,0,0:0:0:0:
256,192,30714,1,8,0:0:0:0:
256,192,30886,1,8,0:0:0:0:
256,192,31057,1,0,0:0:0:0:
256,192,31229,1,8,0:0:0:0:
256,192,31400,1,0,0:0:0:0:
256,192,31486,1,0,0:0:0:0:
256,192,31572,1,0,0:0:0:0:
256,192,31743,1,8,0:0:0:0:
256,192,32086,1,8,0:0:0:0:
256,192,32257,1,8,0:0:0:0:
256,192,32429,1,0,0:0:0:0:
256,192,32600,1,8,0:0:0:0:
256,192,32772,1,0,0:0:0:0:
256,192,32857,1,0,0:0:0:0:
256,192,32943,1,0,0:0:0:0:
256,192,33114,1,8,0:0:0:0:
256,192,33286,1,0,0:0:0:0:
256,192,33457,1,8,0:0:0:0:
256,192,33800,1,0,0:0:0:0:
256,192,33972,1,0,0:0:0:0:
256,192,34143,1,8,0:0:0:0:
256,192,34314,1,8,0:0:0:0:
256,192,34643,1,0,0:0:0:0:
256,192,34814,1,8,0:0:0:0:
256,192,34985,1,0,0:0:0:0:
256,192,35157,1,0,0:0:0:0:
256,192,35328,1,8,0:0:0:0:
256,192,35500,1,0,0:0:0:0:
256,192,35585,1,0,0:0:0:0:
256,192,35671,1,0,0:0:0:0:
256,192,35843,1,0,0:0:0:0:
256,192,36014,1,8,0:0:0:0:
256,192,36185,1,0,0:0:0:0:
256,192,36357,1,0,0:0:0:0:
256,192,36528,1,8,0:0:0:0:
256,192,36871,1,8,0:0:0:0:
256,192,37043,1,0,0:0:0:0:
256,192,37214,1,0,0:0:0:0:
256,192,37385,1,12,0:0:0:0:
256,192,37723,1,0,0:0:0:0:
256,192,38062,1,12,0:0:0:0:
256,192,38401,1,0,0:0:0:0:
256,192,38740,1,4,0:0:0:0:
256,192,39085,1,8,0:0:0:0:
256,192,39258,1,0,0:0:0:0:
256,192,39345,1,0,0:0:0:0:
256,192,39431,1,0,0:0:0:0:
256,192,39604,1,8,0:0:0:0:
256,192,39777,1,0,0:0:0:0:
256,192,39950,1,8,0:0:0:0:
256,192,40036,1,0,0:0:0:0:
256,192,40123,1,8,0:0:0:0:
256,192,40469,1,8,0:0:0:0:
256,192,40642,1,0,0:0:0:0:
256,192,40728,1,0,0:0:0:0:
256,192,40814,1,0,0:0:0:0:
256,192,40987,1,8,0:0:0:0:
256,192,41160,1,0,0:0:0:0:
256,192,41333,1,8,0:0:0:0:
256,192,41420,1,8,0:0:0:0:
256,192,41506,1,0,0:0:0:0:
256,192,41848,1,0,0:0:0:0:
256,192,42020,1,0,0:0:0:0:
256,192,42191,1,8,0:0:0:0:
256,192,42363,1,8,0:0:0:0:
256,192,42448,1,8,0:0:0:0:
256,192,42534,1,8,0:0:0:0:
256,192,42706,1,0,0:0:0:0:
256,192,42877,1,0,0:0:0:0:
256,192,43048,1,8,0:0:0:0:
256,192,43220,1,0,0:0:0:0:
256,192,43391,1,8,0:0:0:0:
256,192,43734,1,8,0:0:0:0:
256,192,43820,1,8,0:0:0:0:
256,192,43906,1,8,0:0:0:0:
256,192,43991,1,8,0:0:0:0:
256,192,44077,1,8,0:0:0:0:
256,192,44248,1,4,0:0:0:0:
256,192,44598,1,8,0:0:0:0:
256,192,44774,1,0,0:0:0:0:
256,192,44862,1,0,0:0:0:0:
256,192,44949,1,8,0:0:0:0:
256,192,45125,1,0,0:0:0:0:
256,192,45300,1,8,0:0:0:0:
256,192,45476,1,8,0:0:0:0:
256,192,45651,1,0,0:0:0:0:
256,192,45821,1,0,0:0:0:0:
256,192,45907,1,0,0:0:0:0:
256,192,45992,1,8,0:0:0:0:
256,192,46163,1,0,0:0:0:0:
256,192,46334,1,8,0:0:0:0:
256,192,46505,1,8,0:0:0:0:
256,192,46591,1,8,0:0:0:0:
256,192,46676,1,0,0:0:0:0:
256,192,46847,1,8,0:0:0:0:
256,192,47018,1,0,0:0:0:0:
256,192,47103,1,0,0:0:0:0:
256,192,47189,1,0,0:0:0:0:
256,192,47275,1,0,0:0:0:0:
256,192,47360,1,8,0:0:0:0:
256,192,47532,1,0,0:0:0:0:
256,192,47875,1,8,0:0:0:0:
256,192,48046,1,8,0:0:0:0:
256,192,48212,1,0,0:0:0:0:
256,192,48379,1,12,0:0:0:0:
256,192,48548,1,12,0:0:0:0:
256,192,48717,1,0,0:0:0:0:
256,192,48886,1,12,0:0:0:0:
256,192,49055,1,12,0:0:0:0:
256,192,49224,1,0,0:0:0:0:
256,192,49393,1,8,0:0:0:0:
256,192,49745,1,12,0:0:0:0:
256,192,52013,5,8,0:0:0:0:
256,192,52184,1,8,0:0:0:0:
256,192,52356,1,0,0:0:0:0:
256,192,52527,1,8,0:0:0:0:
256,192,52865,1,8,0:0:0:0:
256,192,53034,1,0,0:0:0:0:
256,192,53372,1,8,0:0:0:0:
256,192,53710,1,8,0:0:0:0:
256,192,54050,1,0,0:0:0:0:
256,192,55212,1,12,0:0:0:0:
256,192,55386,1,0,0:0:0:0:
256,192,55474,1,0,0:0:0:0:
256,192,55561,1,8,0:0:0:0:
256,192,55736,1,8,0:0:0:0:
256,192,55911,1,0,0:0:0:0:
256,192,56086,1,0,0:0:0:0:
256,192,56174,1,8,0:0:0:0:
256,192,56261,1,0,0:0:0:0:
256,192,56436,1,0,0:0:0:0:
256,192,56611,1,8,0:0:0:0:
256,192,56784,1,8,0:0:0:0:
256,192,56871,1,8,0:0:0:0:
256,192,56957,1,0,0:0:0:0:
256,192,57131,1,8,0:0:0:0:
256,192,57473,1,0,0:0:0:0:
256,192,57642,1,8,0:0:0:0:
256,192,57812,1,8,0:0:0:0:
256,192,57981,1,0,0:0:0:0:
256,192,58066,1,0,0:0:0:0:
256,192,58151,1,0,0:0:0:0:
256,192,58236,1,0,0:0:0:0:
256,192,58321,1,8,0:0:0:0:
256,192,58492,1,0,0:0:0:0:
256,192,58833,1,0,0:0:0:0:
256,192,59003,1,8,0:0:0:0:
256,192,59174,1,0,0:0:0:0:
256,192,59344,1,8,0:0:0:0:
256,192,59429,1,8,0:0:0:0:
256,192,59515,1,8,0:0:0:0:
256,192,59601,1,8,0:0:0:0:
256,192,59686,1,8,0:0:0:0:
256,192,59772,1,8,0:0:0:0:
256,192,59858,1,8,0:0:0:0:
256,192,60715,1,4,0:0:0:0:
256,192,63458,5,8,0:0:0:0:
256,192,63801,1,8,0:0:0:0:
256,192,64144,1,8,0:0:0:0:
256,192,64486,1,8,0:0:0:0:
256,192,64829,1,0,0:0:0:0:
256,192,65172,1,0,0:0:0:0:
256,192,65515,5,8,0:0:0:0:
256,192,65601,1,8,0:0:0:0:
256,192,65686,1,8,0:0:0:0:
256,192,65772,1,8,0:0:0:0:
256,192,65858,1,0,0:0:0:0:
256,192,66201,5,12,0:0:0:0:
256,192,66544,1,8,0:0:0:0:
256,192,66715,1,0,0:0:0:0:
256,192,66886,1,8,0:0:0:0:
256,192,66972,1,8,0:0:0:0:
256,192,67058,1,0,0:0:0:0:
256,192,67144,1,0,0:0:0:0:
256,192,67229,1,8,0:0:0:0:
256,192,67401,1,0,0:0:0:0:
256,192,67572,1,8,0:0:0:0:
256,192,67658,1,8,0:0:0:0:
256,192,67744,1,8,0:0:0:0:
256,192,67829,1,8,0:0:0:0:
256,192,67915,1,0,0:0:0:0:
256,192,68086,1,8,0:0:0:0:
256,192,68258,1,0,0:0:0:0:
256,192,68344,1,0,0:0:0:0:
256,192,68429,1,0,0:0:0:0:
256,192,68515,1,0,0:0:0:0:
256,192,68601,1,8,0:0:0:0:
256,192,68772,1,8,0:0:0:0:
256,192,68943,1,0,0:0:0:0:
256,192,69281,1,8,0:0:0:0:
256,192,69451,1,0,0:0:0:0:
256,192,69536,1,0,0:0:0:0:
256,192,69620,1,0,0:0:0:0:
256,192,69790,1,0,0:0:0:0:
256,192,69959,1,8,0:0:0:0:
256,192,70298,1,8,0:0:0:0:
256,192,70468,1,0,0:0:0:0:
256,192,70553,1,0,0:0:0:0:
256,192,70638,1,0,0:0:0:0:
256,192,70724,1,0,0:0:0:0:
256,192,70809,1,8,0:0:0:0:
256,192,70980,1,0,0:0:0:0:
256,192,71153,1,8,0:0:0:0:
256,192,71240,1,8,0:0:0:0:
256,192,71326,1,0,0:0:0:0:
256,192,71413,1,0,0:0:0:0:
256,192,71500,1,8,0:0:0:0:
256,192,71673,1,12,0:0:0:0:
256,192,72015,1,0,0:0:0:0:
256,192,72358,1,8,0:0:0:0:
256,192,72444,1,0,0:0:0:0:
256,192,72530,1,8,0:0:0:0:
256,192,72701,1,0,0:0:0:0:
256,192,72873,1,8,0:0:0:0:
256,192,72958,1,8,0:0:0:0:
256,192,73044,1,0,0:0:0:0:
256,192,73217,1,8,0:0:0:0:
256,192,73391,1,0,0:0:0:0:
256,192,73565,1,0,0:0:0:0:
256,192,73652,1,8,0:0:0:0:
256,192,73739,1,0,0:0:0:0:
256,192,73913,1,8,0:0:0:0:
256,192,74000,1,8,0:0:0:0:
256,192,74087,1,0,0:0:0:0:
256,192,74261,1,8,0:0:0:0:
256,192,74435,1,0,0:0:0:0:
256,192,74777,1,0,0:0:0:0:
256,192,74863,1,0,0:0:0:0:
256,192,74949,1,0,0:0:0:0:
256,192,75035,1,0,0:0:0:0:
256,192,75120,1,8,0:0:0:0:
256,192,75292,1,0,0:0:0:0:
256,192,75463,1,8,0:0:0:0:
256,192,75635,1,8,0:0:0:0:
256,192,75806,1,0,0:0:0:0:
256,192,75892,1,0,0:0:0:0:
256,192,75977,1,8,0:0:0:0:
256,192,76149,1,0,0:0:0:0:
256,192,76235,1,0,0:0:0:0:
256,192,76320,1,8,0:0:0:0:
256,192,76492,1,0,0:0:0:0:
256,192,76577,1,0,0:0:0:0:
256,192,76663,1,8,0:0:0:0:
256,192,76835,1,0,0:0:0:0:
256,192,77177,1,12,0:0:0:0:
256,192,77517,1,8,0:0:0:0:
256,192,77688,1,0,0:0:0:0:
256,192,77858,1,8,0:0:0:0:
256,192,77944,1,8,0:0:0:0:
256,192,78029,1,8,0:0:0:0:
256,192,78114,1,8,0:0:0:0:
256,192,78199,1,0,0:0:0:0:
256,192,78370,1,8,0:0:0:0:
256,192,78540,1,0,0:0:0:0:
256,192,78625,1,0,0:0:0:0:
256,192,78711,1,0,0:0:0:0:
256,192,78797,1,0,0:0:0:0:
256,192,78882,1,8,0:0:0:0:
256,192,79054,1,8,0:0:0:0:
256,192,79225,1,0,0:0:0:0:
256,192,79397,1,8,0:0:0:0:
256,192,79482,1,8,0:0:0:0:
256,192,79568,1,0,0:0:0:0:
256,192,79740,1,8,0:0:0:0:
256,192,79825,1,8,0:0:0:0:
256,192,79911,1,8,0:0:0:0:
256,192,80082,1,0,0:0:0:0:
256,192,80425,1,0,0:0:0:0:
256,192,80511,1,0,0:0:0:0:
256,192,80597,1,0,0:0:0:0:
256,192,80768,1,0,0:0:0:0:
256,192,80940,1,8,0:0:0:0:
256,192,81282,1,8,0:0:0:0:
256,192,81454,1,0,0:0:0:0:
256,192,81540,1,0,0:0:0:0:
256,192,81625,1,0,0:0:0:0:
256,192,81711,1,0,0:0:0:0:
256,192,81797,1,8,0:0:0:0:
256,192,81968,1,0,0:0:0:0:
256,192,82140,1,8,0:0:0:0:
256,192,82225,1,8,0:0:0:0:
256,192,82311,1,0,0:0:0:0:
256,192,82397,1,0,0:0:0:0:
256,192,82482,1,8,0:0:0:0:
256,192,82654,1,12,0:0:0:0:
256,192,82997,1,0,0:0:0:0:
256,192,83168,1,8,0:0:0:0:
256,192,83340,1,0,0:0:0:0:
256,192,83511,1,0,0:0:0:0:
256,192,83682,1,8,0:0:0:0:
256,192,84041,1,4,0:0:0:0:
256,192,84213,1,8,0:0:0:0:
256,192,84558,1,0,0:0:0:0:
256,192,84730,1,8,0:0:0:0:
256,192,85075,1,8,0:0:0:0:
256,192,85420,5,0,0:0:0:0:
256,192,85590,1,0,0:0:0:0:
256,192,85760,1,8,0:0:0:0:
256,192,85931,1,0,0:0:0:0:
256,192,86101,1,8,0:0:0:0:
256,192,86272,1,8,0:0:0:0:
256,192,86442,1,0,0:0:0:0:
256,192,86613,1,8,0:0:0:0:
256,192,86783,1,0,0:0:0:0:
256,192,86954,1,0,0:0:0:0:
256,192,87124,1,8,0:0:0:0:
256,192,87295,1,0,0:0:0:0:
256,192,87465,1,0,0:0:0:0:
256,192,87635,1,8,0:0:0:0:
256,192,87806,1,0,0:0:0:0:
256,192,87976,1,12,0:0:0:0:
