osu file format v14

[General]
AudioFilename: audio.mp3
AudioLeadIn: 0
PreviewTime: 130599
Countdown: 0
SampleSet: Soft
StackLeniency: 0.2
Mode: 0
LetterboxInBreaks: 0
WidescreenStoryboard: 1

[Editor]
Bookmarks: 23975,45308,66641,87975,109308,130641,151975,173308
DistanceSpacing: 1.7
BeatDivisor: 8
GridSize: 4
TimelineZoom: 2.200001

[Metadata]
Title:Hua Yue Cheng Shuang
TitleUnicode:花月成双
Artist:Ling Yuan yousa, Xiu Mu Su, Hun Miao Miao
ArtistUnicode:泠鸢yousa, 朽木素, 魂喵喵
Creator:-Nanako-
Version:Duet of Blooming Moon
Source:BDF2021
Tags:MoeAsuka Hollow Wings Ujimatcha nika mika Chinese pop female cover huayue chengshuang bdf cpop lingyuan 三無Marblue 三无Marblue san wu sanwu marblue LS 夏安兰 xiaanlan Bilibili Dancing Festival 2021 Hiten desire flower
BeatmapID:4006504
BeatmapSetID:1938126

[Difficulty]
HPDrainRate:5
CircleSize:4
OverallDifficulty:7
ApproachRate:9
SliderMultiplier:3.59999990463257
SliderTickRate:0.5

[Events]
//Background and Video events
0,0,"bg.jpg",0,0
//Break Periods
//Storyboard Layer 0 (Background)
//Storyboard Layer 1 (Fail)
//Storyboard Layer 2 (Pass)
//Storyboard Layer 3 (Foreground)
//Storyboard Layer 4 (Overlay)
//Storyboard Sound Samples

[TimingPoints]
2641,666.666666666667,4,2,7,50,1,0
11974,-125,4,2,7,50,0,0
12807,-125,4,2,7,5,0,0
12974,-125,4,2,7,50,0,0
13140,-125,4,2,7,5,0,0
13307,-111.111111111111,4,2,7,50,0,0
13807,-125,4,2,7,5,0,0
13974,-111.111111111111,4,2,7,50,0,0
14140,-111.111111111111,4,2,7,5,0,0
14307,-111.111111111111,4,2,7,50,0,0
14807,-111.111111111111,4,2,7,5,0,0
14974,-111.111111111111,4,2,7,50,0,0
15474,-111.111111111111,4,2,7,5,0,0
15641,-111.111111111111,4,2,7,50,0,0
15807,-111.111111111111,4,2,7,5,0,0
15974,-111.111111111111,4,2,7,50,0,0
16140,-111.111111111111,4,2,7,5,0,0
16307,-111.111111111111,4,2,7,50,0,0
16390,-111.111111111111,4,2,7,35,0,0
16641,-111.111111111111,4,2,7,50,0,0
16807,-111.111111111111,4,2,7,5,0,0
16974,-111.111111111111,4,2,7,50,0,0
17141,-111.111111111111,4,2,7,5,0,0
17307,-111.111111111111,4,2,7,50,0,0
20641,-111.111111111111,4,2,7,50,0,0
21390,-111.111111111111,4,2,7,25,0,0
21974,-125,4,2,7,50,0,0
22141,-111.111111111111,4,2,7,5,0,0
22307,-166.666666666667,4,2,7,50,0,0
22473,-166.666666666667,4,2,7,5,0,0
22641,-166.666666666667,4,2,7,50,0,0
23974,-100,4,2,7,50,0,0
24974,-100,4,2,7,60,0,0
26807,-100,4,2,7,5,0,0
26974,-100,4,2,7,60,0,0
27140,-100,4,2,7,5,0,0
27307,-100,4,2,7,60,0,0
27473,-100,4,2,7,5,0,0
27641,-100,4,2,7,60,0,0
27807,-100,4,2,7,5,0,0
27975,-100,4,2,7,60,0,0
28641,-111.111111111111,4,2,7,60,0,0
28807,-111.111111111111,4,2,7,5,0,0
28974,-111.111111111111,4,2,7,60,0,0
29140,-111.111111111111,4,2,7,5,0,0
29307,-100,4,2,7,60,0,0
30807,-100,4,2,7,5,0,0
30974,-100,4,2,7,60,0,0
31140,-100,4,2,7,5,0,0
31307,-100,4,2,7,60,0,0
31473,-100,4,2,7,5,0,0
31641,-100,4,2,7,60,0,0
31807,-100,4,2,7,5,0,0
31974,-90.9090909090909,4,2,7,60,0,0
32224,-90.9090909090909,4,2,7,5,0,0
32307,-90.9090909090909,4,2,7,60,0,0
32473,-90.9090909090909,4,2,7,5,0,0
32641,-90.9090909090909,4,2,7,60,0,0
32891,-90.9090909090909,4,2,7,5,0,0
32974,-90.9090909090909,4,2,7,60,0,0
33140,-90.9090909090909,4,2,7,5,0,0
33307,-90.9090909090909,4,2,7,60,0,0
34641,-100,4,2,7,60,0,0
35473,-100,4,2,7,5,0,0
35641,-100,4,2,7,60,0,0
36140,-100,4,2,7,5,0,0
36307,-100,4,2,7,60,0,0
36806,-100,4,2,7,5,0,0
36974,-100,4,2,7,60,0,0
37557,-100,4,2,7,5,0,0
37641,-100,4,2,7,60,0,0
37807,-100,4,2,7,5,0,0
37974,-100,4,2,7,60,0,0
38140,-100,4,2,7,5,0,0
38307,-100,4,2,7,60,0,0
38473,-100,4,2,7,5,0,0
38641,-100,4,2,7,60,0,0
39474,-100,4,2,7,50,0,0
39640,-100,4,2,7,60,0,0
39807,-100,4,2,7,50,0,0
39974,-125,4,2,7,60,0,0
40474,-100,4,2,7,5,0,0
40641,-125,4,2,7,60,0,0
41141,-100,4,2,7,5,0,0
41307,-111.111111111111,4,2,7,60,0,0
41473,-111.111111111111,4,2,7,5,0,0
41641,-111.111111111111,4,2,7,60,0,0
41807,-111.111111111111,4,2,7,5,0,0
41974,-111.111111111111,4,2,7,60,0,0
42140,-111.111111111111,4,2,7,5,0,0
42307,-111.111111111111,4,2,7,60,0,0
42473,-111.111111111111,4,2,7,5,0,0
42641,-111.111111111111,4,2,7,60,0,0
42974,-111.111111111111,4,2,7,5,0,0
43141,-111.111111111111,4,2,7,60,0,0
43307,-125,4,2,7,60,0,0
43641,-142.857142857143,4,2,7,60,0,0
43974,-166.666666666667,4,2,7,60,0,0
44641,-166.666666666667,4,2,7,60,0,0
45307,-111.111111111111,4,2,7,60,0,0
45473,-111.111111111111,4,2,7,5,0,0
45641,-111.111111111111,4,2,7,30,0,0
45975,-111.111111111111,4,2,7,60,0,0
47473,-111.111111111111,4,2,7,5,0,0
47641,-111.111111111111,4,2,7,60,0,0
47807,-111.111111111111,4,2,7,5,0,0
47974,-125,4,2,7,60,0,0
48807,-125,4,2,7,5,0,0
48974,-125,4,2,7,60,0,0
49140,-125,4,2,7,5,0,0
49307,-200,4,2,7,60,0,0
49974,-200,4,2,7,60,0,0
50641,-142.857142857143,4,2,7,60,0,0
50807,-142.857142857143,4,2,7,5,0,0
50974,-142.857142857143,4,2,7,60,0,0
51141,-142.857142857143,4,2,7,5,0,0
51307,-125,4,2,7,60,0,0
51473,-125,4,2,7,5,0,0
51641,-125,4,2,7,60,0,0
51807,-125,4,2,7,5,0,0
51974,-111.111111111111,4,2,7,60,0,0
52140,-111.111111111111,4,2,7,5,0,0
52307,-111.111111111111,4,2,7,60,0,0
52473,-111.111111111111,4,2,7,5,0,0
52641,-100,4,2,7,60,0,0
52807,-100,4,2,7,5,0,0
52974,-100,4,2,7,60,0,0
53140,-100,4,2,7,5,0,0
53307,-125,4,2,7,60,0,0
53807,-100,4,2,7,5,0,0
53974,-125,4,2,7,60,0,0
54140,-125,4,2,7,5,0,0
54307,-125,4,2,7,60,0,0
54473,-125,4,2,7,5,0,0
54641,-200,4,2,7,60,0,0
55141,-200,4,2,7,5,0,0
55307,-111.111111111111,4,2,7,60,0,0
56641,-125,4,2,7,60,0,0
57141,-125,4,2,7,5,0,0
57307,-111.111111111111,4,2,7,60,0,0
57473,-111.111111111111,4,2,7,5,0,0
57641,-111.111111111111,4,2,7,60,0,0
57807,-111.111111111111,4,2,7,5,0,0
57974,-111.111111111111,4,2,7,60,0,0
58140,-111.111111111111,4,2,7,5,0,0
58307,-111.111111111111,4,2,7,60,0,0
58473,-111.111111111111,4,2,7,5,0,0
58641,-125,4,2,7,60,0,0
58807,-125,4,2,7,5,0,0
58974,-125,4,2,7,60,0,0
59141,-125,4,2,7,5,0,0
59307,-125,4,2,7,60,0,0
59473,-125,4,2,7,5,0,0
59641,-125,4,2,7,60,0,0
59807,-125,4,2,7,5,0,0
59974,-200,4,2,7,60,0,0
61307,-111.111111111111,4,2,7,60,0,0
61473,-111.111111111111,4,2,7,5,0,0
61641,-111.111111111111,4,2,7,60,0,0
61807,-111.111111111111,4,2,7,5,0,0
61974,-111.111111111111,4,2,7,60,0,0
62140,-111.111111111111,4,2,7,5,0,0
62307,-111.111111111111,4,2,7,60,0,0
62473,-111.111111111111,4,2,7,5,0,0
62641,-142.857142857143,4,2,7,60,0,0
62891,-142.857142857143,4,2,7,5,0,0
62974,-142.857142857143,4,2,7,60,0,0
63557,-142.857142857143,4,2,7,5,0,0
63641,-142.857142857143,4,2,7,60,0,0
63974,-125,4,2,7,60,0,0
64641,-111.111111111111,4,2,7,60,0,0
64974,-111.111111111111,4,2,7,65,0,0
65307,-100,4,2,7,70,0,0
65641,-100,4,2,7,75,0,0
65974,-90.9090909090909,4,2,7,80,0,0
66557,-90.9090909090909,4,2,7,60,0,0
66641,-250,4,2,7,60,0,0
70974,-90.9090909090909,4,2,7,60,0,0
71307,-90.9090909090909,4,2,7,45,0,0
71974,-250,4,2,7,60,0,0
75307,-250,4,2,7,60,0,0
75724,-250,4,2,7,20,0,0
76307,-100,4,2,7,60,0,0
76473,-100,4,2,7,25,0,0
76641,-100,4,2,7,60,0,0
76807,-100,4,2,7,30,0,0
76974,-66.6666666666667,4,2,7,60,0,0
77224,-66.6666666666667,4,2,7,35,0,0
77307,-250,4,2,7,60,0,0
77640,-250,4,2,7,40,0,0
77973,-250,4,2,7,60,0,0
79139,-250,4,2,7,5,0,0
79306,-250,4,2,7,60,0,0
79807,-250,4,2,7,5,0,0
79891,-250,4,2,7,60,0,0
80224,-250,4,2,7,5,0,0
80307,-250,4,2,7,60,0,0
82641,-142.857142857143,4,2,7,60,0,0
83141,-250,4,2,7,5,0,0
83307,-133.333333333333,4,2,7,60,0,0
83807,-133.333333333333,4,2,7,5,0,0
83974,-125,4,2,7,60,0,0
84474,-125,4,2,7,5,0,0
84641,-117.647058823529,4,2,7,60,0,0
85141,-125,4,2,7,5,0,0
85307,-111.111111111111,4,2,7,60,0,0
85557,-111.111111111111,4,2,7,5,0,0
85641,-111.111111111111,4,2,7,60,0,0
85974,-111.111111111111,4,2,7,60,0,0
87974,-125,4,2,7,60,0,0
88057,-125,4,2,7,5,0,0
88641,-125,4,2,7,60,0,0
88807,-125,4,2,7,5,0,0
88891,-125,4,2,7,60,0,0
89724,-125,4,2,7,5,0,0
89974,-125,4,2,7,60,0,0
90724,-125,4,2,7,5,0,0
90974,-125,4,2,7,60,0,0
92641,-166.666666666666,4,2,7,60,0,0
93307,-125,4,2,7,60,0,0
93390,-125,4,2,7,5,0,0
93641,-125,4,2,7,60,0,0
96057,-125,4,2,7,5,0,0
96307,-125,4,2,7,60,0,0
97474,-166.666666666667,4,2,7,60,0,0
97891,-125,4,2,7,5,0,0
97974,-142.857142857143,4,2,7,60,0,0
98140,-142.857142857143,4,2,7,5,0,0
98307,-142.857142857143,4,2,7,60,0,0
98473,-142.857142857143,4,2,7,5,0,0
98641,-125,4,2,7,60,0,0
98724,-125,4,2,7,5,0,0
98974,-125,4,2,7,60,0,0
99807,-125,4,2,7,60,0,0
100307,-125,4,2,7,60,0,0
100390,-125,4,2,7,5,0,0
100640,-125,4,2,7,60,0,0
101307,-142.857142857143,4,2,7,60,0,0
101974,-111.111111111111,4,2,7,60,0,0
102641,-125,4,2,7,60,0,0
104974,-125,4,2,7,60,0,0
105974,-125,4,2,7,60,0,0
106641,-142.857142857143,4,2,7,60,0,0
107640,-142.857142857143,4,2,7,60,0,0
108641,-142.857142857143,4,2,7,85,0,0
109307,-83.3333333333334,4,2,7,60,0,0
109474,-83.3333333333334,4,2,7,5,0,0
109641,-125,4,2,7,60,0,0
109807,-125,4,2,7,5,0,0
109974,-83.3333333333334,4,2,7,60,0,0
110140,-83.3333333333334,4,2,7,5,0,0
110307,-125,4,2,7,60,0,0
110473,-125,4,2,7,5,0,0
110641,-125,4,2,7,60,0,0
110807,-125,4,2,7,5,0,0
110974,-125,4,2,7,60,0,0
111141,-125,4,2,7,5,0,0
111307,-125,4,2,7,60,0,0
111473,-125,4,2,7,5,0,0
111641,-125,4,2,7,60,0,0
111807,-125,4,2,7,5,0,0
111974,-125,4,2,7,60,0,0
112474,-125,4,2,7,5,0,0
112641,-111.111111111111,4,2,7,60,0,0
112807,-111.111111111111,4,2,7,5,0,0
112974,-142.857142857143,4,2,7,60,0,0
113473,-142.857142857143,4,2,7,5,0,0
113641,-111.111111111111,4,2,7,60,0,0
113807,-111.111111111111,4,2,7,5,0,0
113974,-111.111111111111,4,2,7,60,0,0
114307,-100,4,2,7,60,0,0
114641,-142.857142857143,4,2,7,60,0,0
114807,-142.857142857143,4,2,7,5,0,0
114974,-142.857142857143,4,2,7,60,0,0
115141,-142.857142857143,4,2,7,5,0,0
115307,-125,4,2,7,60,0,0
115473,-125,4,2,7,5,0,0
115641,-125,4,2,7,60,0,0
115807,-125,4,2,7,5,0,0
115974,-111.111111111111,4,2,7,60,0,0
116141,-111.111111111111,4,2,7,5,0,0
116307,-111.111111111111,4,2,7,60,0,0
116473,-111.111111111111,4,2,7,5,0,0
116641,-100,4,2,7,60,0,0
116807,-100,4,2,7,5,0,0
116974,-100,4,2,7,60,0,0
117140,-100,4,2,7,5,0,0
117307,-125,4,2,7,60,0,0
117807,-100,4,2,7,5,0,0
117974,-125,4,2,7,60,0,0
118140,-125,4,2,7,5,0,0
118307,-125,4,2,7,60,0,0
118473,-125,4,2,7,5,0,0
118641,-125,4,2,7,60,0,0
118807,-125,4,2,7,5,0,0
118974,-125,4,2,7,60,0,0
119140,-125,4,2,7,5,0,0
119307,-100,4,2,7,60,0,0
119474,-100,4,2,7,5,0,0
119641,-166.666666666667,4,2,7,60,0,0
119807,-166.666666666667,4,2,7,5,0,0
119974,-111.111111111111,4,2,7,60,0,0
120474,-111.111111111111,4,2,7,5,0,0
120641,-133.333333333333,4,2,7,60,0,0
121141,-133.333333333333,4,2,7,5,0,0
121307,-125,4,2,7,60,0,0
121473,-125,4,2,7,5,0,0
121641,-125,4,2,7,60,0,0
121807,-125,4,2,7,5,0,0
121974,-125,4,2,7,60,0,0
122140,-125,4,2,7,5,0,0
122307,-125,4,2,7,60,0,0
122473,-125,4,2,7,5,0,0
122641,-142.857142857143,4,2,7,60,0,0
122807,-142.857142857143,4,2,7,5,0,0
122974,-142.857142857143,4,2,7,60,0,0
123140,-142.857142857143,4,2,7,5,0,0
123307,-142.857142857143,4,2,7,60,0,0
123473,-142.857142857143,4,2,7,5,0,0
123641,-166.666666666667,4,2,7,60,0,0
124474,-166.666666666667,4,2,7,5,0,0
124641,-250.000000000001,4,2,7,60,0,0
127974,-100,4,2,7,70,0,0
128140,-100,4,2,7,5,0,0
128307,-100,4,2,7,70,0,0
128473,-100,4,2,7,5,0,0
128641,-100,4,2,7,70,0,0
128807,-100,4,2,7,60,0,0
128974,-100,4,2,7,75,0,0
129140,-100,4,2,7,5,0,0
129307,-83.3333333333333,4,2,7,80,0,0
129474,-83.3333333333333,4,2,7,5,0,0
129641,-83.3333333333333,4,2,7,85,0,0
129807,-83.3333333333333,4,2,7,5,0,0
129974,-83.3333333333333,4,2,7,90,0,0
130641,-71.4285714285714,4,2,7,90,0,1
130807,-71.4285714285714,4,2,7,5,0,1
130974,-71.4285714285714,4,2,7,90,0,1
131474,-71.4285714285714,4,2,7,5,0,1
131641,-90.9090909090909,4,2,7,90,0,1
132307,-71.4285714285714,4,2,7,90,0,1
132474,-71.4285714285714,4,2,7,5,0,1
132641,-71.4285714285714,4,2,7,90,0,1
132807,-71.4285714285714,4,2,7,5,0,1
132974,-166.666666666667,4,2,7,75,0,1
133307,-90.9090909090909,4,2,7,90,0,1
133640,-90.9090909090909,4,2,7,75,0,1
133807,-90.9090909090909,4,2,7,75,0,1
133974,-90.9090909090909,4,2,7,90,0,1
134140,-90.9090909090909,4,2,7,5,0,1
134307,-90.9090909090909,4,2,7,75,0,1
134474,-90.9090909090909,4,2,7,5,0,1
134641,-90.9090909090909,4,2,7,90,0,1
134807,-90.9090909090909,4,2,7,5,0,1
134974,-90.9090909090909,4,2,7,90,0,1
135473,-90.9090909090909,4,2,7,5,0,1
135641,-90.9090909090909,4,2,7,90,0,1
135807,-90.9090909090909,4,2,7,5,0,1
135974,-90.9090909090909,4,2,7,90,0,1
136307,-90.9090909090909,4,2,7,75,0,1
136641,-90.9090909090909,4,2,7,90,0,1
136807,-90.9090909090909,4,2,7,5,0,1
136974,-90.9090909090909,4,2,7,75,0,1
137141,-90.9090909090909,4,2,7,5,0,1
137307,-90.9090909090909,4,2,7,90,0,1
137473,-90.9090909090909,4,2,7,5,0,1
137641,-90.9090909090909,4,2,7,90,0,1
138140,-90.9090909090909,4,2,7,5,0,1
138307,-90.9090909090909,4,2,7,90,0,1
138474,-90.9090909090909,4,2,7,5,0,1
138641,-90.9090909090909,4,2,7,90,0,1
138974,-90.9090909090909,4,2,7,75,0,1
139307,-90.9090909090909,4,2,7,90,0,1
139473,-90.9090909090909,4,2,7,5,0,1
139641,-90.9090909090909,4,2,7,75,0,1
139807,-90.9090909090909,4,2,7,5,0,1
139974,-90.9090909090909,4,2,7,90,0,1
140140,-90.9090909090909,4,2,7,5,0,1
140308,-90.9090909090909,4,2,7,90,0,1
140641,-200,4,2,7,90,0,1
141307,-71.4285714285714,4,2,7,90,0,1
141474,-71.4285714285714,4,2,7,5,0,1
141641,-71.4285714285714,4,2,7,90,0,1
142140,-71.4285714285714,4,2,7,5,0,1
142307,-83.3333333333333,4,2,7,90,0,1
142974,-71.4285714285714,4,2,7,75,0,1
143141,-71.4285714285714,4,2,7,5,0,1
143307,-125,4,2,7,75,0,1
143473,-125,4,2,7,5,0,1
143641,-71.4285714285714,4,2,7,75,0,1
143807,-125,4,2,7,5,0,1
143974,-125,4,2,7,90,0,1
144140,-125,4,2,7,5,0,1
144307,-71.4285714285714,4,2,7,75,0,1
144474,-125,4,2,7,5,0,1
144641,-125,4,2,7,90,0,1
144807,-125,4,2,7,5,0,1
144974,-125,4,2,7,75,0,1
145140,-125,4,2,7,5,0,1
145307,-71.4285714285714,4,2,7,90,0,1
145473,-71.4285714285714,4,2,7,5,0,1
145641,-71.4285714285714,4,2,7,90,0,1
145807,-71.4285714285714,4,2,7,5,0,1
145974,-90.9090909090909,4,2,7,90,0,1
146140,-90.9090909090909,4,2,7,5,0,1
146307,-90.9090909090909,4,2,7,90,0,1
146474,-90.9090909090909,4,2,7,5,0,1
146641,-90.9090909090909,4,2,7,90,0,1
146974,-90.9090909090909,4,2,7,75,0,1
147307,-90.9090909090909,4,2,7,90,0,1
147473,-90.9090909090909,4,2,7,5,0,1
147641,-90.9090909090909,4,2,7,75,0,1
147807,-90.9090909090909,4,2,7,5,0,1
147974,-90.9090909090909,4,2,7,90,0,1
148140,-90.9090909090909,4,2,7,5,0,1
148307,-90.9090909090909,4,2,7,90,0,1
148807,-90.9090909090909,4,2,7,5,0,1
148974,-90.9090909090909,4,2,7,75,0,1
149141,-90.9090909090909,4,2,7,5,0,1
149307,-90.9090909090909,4,2,7,90,0,1
149557,-90.9090909090909,4,2,7,5,0,1
149641,-111.111111111111,4,2,7,75,0,1
149974,-100,4,2,7,90,0,1
150474,-100,4,2,7,5,0,1
150641,-100,4,2,7,90,0,1
150807,-100,4,2,7,5,0,1
150974,-100,4,2,7,90,0,1
151141,-100,4,2,7,5,0,1
151307,-100,4,2,7,90,0,1
151974,-76.9230769230769,4,2,7,90,0,0
152224,-76.9230769230769,4,2,7,5,0,0
152307,-111.111111111111,4,2,7,90,0,0
152474,-76.9230769230769,4,2,7,5,0,0
152641,-111.111111111111,4,2,7,90,0,0
152807,-111.111111111111,4,2,7,5,0,0
152974,-111.111111111111,4,2,7,90,0,0
153140,-111.111111111111,4,2,7,5,0,0
153308,-111.111111111111,4,2,7,90,0,0
153474,-111.111111111111,4,2,7,5,0,0
153641,-111.111111111111,4,2,7,90,0,0
153807,-111.111111111111,4,2,7,5,0,0
153974,-76.9230769230769,4,2,7,90,0,0
154224,-111.111111111111,4,2,7,5,0,0
154307,-125,4,2,7,90,0,0
154473,-125,4,2,7,5,0,0
154641,-99.9999999999999,4,2,7,90,0,0
154807,-99.9999999999999,4,2,7,5,0,0
154974,-99.9999999999999,4,2,7,90,0,0
155307,-99.9999999999999,4,2,7,90,0,0
155474,-99.9999999999999,4,2,7,5,0,0
155641,-125,4,2,7,90,0,0
155807,-125,4,2,7,5,0,0
155974,-99.9999999999999,4,2,7,90,0,0
156141,-99.9999999999999,4,2,7,5,0,0
156307,-99.9999999999999,4,2,7,90,0,0
157641,-111.111111111111,4,2,7,90,0,0
157807,-99.9999999999999,4,2,7,5,0,0
157970,-111.111111111111,4,2,7,90,0,0
158140,-111.111111111111,4,2,7,5,0,0
158307,-111.111111111111,4,2,7,90,0,0
158473,-111.111111111111,4,2,7,5,0,0
158641,-111.111111111111,4,2,7,90,0,0
158807,-111.111111111111,4,2,7,5,0,0
158974,-111.111111111111,4,2,7,90,0,0
159141,-111.111111111111,4,2,7,5,0,0
159307,-83.3333333333333,4,2,7,90,0,0
159557,-111.111111111111,4,2,7,5,0,0
159641,-125,4,2,7,90,0,0
159807,-125,4,2,7,5,0,0
159974,-100,4,2,7,90,0,0
162974,-111.111111111111,4,2,7,90,0,0
163141,-111.111111111111,4,2,7,5,0,0
163307,-111.111111111111,4,2,7,90,0,0
163474,-111.111111111111,4,2,7,5,0,0
163641,-111.111111111111,4,2,7,90,0,0
163807,-111.111111111111,4,2,7,5,0,0
163974,-111.111111111111,4,2,7,90,0,0
164141,-111.111111111111,4,2,7,5,0,0
164307,-111.111111111111,4,2,7,90,0,0
164474,-111.111111111111,4,2,7,5,0,0
164641,-76.9230769230769,4,2,7,90,0,0
164891,-111.111111111111,4,2,7,5,0,0
164974,-125,4,2,7,90,0,0
165140,-125,4,2,7,5,0,0
165307,-100,4,2,7,90,0,0
165474,-100,4,2,7,5,0,0
165641,-100,4,2,7,90,0,0
165974,-100,4,2,7,90,0,0
166141,-111.111111111111,4,2,7,5,0,0
166307,-125,4,2,7,90,0,0
166474,-125,4,2,7,5,0,0
166641,-100,4,2,7,90,0,0
166807,-125,4,2,7,5,0,0
166974,-100,4,2,7,90,0,0
167974,-111.111111111111,4,2,7,90,0,0
168473,-111.111111111111,4,2,7,5,0,0
168641,-111.111111111111,4,2,7,90,0,0
168807,-111.111111111111,4,2,7,5,0,0
168974,-111.111111111111,4,2,7,90,0,0
169140,-111.111111111111,4,2,7,5,0,0
169307,-111.111111111111,4,2,7,90,0,0
169806,-111.111111111111,4,2,7,5,0,0
169974,-111.111111111111,4,2,7,90,0,0
170141,-111.111111111111,4,2,7,5,0,0
170307,-111.111111111111,4,2,7,90,0,0
170473,-111.111111111111,4,2,7,5,0,0
170641,-111.111111111111,4,2,7,90,0,0
171140,-111.111111111111,4,2,7,5,0,0
171308,-111.111111111111,4,2,7,90,0,0
171474,-111.111111111111,4,2,7,5,0,0
171641,-1000,4,2,7,90,0,0
171724,-1000,4,2,7,20,0,0
173307,-1000,4,2,7,70,0,0

[Colours]
Combo1 : 222,118,120
Combo2 : 159,139,201
Combo3 : 198,142,173
Combo4 : 133,133,207

[HitObjects]
44,103,11974,5,0,0:0:0:0:
109,14,12307,2,0,L|116:56,3,35.9999990463257
196,81,12641,2,0,L|186:169,1,71.9999980926514,4|0,2:1|0:0,0:0:0:0:
130,226,12974,2,0,P|91:230|54:208,1,71.9999980926514
196,81,13307,6,0,P|312:105|308:213,1,242.999986146927,4|0,3:2|0:1,0:0:0:0:
310,210,13974,2,0,P|266:206|220:225,1,80.9999953823091,8|0,0:0|0:0,0:0:0:0:
344,297,14307,2,0,B|264:321|216:257|263:269|199:197|129:227,1,242.999986146927,2|0,3:2|0:0,0:0:0:0:
62,283,14974,2,0,B|110:269|137:204|93:153|93:153|33:160|20:207,1,242.999986146927,2|0,3:2|0:0,0:0:0:0:
130,226,15641,2,0,L|215:214,1,80.9999953823091,2|0,0:1|0:0,0:0:0:0:
311,229,15974,6,0,P|326:187|314:138,1,80.9999953823091,2|0,3:2|0:0,0:0:0:0:
205,128,16307,2,0,L|160:134,3,40.4999976911546
220,137,16641,2,0,P|204:178|216:227,1,80.9999953823091,8|0,0:0|0:0,0:0:0:0:
311,229,16974,2,0,L|396:241,1,80.9999953823091,2|0,3:2|0:0,0:0:0:0:
494,341,17307,5,0,0:0:0:0:
479,253,17641,1,2,3:2:0:0:
391,240,17974,1,8,0:0:0:0:
352,320,18307,1,2,3:2:0:0:
415,382,18641,1,4,3:1:0:0:
415,382,18974,5,0,0:0:0:0:
352,320,19141,1,0,0:0:0:0:
275,367,19307,2,0,P|261:332|267:288,1,80.9999953823091,8|0,0:0|0:0,0:0:0:0:
391,240,19641,2,0,P|405:205|399:161,1,80.9999953823091,2|0,3:2|0:0,0:0:0:0:
309,112,19974,6,0,P|295:147|301:191,1,80.9999953823091
391,240,20307,2,0,L|476:228,1,80.9999953823091,2|0,3:2|0:0,0:0:0:0:
323,106,20641,2,0,L|238:94,1,80.9999953823091,8|0,0:0|0:0,0:0:0:0:
159,142,20974,2,0,L|148:62,1,80.9999953823091
265,192,21307,6,0,L|260:235,7,40.4999976911546,2|0|0|0|0|0|0|0,3:2|0:0|0:0|0:0|0:0|0:0|0:0|0:0,0:0:0:0:
187,282,21974,2,0,L|106:294,1,71.9999980926514,8|0,0:0|0:0,0:0:0:0:
33,250,22307,2,0,L|20:325,1,53.9999969215394,0|0,3:0|0:0,0:0:0:0:
9,384,22641,1,0,3:0:0:0:
63,54,23307,5,2,0:1:0:0:
63,54,23974,5,4,3:2:0:0:
150,78,24307,5,0,0:0:0:0:
86,141,24474,1,0,0:0:0:0:
1,118,24641,1,8,0:1:0:0:
172,165,24974,5,0,0:0:0:0:
220,159,25141,1,0,0:0:0:0:
256,193,25307,1,0,3:0:0:0:
150,78,25641,5,0,2:0:0:0:
128,56,25806,1,0,0:0:0:0:
139,28,25973,1,8,0:1:0:0:
86,141,26307,5,0,0:0:0:0:
86,141,26641,6,0,L|102:246,1,89.9999976158143,0|0,3:2|0:0,0:0:0:0:
160,320,26974,2,0,P|120:339|75:335,1,89.9999976158143
195,222,27307,6,0,L|300:238,1,89.9999976158143,8|0,0:1|0:0,0:0:0:0:
424,300,27641,2,0,P|443:260|439:215,1,89.9999976158143
329,314,27975,2,0,P|295:238|357:171,1,179.999995231629,0|0,3:0|0:0,0:0:0:0:
60,32,28641,6,0,P|68:74|70:119,1,80.9999953823091,8|0,0:1|0:0,0:0:0:0:
161,148,28974,2,0,P|153:106|151:61,1,80.9999953823091
49,24,29307,1,0,3:2:0:0:
62,225,29641,5,0,0:0:0:0:
126,288,29808,1,0,0:0:0:0:
211,265,29975,1,8,0:1:0:0:
422,285,30307,5,0,0:0:0:0:
337,262,30474,1,0,0:0:0:0:
273,325,30641,6,0,B|276:349|262:369|262:369|258:345|270:326,1,89.9999976158143,0|0,3:0|0:0,0:0:0:0:
400,195,30974,2,0,B|403:171|389:151|389:151|385:175|397:194,1,89.9999976158143,0|0,3:0|0:0,0:0:0:0:
317,92,31307,6,0,P|276:117|227:113,1,89.9999976158143,8|0,0:1|0:0,0:0:0:0:
472,123,31641,2,0,P|494:83|488:41,1,89.9999976158143
337,262,31974,6,0,B|288:275|249:244|288:237|243:206|195:220,1,148.500000597954,0|0,3:2|0:0,0:0:0:0:
127,187,32307,2,0,P|155:226|156:275,1,99.0000003986359
44,156,32641,6,0,B|93:169|132:138|93:131|138:100|186:114,1,148.500000597954,8|0,0:1|0:0,0:0:0:0:
224,176,32974,2,0,P|224:128|253:88,1,99.0000003986359,0|0,3:0|0:0,0:0:0:0:
183,23,33307,1,0,0:0:0:0:
183,23,33641,5,2,3:1:0:0:
253,88,33807,1,2,0:1:0:0:
344,52,33974,1,10,0:1:0:0:
342,39,34307,1,2,0:1:0:0:
341,27,34641,1,4,3:1:0:0:
446,358,34974,5,0,0:0:0:0:
377,299,35141,1,0,0:0:0:0:
294,328,35307,2,0,P|286:281|315:234,1,89.9999976158143,8|0,0:1|0:0,0:0:0:0:
153,274,35641,5,0,0:0:0:0:
221,215,35808,1,0,0:0:0:0:
304,244,35974,2,0,P|311:197|282:150,1,89.9999976158143,0|0,3:0|0:0,0:0:0:0:
445,190,36307,5,0,0:0:0:0:
376,131,36474,1,0,0:0:0:0:
293,160,36640,2,0,P|285:113|314:66,1,89.9999976158143,8|0,0:1|0:0,0:0:0:0:
392,39,36974,1,0,0:0:0:0:
359,220,37307,6,0,P|291:206|224:210,1,134.999996423721,0|0,3:2|0:0,0:0:0:0:
156,269,37641,2,0,P|133:230|136:186,1,89.9999976158143
309,71,37974,2,0,P|297:123|291:173,1,89.9999976158143,8|0,0:1|0:0,0:0:0:0:
116,97,38307,2,0,P|160:93|198:116,1,89.9999976158143
251,257,38641,2,0,P|167:274|157:368,1,179.999995231629,0|0,3:0|0:0,0:0:0:0:
57,29,39307,6,0,P|65:72|67:117,1,89.9999976158143,8|0,0:1|0:0,0:0:0:0:
162,139,39640,2,0,P|154:96|152:51,1,89.9999976158143
95,206,39974,6,0,B|158:226|209:181|167:172|220:127|290:153,1,215.999994277954,0|0,3:2|0:0,0:0:0:0:
355,217,40641,2,0,B|396:222|414:251|414:251|444:203|427:140|375:123,1,215.999994277954,8|0,0:1|0:0,0:0:0:0:
299,74,41307,6,0,P|284:112|287:152,1,80.9999953823091,2|0,3:2|0:0,0:0:0:0:
460,113,41641,2,0,P|419:110|382:126,1,80.9999953823091,2|0,3:2|0:0,0:0:0:0:
320,340,41974,6,0,P|353:318|374:283,1,80.9999953823091,10|0,0:1|0:0,0:0:0:0:
473,277,42307,2,0,P|462:238|436:207,1,80.9999953823091,2|0,0:0|0:0,0:0:0:0:
282,249,42641,6,0,B|235:228|192:265|219:275|181:312|131:294,1,161.999990764618,0|0,3:3|0:0,0:0:0:0:
43,251,43141,1,0,0:0:0:0:
43,251,43224,1,0,0:0:0:0:
43,251,43307,6,0,P|54:291|54:326,1,71.9999980926514,8|0,0:1|0:0,0:0:0:0:
196,223,43641,2,0,P|197:191|207:161,1,62.9999964084627,0|0,3:0|0:0,0:0:0:0:
95,120,43974,6,0,P|104:155|102:193,3,53.9999969215394
139,296,44641,5,8,0:1:0:0:
139,296,45307,6,0,L|245:283,1,80.9999953823091,0|0,3:0|0:0,0:0:0:0:
307,276,45641,1,0,3:0:0:0:
293,364,45808,1,0,3:0:0:0:
324,187,45975,1,0,1:0:0:0:
324,187,46307,2,0,P|397:162|381:69,1,161.999990764618,0|0,3:0|0:0,0:0:0:0:
212,42,46975,5,2,3:1:0:0:
222,51,47141,1,0,0:0:0:0:
315,16,47307,2,0,P|309:56|308:97,1,80.9999953823091,2|0,1:1|0:0,0:0:0:0:
215,147,47641,2,0,P|220:106|222:66,1,80.9999953823091,2|0,0:1|0:0,0:0:0:0:
286,207,47974,6,0,P|186:182|156:284,1,215.999994277954,2|0,3:1|0:0,0:0:0:0:
122,367,48641,2,0,P|159:357|194:354,1,71.9999980926514,0|0,1:1|0:0,0:0:0:0:
312,297,48974,2,0,P|276:293|241:284,1,71.9999980926514,0|0,3:0|0:0,0:0:0:0:
141,225,49307,6,0,P|147:246|150:269,3,44.9999988079071,0|0|0|0,0:0|0:0|3:0|0:0,0:0:0:0:
276,382,49974,5,0,1:0:0:0:
276,382,50307,5,0,3:0:0:0:
312,297,50474,1,0,0:0:0:0:
223,260,50641,6,0,L|145:276,1,62.9999964084627,0|0,3:0|0:0,0:0:0:0:
345,209,50974,2,0,L|423:224,1,62.9999964084627,2|0,0:1|0:0,0:0:0:0:
255,172,51307,6,0,P|254:136|239:103,1,71.9999980926514,2|0,1:1|0:0,0:0:0:0:
447,210,51641,2,0,P|467:180|498:162,1,71.9999980926514,2|0,3:1|0:0,0:0:0:0:
335,94,51974,6,0,P|369:116|410:113,1,80.9999953823091,2|0,0:1|0:0,0:0:0:0:
161,162,52307,2,0,P|121:159|87:181,1,80.9999953823091,0|0,3:1|0:0,0:0:0:0:
239,103,52641,6,0,P|237:58|211:22,1,89.9999976158143,0|0,1:1|0:0,0:0:0:0:
154,257,52974,2,0,P|128:293|133:353,1,89.9999976158143,0|0,0:1|0:0,0:0:0:0:
330,254,53307,6,0,P|416:257|410:143,1,215.999994277954,0|0,3:3|0:0,0:0:0:0:
350,93,53974,2,0,P|330:128|336:173,1,71.9999980926514,0|0,1:0|0:0,0:0:0:0:
441,262,54307,2,0,L|521:249,1,71.9999980926514,0|0,3:0|0:0,0:0:0:0:
344,271,54641,6,0,L|338:322,3,44.9999988079071,0|0|0|0,0:0|0:0|3:0|0:0,0:0:0:0:
264,189,55307,6,0,P|223:187|188:206,1,80.9999953823091,2|0,1:1|0:0,0:0:0:0:
189,347,55641,2,0,P|225:366|272:362,1,80.9999953823091,2|0,3:1|0:0,0:0:0:0:
243,277,55974,6,0,B|200:269|157:296|182:307|138:335|96:328,1,161.999990764618,4|0,3:1|0:0,0:0:0:0:
264,189,56474,1,0,0:0:0:0:
189,347,56641,6,0,P|287:353|326:254,1,215.999994277954,0|0,1:0|0:0,0:0:0:0:
394,114,57307,6,0,P|383:159|382:208,1,80.9999953823091,0|0,0:1|0:0,0:0:0:0:
292,179,57641,2,0,P|303:134|304:85,1,80.9999953823091,0|0,3:0|0:0,0:0:0:0:
439,38,57974,6,0,P|476:60|524:56,1,80.9999953823091,0|0,1:1|0:0,0:0:0:0:
292,179,58307,2,0,P|251:179|218:200,1,80.9999953823091
152,259,58641,6,0,P|134:234|134:184,1,71.9999980926514,2|0,3:1|0:0,0:0:0:0:
196,52,58974,2,0,L|178:143,1,71.9999980926514,2|2,0:1|0:1,0:0:0:0:
87,313,59307,6,0,L|-4:331,1,71.9999980926514,0|0,1:0|0:0,0:0:0:0:
277,262,59641,2,0,P|295:287|295:337,1,71.9999980926514,2|0,3:1|0:0,0:0:0:0:
225,372,59974,6,0,L|170:367,3,44.9999988079071,2|0|0|0,0:1|0:0|0:0|0:0,0:0:0:0:
341,203,60641,5,0,1:0:0:0:
341,203,60974,5,0,3:0:0:0:
277,262,61141,1,0,0:0:0:0:
193,239,61307,6,0,L|103:254,1,80.9999953823091,0|0,3:0|0:0,0:0:0:0:
361,285,61641,2,0,L|451:300,1,80.9999953823091,2|2,0:1|0:1,0:0:0:0:
216,317,61974,2,0,P|188:352|196:386,1,80.9999953823091,2|0,1:1|0:0,0:0:0:0:
254,179,62307,2,0,L|239:89,1,80.9999953823091,2|0,3:1|0:0,0:0:0:0:
170,49,62641,6,0,P|122:52|77:26,1,94.499994612694,2|0,0:1|0:0,0:0:0:0:
81,30,62974,2,0,P|79:66|93:89,1,62.9999964084627,0|0,3:0|0:0,0:0:0:0:
323,112,63307,6,0,P|364:90|411:93,1,94.499994612694,0|0,1:0|0:0,0:0:0:0:
411,93,63641,2,0,P|413:57|399:34,1,62.9999964084627
241,140,63974,6,0,P|235:101|256:59,1,71.9999980926514,0|0,3:1|0:0,0:0:0:0:
328,180,64307,2,0,P|334:141|313:99,1,71.9999980926514,0|0,3:0|0:0,0:0:0:0:
179,223,64641,6,0,P|154:191|155:132,1,80.9999953823091,0|0,3:3|0:0,0:0:0:0:
384,249,64974,2,0,P|409:217|408:158,1,80.9999953823091,0|0,3:0|0:0,0:0:0:0:
163,307,65307,6,0,P|122:331|79:329,1,89.9999976158143,0|0,3:3|0:0,0:0:0:0:
371,338,65641,2,0,P|415:337|453:360,1,89.9999976158143,0|0,3:3|0:0,0:0:0:0:
248,273,65974,6,0,B|197:242|201:179|201:179|240:158|244:110|244:110|293:141|292:186|292:186|290:223|255:245,1,346.500001395226,0|0,1:1|0:0,0:0:0:0:
187,342,66641,6,0,L|120:332,1,53.9999985694885,0|0,3:2|0:0,0:0:0:0:
101,329,66974,1,2,0:2:0:0:
69,249,67307,1,8,0:0:0:0:
122,180,67641,1,0,0:1:0:0:
208,193,67974,1,2,0:1:0:0:
239,273,68307,6,0,L|291:266,1,35.9999990463257,0|0,3:0|0:0,0:0:0:0:
187,342,68640,1,8,0:2:0:0:
391,254,69307,6,0,L|384:306,1,35.9999990463257,0|0,3:0|0:0,0:0:0:0:
404,168,69641,1,2,0:2:0:0:
471,222,69974,1,8,0:0:0:0:
324,200,70307,2,0,P|270:194|235:240,1,107.999997138977,0|0,3:0|0:0,0:0:0:0:
180,175,70974,6,0,B|207:136|195:104|195:104|202:138|246:156,1,148.500000597954,4|0,0:1|0:0,0:0:0:0:
236,231,71307,5,10,0:2:0:0:
237,245,71474,1,2,0:1:0:0:
238,259,71641,1,2,0:1:0:0:
239,273,71807,1,2,0:1:0:0:
187,342,71974,6,0,L|120:332,1,53.9999985694885,0|0,3:0|0:0,0:0:0:0:
101,329,72307,1,2,0:2:0:0:
69,249,72640,1,8,0:0:0:0:
122,180,72974,2,0,L|111:152,2,17.9999995231628,0|0|0,0:1|0:0|0:0,0:0:0:0:
208,193,73307,1,2,0:1:0:0:
239,273,73640,6,0,L|291:266,1,35.9999990463257,0|0,3:0|0:0,0:0:0:0:
187,342,73973,1,8,0:0:0:0:
386,289,74641,6,0,L|391:254,1,35.9999990463257,0|0,3:0|0:0,0:0:0:0:
471,222,74974,2,0,L|502:218,2,17.9999995231628,2|0|0,0:1|0:0|0:0,0:0:0:0:
404,168,75307,1,8,0:0:0:0:
324,200,75641,2,0,L|295:190,6,17.9999995231628,0|0|0|0|0|0|0,3:0|0:0|0:0|0:0|0:0|0:0|0:0,0:0:0:0:
404,168,76307,6,0,P|412:124|390:86,1,89.9999976158143,0|0,3:3|0:0,0:0:0:0:
266,112,76641,2,0,P|257:155|279:193,1,89.9999976158143,8|0,0:0|0:0,0:0:0:0:
371,281,76974,2,0,B|395:305|390:341|390:341|335:288|260:305,1,202.500002360344,2|0,0:1|0:0,0:0:0:0:
187,342,77307,6,0,L|120:332,1,53.9999985694885,4|0,3:2|0:0,0:0:0:0:
101,329,77640,1,2,0:0:0:0:
69,249,77973,1,8,0:0:0:0:
122,180,78307,2,0,L|111:152,2,17.9999995231628,0|0|0,0:1|0:0|0:0,0:0:0:0:
208,193,78640,1,2,0:1:0:0:
239,273,78973,6,0,L|291:266,1,35.9999990463257,0|0,3:0|0:0,0:0:0:0:
187,342,79306,1,12,0:1:0:0:
355,283,79641,2,0,L|362:231,1,35.9999990463257
365,201,79891,1,0,0:0:0:0:
365,201,79974,6,0,L|432:191,1,53.9999985694885,0|0,3:0|0:0,0:0:0:0:
451,188,80307,1,2,0:1:0:0:
465,102,80641,1,8,0:0:0:0:
387,61,80974,1,0,3:0:0:0:
325,123,81307,5,0,0:0:0:0:
328,135,81474,1,0,0:0:0:0:
301,36,81641,2,0,L|308:-16,1,35.9999990463257,2|0,0:1|0:0,0:0:0:0:
233,101,81974,2,0,L|181:108,1,35.9999990463257,8|0,0:1|0:2,0:0:0:0:
256,192,82307,5,2,0:1:0:0:
256,192,82474,1,0,0:3:0:0:
197,260,82641,6,0,B|182:282|152:285|152:285|120:268|89:279|89:279|110:244|152:251,1,188.999989225388,0|0,3:0|0:0,0:0:0:0:
302,269,83307,2,0,B|320:291|313:322|313:322|285:349|286:384|286:384|258:351|279:311,1,202.500002360344,8|0,0:0|0:0,0:0:0:0:
343,171,83974,2,0,B|371:160|400:177|400:177|418:214|454:225|454:225|411:242|378:208,1,215.999994277954
263,102,84641,2,0,B|261:70|288:47|288:47|332:41|354:9|354:9|357:57|312:79,1,229.499998297691,8|0,0:1|0:0,0:0:0:0:
173,156,85307,6,0,P|131:113|66:132,1,121.499993073464,0|0,3:0|0:0,0:0:0:0:
65,134,85641,2,0,L|56:187,3,40.4999976911546
0,235,85974,5,8,0:0:0:0:
173,156,86307,1,2,3:2:0:0:
256,192,86474,12,0,87641,0:0:0:0:
29,231,87974,6,0,L|22:280,1,35.9999990463257,0|0,3:0|0:0,0:0:0:0:
203,251,88641,6,0,L|298:238,1,71.9999980926514,8|0,0:0|0:0,0:0:0:0:
277,244,88891,1,2,0:3:0:0:
280,247,88974,1,2,0:3:0:0:
136,197,89141,1,2,0:3:0:0:
68,340,89474,5,0,0:3:0:0:
29,231,89641,6,0,L|22:280,1,35.9999990463257,0|0,3:0|0:0,0:0:0:0:
216,350,89974,6,0,P|188:302|122:301,1,107.999997138977,8|0,0:0|0:0,0:0:0:0:
66,353,90307,1,2,0:0:0:0:
68,340,90474,1,2,0:0:0:0:
29,231,90641,6,0,L|22:280,1,35.9999990463257,0|0,3:0|0:0,0:0:0:0:
51,114,90974,1,2,0:1:0:0:
51,114,91307,5,8,0:0:0:0:
238,87,91474,1,2,0:1:0:0:
168,135,91641,5,2,3:3:0:0:
190,18,91807,1,2,0:3:0:0:
190,18,92141,5,2,0:3:0:0:
308,39,92307,1,2,3:3:0:0:
316,34,92474,1,2,0:1:0:0:
286,157,92641,6,0,B|231:140|173:173|218:179|161:211|106:192,1,188.999989225388,8|0,0:0|0:0,0:0:0:0:
29,231,93307,6,0,L|22:280,1,35.9999990463257,4|0,3:1|0:0,0:0:0:0:
180,336,93641,5,2,0:1:0:0:
64,366,93807,1,2,0:1:0:0:
66,353,94141,1,2,0:1:0:0:
68,340,94474,1,2,0:3:0:0:
66,353,94557,1,2,0:3:0:0:
64,366,94641,5,2,0:3:0:0:
225,267,94891,1,2,0:3:0:0:
410,306,95141,1,0,0:0:0:0:
330,335,95307,5,8,0:2:0:0:
330,335,95474,1,0,0:0:0:0:
425,223,95641,5,2,0:1:0:0:
438,225,95724,1,0,0:0:0:0:
451,227,95808,1,0,0:0:0:0:
464,229,95891,1,0,0:0:0:0:
483,231,95974,6,0,L|490:280,1,35.9999990463257,0|0,3:0|0:0,0:0:0:0:
453,63,96307,5,2,0:1:0:0:
468,147,96474,1,2,0:1:0:0:
345,251,96641,5,10,0:1:0:0:
360,167,96808,1,2,0:2:0:0:
410,306,96974,5,0,3:1:0:0:
410,306,97307,5,2,0:1:0:0:
360,167,97474,2,0,B|369:74|369:74|414:41,1,134.999992303849,2|0,0:1|0:0,0:0:0:0:
342,0,97974,6,0,L|349:66,1,62.9999964084627,8|0,0:0|0:0,0:0:0:0:
360,167,98307,2,0,L|426:174,1,62.9999964084627,2|0,0:1|0:0,0:0:0:0:
483,231,98641,6,0,L|490:280,1,35.9999990463257,0|0,3:0|0:0,0:0:0:0:
355,371,98974,5,2,0:1:0:0:
410,306,99141,1,2,0:1:0:0:
494,321,99307,1,10,0:0:0:0:
496,331,99474,1,0,0:0:0:0:
428,166,99807,5,2,0:0:0:0:
428,166,100141,1,2,0:3:0:0:
483,231,100307,6,0,L|490:280,1,35.9999990463257,2|0,3:1|0:0,0:0:0:0:
428,166,100640,5,8,0:0:0:0:
344,183,100807,1,0,0:0:0:0:
289,118,100974,1,2,0:3:0:0:
289,118,101141,1,0,0:0:0:0:
372,101,101307,6,0,P|375:65|359:36,2,62.9999964084627,0|0|2,3:0|0:0|0:1,0:0:0:0:
289,118,101807,1,2,0:0:0:0:
234,53,101974,6,0,P|194:37|156:45,2,80.9999953823091,8|0|2,0:0|0:0|3:1,0:0:0:0:
289,118,102474,1,0,0:0:0:0:
245,190,102641,5,2,0:3:0:0:
247,200,102808,1,2,0:3:0:0:
274,282,102974,5,2,3:1:0:0:
276,272,103141,1,2,0:0:0:0:
256,358,103307,5,8,0:0:0:0:
334,337,103474,2,0,L|383:344,1,35.9999990463257,2|2,0:3|0:3,0:0:0:0:
256,358,103641,5,2,0:1:0:0:
483,231,103974,6,0,L|490:280,1,35.9999990463257,0|0,3:0|0:0,0:0:0:0:
461,114,104307,5,2,0:1:0:0:
406,179,104474,1,2,0:0:0:0:
322,164,104640,1,8,0:0:0:0:
313,169,104807,5,0,0:0:0:0:
262,99,104974,1,0,3:0:0:0:
179,126,105140,1,0,0:0:0:0:
179,126,105474,5,2,0:3:0:0:
262,99,105640,1,0,3:0:0:0:
313,169,105807,1,2,0:2:0:0:
262,240,105974,5,8,0:0:0:0:
127,283,106307,1,2,0:1:0:0:
179,213,106474,1,2,0:0:0:0:
179,355,106641,6,0,B|214:341|249:362|229:364|263:382|300:368,1,125.999992816925,0|2,3:0|0:1,0:0:0:0:
351,298,107141,1,2,0:0:0:0:
434,325,107307,6,0,P|449:356|447:387,2,62.9999964084627,8|0|0,0:0|0:0|3:0,0:0:0:0:
351,298,107807,1,0,0:0:0:0:
416,240,107974,6,0,L|483:249,2,62.9999964084627,0|2|0,0:3|0:3|3:0,0:0:0:0:
351,298,108474,1,0,0:0:0:0:
398,155,108641,5,8,0:0:0:0:
398,155,109307,6,0,P|414:102|395:50,1,107.999993843079,0|0,3:0|0:0,0:0:0:0:
397,54,109641,2,0,P|422:83|427:120,1,71.9999980926514,2|0,0:0|0:0,0:0:0:0:
340,221,109974,6,0,P|295:187|240:191,1,107.999993843079,8|0,0:2|0:0,0:0:0:0:
245,188,110307,2,0,P|280:172|316:179,1,71.9999980926514,2|0,0:0|0:0,0:0:0:0:
301,333,110641,6,0,P|293:297|269:270,1,71.9999980926514,2|0,0:1|0:0,0:0:0:0:
149,367,110974,2,0,P|179:350|197:319,1,71.9999980926514,2|0,3:2|0:0,0:0:0:0:
169,120,111307,6,0,P|155:152|159:187,1,71.9999980926514,8|0,0:2|0:0,0:0:0:0:
312,179,111641,2,0,P|276:175|244:190,1,71.9999980926514,2|0,0:0|0:0,0:0:0:0:
67,236,111974,6,0,B|53:231|38:232|38:232|86:172|160:197|160:197|163:232|191:252,1,215.999994277954,0|0,3:0|0:0,0:0:0:0:
196,326,112641,2,0,P|156:326|121:306,1,80.9999953823091,8|0,0:2|0:0,0:0:0:0:
244,190,112974,6,0,B|267:187|286:196|286:196|335:182|357:125|323:79,1,188.999989225388,2|0,3:2|0:0,0:0:0:0:
264,19,113641,2,0,P|238:53|244:99,1,80.9999953823091,2|0,3:1|0:0,0:0:0:0:
350,205,113974,5,8,0:2:0:0:
350,205,114307,6,0,B|374:208|394:194|394:194|370:190|351:202,1,89.9999976158143,2|2,0:2|0:0,0:0:0:0:
246,274,114641,6,0,P|208:279|178:261,1,62.9999964084627,0|0,3:0|0:0,0:0:0:0:
331,297,114974,2,0,P|350:334|346:364,1,62.9999964084627,2|0,0:2|0:0,0:0:0:0:
122,323,115307,6,0,P|104:296|103:251,1,71.9999980926514,8|0,0:2|0:0,0:0:0:0:
228,191,115641,2,0,P|247:161|248:126,1,71.9999980926514,2|0,3:2|0:0,0:0:0:0:
331,297,115974,6,0,B|338:306|338:306|417:317,1,80.9999953823091,2|0,0:1|0:0,0:0:0:0:
142,178,116307,2,0,B|132:173|132:173|53:184,1,80.9999953823091,2|0,3:2|0:0,0:0:0:0:
218,281,116641,6,0,L|227:192,1,89.9999976158143,8|0,0:2|0:0,0:0:0:0:
70,91,116974,2,0,B|45:133|45:133|58:189,1,89.9999976158143,2|0,0:2|0:0,0:0:0:0:
199,109,117307,6,0,B|261:85|321:130|277:145|336:183|400:161,1,215.999994277954,0|0,3:0|0:0,0:0:0:0:
393,162,117974,6,0,P|357:162|327:181,1,71.9999980926514,8|0,0:2|0:0,0:0:0:0:
227,191,118307,2,0,L|219:272,1,71.9999980926514,2|0,3:2|0:0,0:0:0:0:
76,120,118641,6,0,P|109:132|132:159,1,71.9999980926514,2|0,0:1|0:0,0:0:0:0:
227,191,118974,2,0,L|219:262,1,71.9999980926514,2|0,3:2|0:0,0:0:0:0:
305,152,119307,6,0,P|326:113|316:71,1,89.9999976158143,8|0,0:2|0:0,0:0:0:0:
135,240,119641,2,0,L|81:245,1,53.9999969215394,2|0,0:2|0:0,0:0:0:0:
318,282,119974,6,0,P|280:186|220:266,1,242.999986146927,0|0,3:0|0:0,0:0:0:0:
371,346,120641,2,0,B|337:316|288:335|288:335|280:317|280:317|245:357|186:341,1,202.500002360344,8|0,0:2|0:0,0:0:0:0:
134,276,121307,6,0,P|131:241|123:206,1,71.9999980926514,2|0,0:1|0:0,0:0:0:0:
206,190,121641,2,0,P|209:225|218:261,1,71.9999980926514,2|0,3:2|0:0,0:0:0:0:
129,369,121974,6,0,P|158:347|194:343,1,71.9999980926514,8|0,0:2|0:0,0:0:0:0:
318,282,122307,2,0,P|349:304|383:308,1,71.9999980926514,2|0,0:2|0:0,0:0:0:0:
462,319,122641,6,0,P|464:281|441:249,1,62.9999964084627,0|0,3:0|0:0,0:0:0:0:
326,376,122974,2,0,L|260:385,1,62.9999964084627,2|0,0:2|0:0,0:0:0:0:
377,221,123307,2,0,L|389:146,1,62.9999964084627,8|0,0:2|0:0,0:0:0:0:
439,85,123641,6,0,B|411:126|361:134|320:105|320:105|315:55|345:16|401:12,1,269.999984607697,2|0,3:2|0:0,0:0:0:0:
485,10,124641,1,8,0:2:0:0:
386,158,124974,1,2,0:2:0:0:
195,139,125307,5,0,3:0:0:0:
256,192,125391,12,2,127641,0:2:0:0:
195,139,127974,6,0,P|193:91|225:53,1,89.9999976158143,2|0,3:2|0:0,0:0:0:0:
309,85,128307,2,0,P|310:132|278:170,1,89.9999976158143,2|0,3:2|0:0,0:0:0:0:
126,222,128641,6,0,L|225:231,1,89.9999976158143,2|0,1:2|0:0,0:0:0:0:
315,338,128974,2,0,L|302:240,1,89.9999976158143,2|0,3:2|0:0,0:0:0:0:
388,0,129307,6,0,P|429:49|421:104,1,107.999993843079,2|0,3:2|0:0,0:0:0:0:
287,166,129641,2,0,L|177:156,1,107.999993843079,2|0,3:2|0:0,0:0:0:0:
335,77,129974,5,0,1:2:0:0:
65,119,130141,1,8,0:3:0:0:
141,269,130307,5,4,0:3:0:0:
184,0,130474,1,0,3:0:0:0:
308,242,130641,6,0,P|247:235|210:187,1,125.999992816925,6|2,3:2|0:0,0:0:0:0:
335,77,130974,1,2,0:0:0:0:
335,77,131141,1,0,0:0:0:0:
184,0,131307,6,0,P|229:41|230:102,1,125.999992816925,0|0,1:0|0:0,0:0:0:0:
126,210,131641,2,0,P|194:144|287:166,1,198.000000797272,2|2,3:2|0:0,0:0:0:0:
335,77,132141,1,0,0:0:0:0:
308,242,132307,6,0,P|247:235|210:187,1,125.999992816925,2|0,3:2|0:0,0:0:0:0:
184,0,132641,2,0,P|229:41|230:102,1,125.999992816925,0|0,1:0|0:0,0:0:0:0:
146,127,132974,2,0,L|90:113,1,53.9999969215394,2|2,0:1|0:1,0:0:0:0:
287,166,133307,6,0,P|193:144|124:213,1,198.000000797272,2|2,3:2|0:1,0:0:0:0:
153,292,133807,1,2,0:1:0:0:
41,186,133974,6,0,P|39:234|67:274,1,99.0000003986359,2|0,1:2|0:0,0:0:0:0:
239,309,134307,2,0,L|351:297,1,99.0000003986359,2|2,3:1|0:1,0:0:0:0:
126,210,134641,6,0,L|142:106,1,99.0000003986359,2|0,0:2|0:0,0:0:0:0:
97,356,134974,1,2,3:0:0:0:
42,187,135307,6,0,P|40:235|68:275,1,99.0000003986359,2|0,1:3|0:0,0:0:0:0:
214,228,135641,2,0,P|215:179|187:139,1,99.0000003986359,2|0,0:0|0:0,0:0:0:0:
153,292,135974,6,0,P|245:270|314:335,1,198.000000797272,0|2,3:0|0:1,0:0:0:0:
213,228,136474,1,2,0:1:0:0:
359,180,136641,6,0,P|316:203|295:247,1,99.0000003986359,2|0,1:2|0:0,0:0:0:0:
213,228,136974,2,0,P|215:179|187:139,1,99.0000003986359,2|2,3:1|0:1,0:0:0:0:
244,78,137307,2,0,P|285:103|333:99,1,99.0000003986359,2|0,0:0|0:0,0:0:0:0:
303,18,137641,5,0,3:0:0:0:
187,139,137974,6,0,P|215:179|213:228,1,99.0000003986359,0|0,1:0|0:0,0:0:0:0:
359,180,138307,2,0,P|316:203|295:247,1,99.0000003986359,2|2,0:1|0:1,0:0:0:0:
314,335,138641,6,0,P|245:270|153:292,1,198.000000797272,2|2,3:2|0:1,0:0:0:0:
295,246,139140,1,2,0:1:0:0:
187,139,139307,6,0,P|215:179|213:227,1,99.0000003986359,2|0,1:2|0:0,0:0:0:0:
295,247,139641,2,0,P|316:203|359:180,1,99.0000003986359,2|0,3:1|0:1,0:0:0:0:
333,99,139974,2,0,P|285:103|244:78,1,99.0000003986359,2|0,0:2|0:0,0:0:0:0:
305,19,140308,5,0,3:0:0:0:
237,311,140641,6,0,L|244:362,1,44.9999988079071,4|4,1:1|0:3,0:0:0:0:
271,165,140974,1,0,3:0:0:0:
271,165,141307,6,0,P|315:205|312:268,1,125.999992816925,4|0,3:2|0:0,0:0:0:0:
134,376,141640,1,2,0:0:0:0:
134,376,141807,1,0,0:0:0:0:
343,348,141974,6,0,P|281:350|235:310,1,125.999992816925,0|0,1:2|0:0,0:0:0:0:
65,317,142307,2,0,B|70:258|121:223|180:240|180:240|151:259|148:294,1,215.999987686158,2|2,3:2|0:0,0:0:0:0:
234,309,142807,1,0,0:0:0:0:
271,165,142974,6,0,P|315:205|312:268,1,125.999992816925,2|2,3:1|0:1,0:0:0:0:
138,143,143307,6,0,P|101:141|69:122,1,71.9999980926514,2|0,1:2|0:0,0:0:0:0:
70,38,143641,2,0,P|131:31|180:67,1,125.999992816925,2|2,0:1|0:1,0:0:0:0:
397,196,143974,6,0,P|434:194|466:175,1,71.9999980926514,2|0,3:2|0:0,0:0:0:0:
464,91,144308,2,0,P|403:83|354:120,1,125.999992816925,2|2,0:1|0:1,0:0:0:0:
163,294,144641,6,0,P|171:329|173:365,1,71.9999980926514,2|0,1:2|0:0,0:0:0:0:
353,234,144974,2,0,P|345:269|344:305,1,71.9999980926514,2|0,3:1|0:1,0:0:0:0:
67,266,145307,6,0,P|102:214|161:196,1,125.999992816925,2|0,0:2|0:0,0:0:0:0:
447,203,145641,2,0,P|412:151|353:133,1,125.999992816925,2|0,3:0|0:0,0:0:0:0:
129,109,145974,6,0,P|159:147|161:195,1,99.0000003986359,2|0,1:3|0:0,0:0:0:0:
353,234,146307,2,0,P|322:272|320:320,1,99.0000003986359,2|0,0:0|0:0,0:0:0:0:
90,267,146641,6,0,P|188:290|256:224,1,198.000000797272,0|2,3:0|0:1,0:0:0:0:
232,147,147141,1,2,0:1:0:0:
354,235,147307,6,0,P|348:186|317:149,1,99.0000003986359,2|0,1:2|0:0,0:0:0:0:
79,146,147641,2,0,P|113:182|161:193,1,99.0000003986359,2|2,3:1|0:1,0:0:0:0:
354,56,147974,2,0,P|305:47|260:65,1,99.0000003986359,2|0,0:2|0:0,0:0:0:0:
253,228,148307,5,0,3:0:0:0:
184,1,148641,6,0,P|161:44|164:93,1,99.0000003986359,2|0,1:2|0:0,0:0:0:0:
354,235,148974,2,0,L|467:220,1,99.0000003986359,2|2,0:1|0:1,0:0:0:0:
232,147,149307,6,0,L|209:308,1,148.500000597954,2|0,3:2|0:0,0:0:0:0:
202,310,149641,6,0,L|217:199,1,80.9999953823091,2|2,0:1|0:1,0:0:0:0:
375,107,149974,2,0,B|415:100|445:133|445:133|468:58|411:-8|337:0,1,269.999992847443,2|0,1:2|0:0,0:0:0:0:
232,147,150641,6,0,P|187:151|149:130,1,89.9999976158143,2|0,0:2|0:0,0:0:0:0:
338,250,150974,2,0,P|364:285|364:329,1,89.9999976158143,0|0,3:3|3:1,0:0:0:0:
375,107,151307,6,0,P|392:66|430:43,2,89.9999976158143,0|8|0,1:2|0:3|3:0,0:0:0:0:
512,27,151807,1,4,0:3:0:0:
375,107,151974,6,0,L|182:80,1,175.499987317086,4|0,3:2|0:0,0:0:0:0:
201,82,152307,6,0,P|167:116|164:155,1,80.9999953823091
72,60,152641,2,0,P|94:102|130:117,1,80.9999953823091,0|0,1:0|0:0,0:0:0:0:
11,175,152974,2,0,P|58:166|83:136,1,80.9999953823091,2|0,3:2|0:0,0:0:0:0:
102,268,153308,2,0,P|108:220|87:187,1,80.9999953823091,2|0,0:0|0:0,0:0:0:0:
218,210,153641,2,0,P|174:189|136:198,1,80.9999953823091,2|2,3:2|0:0,0:0:0:0:
47,338,153974,6,0,P|130:354|185:290,1,175.499987317086,0|0,1:0|0:0,0:0:0:0:
184,291,154307,2,0,L|170:394,1,71.9999980926514,2|0,0:0|0:0,0:0:0:0:
125,211,154641,6,0,P|120:166|142:128,1,89.9999976158143,0|0,3:0|0:0,0:0:0:0:
184,291,154974,1,2,0:0:0:0:
350,253,155307,6,0,P|301:229|259:239,1,89.9999976158143,0|0,1:0|0:0,0:0:0:0:
184,291,155641,2,0,L|170:395,1,71.9999980926514,2|0,3:2|0:0,0:0:0:0:
125,211,155974,2,0,P|120:166|142:128,1,89.9999976158143,2|0,0:1|0:0,0:0:0:0:
221,72,156307,6,0,L|37:96,2,179.999995231629,0|0|2,3:2|1:0|0:0,0:0:0:0:
365,153,157307,5,0,3:0:0:0:
378,21,157641,6,0,P|409:48|417:87,1,80.9999953823091
493,124,157974,2,0,P|477:161|442:181,1,80.9999953823091,0|0,1:0|0:0,0:0:0:0:
430,267,158307,2,0,P|390:263|360:236,1,80.9999953823091,2|0,3:2|0:0,0:0:0:0:
277,250,158641,2,0,P|268:211|284:174,1,80.9999953823091,2|0,0:0|0:0,0:0:0:0:
243,99,158974,2,0,P|278:78|317:82,1,80.9999953823091,2|2,3:2|0:0,0:0:0:0:
277,250,159307,6,0,L|96:226,1,161.999990764618,0|0,1:0|0:0,0:0:0:0:
116,228,159641,2,0,L|129:332,1,71.9999980926514,2|0,0:0|0:0,0:0:0:0:
67,384,159974,6,0,P|127:324|209:351,2,179.999995231629,0|2|0,3:0|0:0|1:0,0:0:0:0:
199,205,160974,2,0,L|203:160,6,44.9999988079071,2|0|0|0|2|0|0,3:2|0:0|0:0|0:0|0:1|0:0|0:0,0:0:0:0:
214,76,161641,6,0,P|153:136|72:109,2,179.999995231629,0|4|0,3:0|1:1|3:0,0:0:0:0:
283,222,162641,5,4,3:2:0:0:
300,94,162974,6,0,P|334:128|337:167,1,80.9999953823091,2|0,0:0|0:0,0:0:0:0:
429,72,163308,2,0,P|407:114|371:129,1,80.9999953823091,0|0,1:0|0:0,0:0:0:0:
490,187,163641,2,0,P|443:178|418:148,1,80.9999953823091,2|0,3:2|0:0,0:0:0:0:
399,280,163975,2,0,P|393:232|414:199,1,80.9999953823091,2|0,0:0|0:0,0:0:0:0:
283,222,164308,2,0,P|327:201|365:210,1,80.9999953823091,2|0,3:2|0:0,0:0:0:0:
454,350,164641,6,0,P|371:366|316:302,1,175.499987317086,0|0,1:0|0:0,0:0:0:0:
317,303,164974,2,0,L|331:406,1,71.9999980926514,2|0,0:0|0:0,0:0:0:0:
376,223,165308,6,0,P|381:178|359:140,1,89.9999976158143,0|0,3:0|0:0,0:0:0:0:
317,303,165641,1,2,0:0:0:0:
151,265,165974,6,0,P|200:241|242:251,1,89.9999976158143,0|0,1:0|0:0,0:0:0:0:
317,303,166308,2,0,L|331:407,1,71.9999980926514,2|0,3:2|0:0,0:0:0:0:
376,223,166641,2,0,P|381:178|359:140,1,89.9999976158143,2|0,0:0|0:0,0:0:0:0:
280,84,166974,6,0,L|464:108,2,179.999995231629,2|0|2,3:2|1:0|0:1,0:0:0:0:
147,153,167974,5,0,3:0:0:0:
149,22,168307,6,0,P|118:49|110:88,1,80.9999953823091,2|0,0:2|0:0,0:0:0:0:
34,85,168641,2,0,P|72:98|110:85,1,80.9999953823091,0|0,1:0|0:0,0:0:0:0:
147,153,168974,2,0,P|139:112|109:86,1,80.9999953823091,2|0,3:2|0:0,0:0:0:0:
93,220,169307,5,2,0:1:0:0:
174,317,169640,6,0,P|215:319|247:296,1,80.9999953823091,2|0,3:2|0:0,0:0:0:0:
300,351,169974,2,0,P|281:314|245:297,1,80.9999953823091,0|0,1:0|0:0,0:0:0:0:
266,224,170307,2,0,P|243:258|246:298,1,80.9999953823091,2|0,3:2|0:0,0:0:0:0:
351,211,170641,5,4,3:1:0:0:
449,157,170974,6,0,P|448:115|423:84,1,80.9999953823091,2|0,0:2|0:0,0:0:0:0:
474,28,171308,2,0,P|438:49|424:86,1,80.9999953823091,0|0,1:0|0:0,0:0:0:0:
343,64,171641,6,0,P|379:89|423:85,1,89.9999976158142,4|0,0:2|0:0,0:0:0:0:
