osu file format v14

[General]
AudioFilename: audio.mp3
AudioLeadIn: 0
PreviewTime: 130599
Countdown: 0
SampleSet: Soft
StackLeniency: 0.4
Mode: 0
LetterboxInBreaks: 0
WidescreenStoryboard: 1

[Editor]
Bookmarks: 23975,45308,66641,87975,109308,130641,151975,173308
DistanceSpacing: 1.3
BeatDivisor: 4
GridSize: 4
TimelineZoom: 2.200001

[Metadata]
Title:Hua Yue Cheng Shuang
TitleUnicode:花月成双
Artist:Ling Yuan yousa, Xiu Mu Su, Hun Miao Miao
ArtistUnicode:泠鸢yousa, 朽木素, 魂喵喵
Creator:-Nanako-
Version:Collab Hard
Source:BDF2021
Tags:MoeAsuka Hollow Wings Ujimatcha nika mika Chinese pop female cover huayue chengshuang bdf cpop lingyuan 三無Marblue 三无Marblue san wu sanwu marblue LS 夏安兰 xiaanlan Bilibili Dancing Festival 2021 Hiten desire flower
BeatmapID:4412514
BeatmapSetID:1938126

[Difficulty]
HPDrainRate:4
CircleSize:4
OverallDifficulty:6
ApproachRate:7
SliderMultiplier:1.99999990463257
SliderTickRate:0.5

[Events]
//Background and Video events
0,0,"bg.jpg",0,0
//Break Periods
//Storyboard Layer 0 (Background)
//Storyboard Layer 1 (Fail)
//Storyboard Layer 2 (Pass)
//Storyboard Layer 3 (Foreground)
//Storyboard Layer 4 (Overlay)
//Storyboard Sound Samples

[TimingPoints]
2641,666.666666666667,4,2,7,50,1,0
12807,-100,4,2,7,5,0,0
12891,-100,4,2,7,5,0,0
12974,-100,4,2,7,50,0,0
13141,-100,4,2,7,5,0,0
13225,-100,4,2,7,5,0,0
13307,-111.111111111111,4,2,7,50,0,0
13807,-111.111111111111,4,2,7,5,0,0
13974,-111.111111111111,4,2,7,50,0,0
14141,-111.111111111111,4,2,7,5,0,0
14225,-111.111111111111,4,2,7,5,0,0
14307,-111.111111111111,4,2,7,50,0,0
14474,-111.111111111111,4,2,7,50,0,0
14558,-111.111111111111,4,2,7,50,0,0
14807,-111.111111111111,4,2,7,5,0,0
14974,-111.111111111111,4,2,7,50,0,0
15141,-111.111111111111,4,2,7,50,0,0
15225,-111.111111111111,4,2,7,50,0,0
15474,-111.111111111111,4,2,7,5,0,0
15557,-111.111111111111,4,2,7,5,0,0
15641,-111.111111111111,4,2,7,50,0,0
15807,-111.111111111111,4,2,7,5,0,0
15891,-111.111111111111,4,2,7,5,0,0
15974,-111.111111111111,4,2,7,50,0,0
16141,-111.111111111111,4,2,7,5,0,0
16225,-111.111111111111,4,2,7,5,0,0
16307,-111.111111111111,4,2,7,50,0,0
16391,-111.111111111111,4,2,7,35,0,0
16641,-111.111111111111,4,2,7,50,0,0
16807,-111.111111111111,4,2,7,5,0,0
16891,-111.111111111111,4,2,7,5,0,0
16974,-111.111111111111,4,2,7,50,0,0
17141,-111.111111111111,4,2,7,5,0,0
17307,-111.111111111111,4,2,7,50,0,0
17807,-111.111111111111,4,2,7,50,0,0
17891,-111.111111111111,4,2,7,50,0,0
18474,-111.111111111111,4,2,7,50,0,0
18558,-111.111111111111,4,2,7,50,0,0
19557,-111.111111111111,4,2,7,50,0,0
19641,-111.111111111111,4,2,7,50,0,0
20474,-111.111111111111,4,2,7,50,0,0
20558,-111.111111111111,4,2,7,50,0,0
21391,-111.111111111111,4,2,7,25,0,0
21974,-111.111111111111,4,2,7,50,0,0
22141,-111.111111111111,4,2,7,5,0,0
22224,-111.111111111111,4,2,7,5,0,0
22308,-111.111111111111,4,2,7,50,0,0
22474,-111.111111111111,4,2,7,5,0,0
22558,-111.111111111111,4,2,7,5,0,0
22641,-111.111111111111,4,2,7,50,0,0
24807,-111.111111111111,4,2,7,50,0,0
24891,-111.111111111111,4,2,7,50,0,0
24974,-111.111111111111,4,2,7,60,0,0
25474,-111.111111111111,4,2,7,60,0,0
25558,-111.111111111111,4,2,7,60,0,0
26141,-111.111111111111,4,2,7,60,0,0
26225,-111.111111111111,4,2,7,60,0,0
26474,-111.111111111111,4,2,7,60,0,0
26558,-111.111111111111,4,2,7,60,0,0
26807,-111.111111111111,4,2,7,5,0,0
26891,-111.111111111111,4,2,7,5,0,0
26974,-111.111111111111,4,2,7,60,0,0
27141,-111.111111111111,4,2,7,5,0,0
27225,-111.111111111111,4,2,7,5,0,0
27307,-111.111111111111,4,2,7,60,0,0
27474,-111.111111111111,4,2,7,5,0,0
27558,-111.111111111111,4,2,7,5,0,0
27641,-111.111111111111,4,2,7,60,0,0
27807,-111.111111111111,4,2,7,5,0,0
27891,-111.111111111111,4,2,7,5,0,0
27975,-111.111111111111,4,2,7,60,0,0
28807,-111.111111111111,4,2,7,5,0,0
28891,-111.111111111111,4,2,7,5,0,0
28974,-111.111111111111,4,2,7,60,0,0
29141,-111.111111111111,4,2,7,5,0,0
29225,-111.111111111111,4,2,7,5,0,0
29307,-111.111111111111,4,2,7,60,0,0
30141,-111.111111111111,4,2,7,60,0,0
30225,-111.111111111111,4,2,7,60,0,0
30807,-111.111111111111,4,2,7,5,0,0
30891,-111.111111111111,4,2,7,5,0,0
30974,-111.111111111111,4,2,7,60,0,0
31141,-111.111111111111,4,2,7,5,0,0
31225,-111.111111111111,4,2,7,5,0,0
31307,-111.111111111111,4,2,7,60,0,0
31474,-111.111111111111,4,2,7,5,0,0
31558,-111.111111111111,4,2,7,5,0,0
31641,-111.111111111111,4,2,7,60,0,0
31807,-111.111111111111,4,2,7,5,0,0
31891,-111.111111111111,4,2,7,5,0,0
31974,-111.111111111111,4,2,7,60,0,0
32141,-111.111111111111,4,2,7,60,0,0
32225,-111.111111111111,4,2,7,5,0,0
32307,-111.111111111111,4,2,7,60,0,0
32474,-111.111111111111,4,2,7,5,0,0
32558,-111.111111111111,4,2,7,5,0,0
32641,-111.111111111111,4,2,7,60,0,0
32807,-111.111111111111,4,2,7,60,0,0
32891,-111.111111111111,4,2,7,5,0,0
32974,-111.111111111111,4,2,7,60,0,0
33141,-111.111111111111,4,2,7,5,0,0
33225,-111.111111111111,4,2,7,5,0,0
33307,-111.111111111111,4,2,7,60,0,0
33474,-111.111111111111,4,2,7,60,0,0
33558,-111.111111111111,4,2,7,60,0,0
34141,-111.111111111111,4,2,7,60,0,0
34225,-111.111111111111,4,2,7,60,0,0
34474,-111.111111111111,4,2,7,60,0,0
34558,-111.111111111111,4,2,7,60,0,0
35474,-111.111111111111,4,2,7,5,0,0
35558,-111.111111111111,4,2,7,5,0,0
35641,-111.111111111111,4,2,7,60,0,0
36141,-111.111111111111,4,2,7,5,0,0
36225,-111.111111111111,4,2,7,5,0,0
36307,-111.111111111111,4,2,7,60,0,0
36807,-111.111111111111,4,2,7,5,0,0
36891,-111.111111111111,4,2,7,5,0,0
36974,-111.111111111111,4,2,7,60,0,0
37141,-111.111111111111,4,2,7,60,0,0
37225,-111.111111111111,4,2,7,60,0,0
37474,-111.111111111111,4,2,7,60,0,0
37558,-111.111111111111,4,2,7,5,0,0
37641,-111.111111111111,4,2,7,60,0,0
37807,-111.111111111111,4,2,7,5,0,0
37891,-111.111111111111,4,2,7,5,0,0
37974,-111.111111111111,4,2,7,60,0,0
38141,-111.111111111111,4,2,7,5,0,0
38225,-111.111111111111,4,2,7,5,0,0
38307,-111.111111111111,4,2,7,60,0,0
38474,-111.111111111111,4,2,7,5,0,0
38558,-111.111111111111,4,2,7,5,0,0
38641,-111.111111111111,4,2,7,60,0,0
39474,-111.111111111111,4,2,7,50,0,0
39558,-111.111111111111,4,2,7,50,0,0
39640,-111.111111111111,4,2,7,60,0,0
39807,-111.111111111111,4,2,7,50,0,0
39891,-111.111111111111,4,2,7,50,0,0
39974,-111.111111111111,4,2,7,60,0,0
40307,-111.111111111111,4,2,7,60,0,0
40391,-111.111111111111,4,2,7,60,0,0
40474,-111.111111111111,4,2,7,5,0,0
40641,-111.111111111111,4,2,7,60,0,0
40974,-111.111111111111,4,2,7,60,0,0
41058,-111.111111111111,4,2,7,60,0,0
41141,-111.111111111111,4,2,7,5,0,0
41307,-111.111111111111,4,2,7,60,0,0
41474,-111.111111111111,4,2,7,5,0,0
41558,-111.111111111111,4,2,7,5,0,0
41641,-111.111111111111,4,2,7,60,0,0
41807,-111.111111111111,4,2,7,5,0,0
41891,-111.111111111111,4,2,7,5,0,0
41974,-111.111111111111,4,2,7,60,0,0
42141,-111.111111111111,4,2,7,5,0,0
42225,-111.111111111111,4,2,7,5,0,0
42307,-111.111111111111,4,2,7,60,0,0
42474,-111.111111111111,4,2,7,5,0,0
42558,-111.111111111111,4,2,7,5,0,0
42641,-111.111111111111,4,2,7,60,0,0
42974,-111.111111111111,4,2,7,5,0,0
43058,-111.111111111111,4,2,7,5,0,0
43141,-111.111111111111,4,2,7,60,0,0
44474,-111.111111111111,4,2,7,60,0,0
44558,-111.111111111111,4,2,7,60,0,0
44807,-111.111111111111,4,2,7,60,0,0
44891,-111.111111111111,4,2,7,60,0,0
45141,-111.111111111111,4,2,7,60,0,0
45225,-111.111111111111,4,2,7,60,0,0
45474,-111.111111111111,4,2,7,5,0,0
45558,-111.111111111111,4,2,7,5,0,0
45641,-111.111111111111,4,2,7,30,0,0
45974,-111.111111111111,4,2,7,60,0,0
47474,-111.111111111111,4,2,7,5,0,0
47558,-111.111111111111,4,2,7,5,0,0
47641,-111.111111111111,4,2,7,60,0,0
47807,-111.111111111111,4,2,7,5,0,0
47891,-111.111111111111,4,2,7,5,0,0
47974,-111.111111111111,4,2,7,60,0,0
48807,-111.111111111111,4,2,7,5,0,0
48891,-111.111111111111,4,2,7,5,0,0
48974,-111.111111111111,4,2,7,60,0,0
49141,-111.111111111111,4,2,7,5,0,0
49225,-111.111111111111,4,2,7,5,0,0
49307,-111.111111111111,4,2,7,60,0,0
49807,-111.111111111111,4,2,7,60,0,0
49891,-111.111111111111,4,2,7,60,0,0
50807,-111.111111111111,4,2,7,5,0,0
50891,-111.111111111111,4,2,7,5,0,0
50974,-111.111111111111,4,2,7,60,0,0
51141,-111.111111111111,4,2,7,5,0,0
51307,-111.111111111111,4,2,7,60,0,0
51474,-111.111111111111,4,2,7,5,0,0
51558,-111.111111111111,4,2,7,5,0,0
51641,-111.111111111111,4,2,7,60,0,0
51807,-111.111111111111,4,2,7,5,0,0
51891,-111.111111111111,4,2,7,5,0,0
51974,-111.111111111111,4,2,7,60,0,0
52141,-111.111111111111,4,2,7,5,0,0
52225,-111.111111111111,4,2,7,5,0,0
52307,-111.111111111111,4,2,7,60,0,0
52474,-111.111111111111,4,2,7,5,0,0
52558,-111.111111111111,4,2,7,5,0,0
52641,-111.111111111111,4,2,7,60,0,0
52807,-111.111111111111,4,2,7,5,0,0
52891,-111.111111111111,4,2,7,5,0,0
52974,-111.111111111111,4,2,7,60,0,0
53141,-111.111111111111,4,2,7,5,0,0
53225,-111.111111111111,4,2,7,5,0,0
53307,-111.111111111111,4,2,7,60,0,0
53807,-111.111111111111,4,2,7,5,0,0
53974,-111.111111111111,4,2,7,60,0,0
54141,-111.111111111111,4,2,7,5,0,0
54225,-111.111111111111,4,2,7,5,0,0
54307,-111.111111111111,4,2,7,60,0,0
54474,-111.111111111111,4,2,7,5,0,0
54558,-111.111111111111,4,2,7,5,0,0
54641,-111.111111111111,4,2,7,60,0,0
55141,-111.111111111111,4,2,7,5,0,0
55225,-111.111111111111,4,2,7,5,0,0
55307,-111.111111111111,4,2,7,60,0,0
56807,-111.111111111111,4,2,7,60,0,0
56891,-111.111111111111,4,2,7,60,0,0
57141,-111.111111111111,4,2,7,5,0,0
57225,-111.111111111111,4,2,7,5,0,0
57307,-111.111111111111,4,2,7,60,0,0
57474,-111.111111111111,4,2,7,5,0,0
57558,-111.111111111111,4,2,7,5,0,0
57641,-111.111111111111,4,2,7,60,0,0
57807,-111.111111111111,4,2,7,5,0,0
57891,-111.111111111111,4,2,7,5,0,0
57974,-111.111111111111,4,2,7,60,0,0
58141,-111.111111111111,4,2,7,5,0,0
58225,-111.111111111111,4,2,7,5,0,0
58307,-111.111111111111,4,2,7,60,0,0
58474,-111.111111111111,4,2,7,5,0,0
58558,-111.111111111111,4,2,7,5,0,0
58641,-111.111111111111,4,2,7,60,0,0
58807,-111.111111111111,4,2,7,5,0,0
58891,-111.111111111111,4,2,7,5,0,0
58974,-111.111111111111,4,2,7,60,0,0
59141,-111.111111111111,4,2,7,5,0,0
59307,-111.111111111111,4,2,7,60,0,0
59474,-111.111111111111,4,2,7,5,0,0
59558,-111.111111111111,4,2,7,5,0,0
59641,-111.111111111111,4,2,7,60,0,0
59807,-111.111111111111,4,2,7,5,0,0
59891,-111.111111111111,4,2,7,5,0,0
59974,-111.111111111111,4,2,7,60,0,0
60474,-111.111111111111,4,2,7,60,0,0
60558,-111.111111111111,4,2,7,60,0,0
61474,-111.111111111111,4,2,7,5,0,0
61558,-111.111111111111,4,2,7,5,0,0
61641,-111.111111111111,4,2,7,60,0,0
61807,-111.111111111111,4,2,7,5,0,0
61974,-111.111111111111,4,2,7,60,0,0
62141,-111.111111111111,4,2,7,5,0,0
62225,-111.111111111111,4,2,7,5,0,0
62307,-111.111111111111,4,2,7,60,0,0
62474,-111.111111111111,4,2,7,5,0,0
62558,-111.111111111111,4,2,7,5,0,0
62641,-111.111111111111,4,2,7,60,0,0
62807,-111.111111111111,4,2,7,60,0,0
62891,-111.111111111111,4,2,7,5,0,0
62974,-111.111111111111,4,2,7,60,0,0
63474,-111.111111111111,4,2,7,60,0,0
63558,-111.111111111111,4,2,7,5,0,0
63641,-111.111111111111,4,2,7,60,0,0
63807,-111.111111111111,4,2,7,60,0,0
63891,-111.111111111111,4,2,7,60,0,0
64224,-111.111111111111,4,2,7,60,0,0
64308,-111.111111111111,4,2,7,60,0,0
64474,-111.111111111111,4,2,7,60,0,0
64558,-111.111111111111,4,2,7,60,0,0
64891,-111.111111111111,4,2,7,60,0,0
64974,-111.111111111111,4,2,7,65,0,0
65307,-111.111111111111,4,2,7,70,0,0
65641,-111.111111111111,4,2,7,75,0,0
65974,-111.111111111111,4,2,7,80,0,0
66474,-111.111111111111,4,2,7,80,0,0
66557,-111.111111111111,4,2,7,60,0,0
66641,-111.111111111111,4,2,7,60,0,0
66724,-111.111111111111,4,2,7,60,0,0
66807,-111.111111111111,4,2,7,60,0,0
68391,-111.111111111111,4,2,7,60,0,0
68474,-111.111111111111,4,2,7,60,0,0
69391,-111.111111111111,4,2,7,60,0,0
69474,-111.111111111111,4,2,7,60,0,0
70391,-111.111111111111,4,2,7,60,0,0
70474,-111.111111111111,4,2,7,60,0,0
71016,-111.111111111111,4,2,7,60,0,0
71307,-111.111111111111,4,2,7,45,0,0
71974,-111.111111111111,4,2,7,60,0,0
72057,-111.111111111111,4,2,7,60,0,0
72140,-111.111111111111,4,2,7,60,0,0
73057,-111.111111111111,4,2,7,60,0,0
73307,-111.111111111111,4,2,7,60,0,0
73724,-111.111111111111,4,2,7,60,0,0
73807,-111.111111111111,4,2,7,60,0,0
74307,-111.111111111111,4,2,7,60,0,0
74390,-111.111111111111,4,2,7,60,0,0
74724,-111.111111111111,4,2,7,60,0,0
74807,-111.111111111111,4,2,7,60,0,0
75057,-111.111111111111,4,2,7,60,0,0
75307,-111.111111111111,4,2,7,60,0,0
75724,-111.111111111111,4,2,7,20,0,0
76307,-111.111111111111,4,2,7,60,0,0
76391,-111.111111111111,4,2,7,60,0,0
76473,-111.111111111111,4,2,7,25,0,0
76641,-111.111111111111,4,2,7,60,0,0
76724,-111.111111111111,4,2,7,60,0,0
76807,-111.111111111111,4,2,7,30,0,0
76974,-111.111111111111,4,2,7,60,0,0
77057,-111.111111111111,4,2,7,60,0,0
77224,-111.111111111111,4,2,7,35,0,0
77307,-111.111111111111,4,2,7,60,0,0
77391,-111.111111111111,4,2,7,60,0,0
77474,-111.111111111111,4,2,7,60,0,0
77640,-111.111111111111,4,2,7,40,0,0
77807,-111.111111111111,4,2,7,40,0,0
77890,-111.111111111111,4,2,7,40,0,0
77973,-111.111111111111,4,2,7,60,0,0
78141,-111.111111111111,4,2,7,60,0,0
78224,-111.111111111111,4,2,7,60,0,0
78807,-111.111111111111,4,2,7,60,0,0
78890,-111.111111111111,4,2,7,60,0,0
79141,-111.111111111111,4,2,7,5,0,0
79224,-111.111111111111,4,2,7,5,0,0
79306,-111.111111111111,4,2,7,60,0,0
79641,-111.111111111111,4,2,7,60,0,0
79724,-111.111111111111,4,2,7,60,0,0
79807,-111.111111111111,4,2,7,5,0,0
79891,-111.111111111111,4,2,7,60,0,0
80141,-111.111111111111,4,2,7,60,0,0
80224,-111.111111111111,4,2,7,5,0,0
80307,-111.111111111111,4,2,7,60,0,0
80474,-111.111111111111,4,2,7,60,0,0
80557,-111.111111111111,4,2,7,60,0,0
80807,-111.111111111111,4,2,7,60,0,0
80890,-111.111111111111,4,2,7,60,0,0
81141,-111.111111111111,4,2,7,60,0,0
81224,-111.111111111111,4,2,7,60,0,0
82807,-111.111111111111,4,2,7,60,0,0
82890,-111.111111111111,4,2,7,60,0,0
83141,-111.111111111111,4,2,7,5,0,0
83307,-111.111111111111,4,2,7,60,0,0
83391,-111.111111111111,4,2,7,60,0,0
83474,-111.111111111111,4,2,7,60,0,0
83807,-111.111111111111,4,2,7,5,0,0
83890,-111.111111111111,4,2,7,5,0,0
83974,-111.111111111111,4,2,7,60,0,0
84474,-111.111111111111,4,2,7,5,0,0
84557,-111.111111111111,4,2,7,5,0,0
84641,-111.111111111111,4,2,7,60,0,0
84724,-111.111111111111,4,2,7,60,0,0
84807,-111.111111111111,4,2,7,60,0,0
85141,-111.111111111111,4,2,7,5,0,0
85307,-111.111111111111,4,2,7,60,0,0
85474,-111.111111111111,4,2,7,60,0,0
85557,-111.111111111111,4,2,7,5,0,0
85641,-111.111111111111,4,2,7,60,0,0
86391,-111.111111111111,4,2,7,60,0,0
87807,-111.111111111111,4,2,7,60,0,0
87974,-105.263157894737,4,2,7,60,0,0
88641,-105.263157894737,4,2,7,60,0,0
88807,-105.263157894737,4,2,7,5,0,0
88891,-105.263157894737,4,2,7,60,0,0
89724,-105.263157894737,4,2,7,5,0,0
89808,-105.263157894737,4,2,7,5,0,0
89974,-105.263157894737,4,2,7,60,0,0
90141,-105.263157894737,4,2,7,60,0,0
90225,-105.263157894737,4,2,7,60,0,0
90724,-105.263157894737,4,2,7,5,0,0
90808,-105.263157894737,4,2,7,5,0,0
90974,-105.263157894737,4,2,7,60,0,0
91141,-105.263157894737,4,2,7,60,0,0
91225,-105.263157894737,4,2,7,60,0,0
91724,-105.263157894737,4,2,7,60,0,0
91808,-105.263157894737,4,2,7,60,0,0
92474,-105.263157894737,4,2,7,60,0,0
92558,-105.263157894737,4,2,7,60,0,0
92891,-105.263157894737,4,2,7,60,0,0
92975,-105.263157894737,4,2,7,60,0,0
93141,-105.263157894737,4,2,7,60,0,0
93225,-105.263157894737,4,2,7,60,0,0
93391,-105.263157894737,4,2,7,5,0,0
93475,-105.263157894737,4,2,7,5,0,0
93641,-105.263157894737,4,2,7,60,0,0
94807,-105.263157894737,4,2,7,60,0,0
94891,-105.263157894737,4,2,7,60,0,0
95224,-105.263157894737,4,2,7,60,0,0
95308,-105.263157894737,4,2,7,60,0,0
96057,-105.263157894737,4,2,7,5,0,0
96141,-105.263157894737,4,2,7,5,0,0
96307,-105.263157894737,4,2,7,60,0,0
97224,-105.263157894737,4,2,7,60,0,0
97308,-105.263157894737,4,2,7,60,0,0
97891,-105.263157894737,4,2,7,5,0,0
97974,-105.263157894737,4,2,7,60,0,0
98141,-105.263157894737,4,2,7,5,0,0
98225,-105.263157894737,4,2,7,5,0,0
98307,-105.263157894737,4,2,7,60,0,0
98474,-105.263157894737,4,2,7,5,0,0
98558,-105.263157894737,4,2,7,5,0,0
98641,-105.263157894737,4,2,7,60,0,0
98724,-105.263157894737,4,2,7,5,0,0
98808,-105.263157894737,4,2,7,5,0,0
98974,-105.263157894737,4,2,7,60,0,0
99474,-105.263157894737,4,2,7,60,0,0
99558,-105.263157894737,4,2,7,60,0,0
100141,-105.263157894737,4,2,7,60,0,0
100225,-105.263157894737,4,2,7,60,0,0
100391,-105.263157894737,4,2,7,5,0,0
100475,-105.263157894737,4,2,7,5,0,0
100640,-105.263157894737,4,2,7,60,0,0
101391,-105.263157894737,4,2,7,60,0,0
101475,-105.263157894737,4,2,7,60,0,0
102557,-105.263157894737,4,2,7,60,0,0
102641,-105.263157894737,4,2,7,60,0,0
104224,-105.263157894737,4,2,7,60,0,0
104308,-105.263157894737,4,2,7,60,0,0
104807,-105.263157894737,4,2,7,60,0,0
104891,-105.263157894737,4,2,7,60,0,0
105224,-105.263157894737,4,2,7,60,0,0
105308,-105.263157894737,4,2,7,60,0,0
105807,-105.263157894737,4,2,7,60,0,0
105891,-105.263157894737,4,2,7,60,0,0
106724,-105.263157894737,4,2,7,60,0,0
106808,-105.263157894737,4,2,7,60,0,0
107891,-105.263157894737,4,2,7,60,0,0
107975,-105.263157894737,4,2,7,60,0,0
108641,-105.263157894737,4,2,7,85,0,0
108807,-105.263157894737,4,2,7,85,0,0
108891,-105.263157894737,4,2,7,85,0,0
109141,-105.263157894737,4,2,7,85,0,0
109225,-105.263157894737,4,2,7,85,0,0
109307,-105.263157894737,4,2,7,60,0,0
109474,-105.263157894737,4,2,7,5,0,0
109557,-105.263157894737,4,2,7,5,0,0
109641,-105.263157894737,4,2,7,60,0,0
109807,-105.263157894737,4,2,7,5,0,0
109891,-105.263157894737,4,2,7,5,0,0
109974,-105.263157894737,4,2,7,60,0,0
110141,-105.263157894737,4,2,7,5,0,0
110225,-105.263157894737,4,2,7,5,0,0
110307,-105.263157894737,4,2,7,60,0,0
110474,-105.263157894737,4,2,7,5,0,0
110558,-105.263157894737,4,2,7,5,0,0
110641,-105.263157894737,4,2,7,60,0,0
110807,-105.263157894737,4,2,7,5,0,0
110974,-105.263157894737,4,2,7,60,0,0
111141,-105.263157894737,4,2,7,5,0,0
111224,-105.263157894737,4,2,7,5,0,0
111308,-105.263157894737,4,2,7,60,0,0
111474,-105.263157894737,4,2,7,5,0,0
111558,-105.263157894737,4,2,7,5,0,0
111641,-105.263157894737,4,2,7,60,0,0
111807,-105.263157894737,4,2,7,5,0,0
111891,-105.263157894737,4,2,7,5,0,0
111974,-105.263157894737,4,2,7,60,0,0
112224,-105.263157894737,4,2,7,60,0,0
112308,-105.263157894737,4,2,7,60,0,0
112474,-105.263157894737,4,2,7,5,0,0
112641,-105.263157894737,4,2,7,60,0,0
112807,-105.263157894737,4,2,7,5,0,0
112891,-105.263157894737,4,2,7,5,0,0
112974,-105.263157894737,4,2,7,60,0,0
113224,-105.263157894737,4,2,7,60,0,0
113308,-105.263157894737,4,2,7,60,0,0
113474,-105.263157894737,4,2,7,5,0,0
113558,-105.263157894737,4,2,7,5,0,0
113641,-105.263157894737,4,2,7,60,0,0
113807,-105.263157894737,4,2,7,5,0,0
113891,-105.263157894737,4,2,7,5,0,0
113974,-105.263157894737,4,2,7,60,0,0
114141,-105.263157894737,4,2,7,60,0,0
114225,-105.263157894737,4,2,7,60,0,0
114807,-105.263157894737,4,2,7,5,0,0
114891,-105.263157894737,4,2,7,5,0,0
114975,-105.263157894737,4,2,7,60,0,0
115141,-105.263157894737,4,2,7,5,0,0
115225,-105.263157894737,4,2,7,5,0,0
115307,-105.263157894737,4,2,7,60,0,0
115474,-105.263157894737,4,2,7,5,0,0
115558,-105.263157894737,4,2,7,5,0,0
115641,-105.263157894737,4,2,7,60,0,0
115807,-105.263157894737,4,2,7,5,0,0
115891,-105.263157894737,4,2,7,5,0,0
115975,-105.263157894737,4,2,7,60,0,0
116141,-105.263157894737,4,2,7,5,0,0
116307,-105.263157894737,4,2,7,60,0,0
116474,-105.263157894737,4,2,7,5,0,0
116558,-105.263157894737,4,2,7,5,0,0
116641,-105.263157894737,4,2,7,60,0,0
116807,-105.263157894737,4,2,7,5,0,0
116891,-105.263157894737,4,2,7,5,0,0
116974,-105.263157894737,4,2,7,60,0,0
117141,-105.263157894737,4,2,7,5,0,0
117225,-105.263157894737,4,2,7,5,0,0
117307,-105.263157894737,4,2,7,60,0,0
117557,-105.263157894737,4,2,7,60,0,0
117641,-105.263157894737,4,2,7,60,0,0
117807,-105.263157894737,4,2,7,5,0,0
117974,-105.263157894737,4,2,7,60,0,0
118141,-105.263157894737,4,2,7,5,0,0
118225,-105.263157894737,4,2,7,5,0,0
118307,-105.263157894737,4,2,7,60,0,0
118474,-105.263157894737,4,2,7,5,0,0
118558,-105.263157894737,4,2,7,5,0,0
118641,-105.263157894737,4,2,7,60,0,0
118807,-105.263157894737,4,2,7,5,0,0
118974,-105.263157894737,4,2,7,60,0,0
119141,-105.263157894737,4,2,7,5,0,0
119225,-105.263157894737,4,2,7,5,0,0
119307,-105.263157894737,4,2,7,60,0,0
119474,-105.263157894737,4,2,7,5,0,0
119557,-105.263157894737,4,2,7,5,0,0
119641,-105.263157894737,4,2,7,60,0,0
119807,-105.263157894737,4,2,7,5,0,0
119891,-105.263157894737,4,2,7,5,0,0
119974,-105.263157894737,4,2,7,60,0,0
120224,-105.263157894737,4,2,7,60,0,0
120308,-105.263157894737,4,2,7,60,0,0
120474,-105.263157894737,4,2,7,5,0,0
120641,-105.263157894737,4,2,7,60,0,0
120807,-105.263157894737,4,2,7,60,0,0
120891,-105.263157894737,4,2,7,60,0,0
121141,-105.263157894737,4,2,7,5,0,0
121225,-105.263157894737,4,2,7,5,0,0
121307,-105.263157894737,4,2,7,60,0,0
121474,-105.263157894737,4,2,7,5,0,0
121558,-105.263157894737,4,2,7,5,0,0
121641,-105.263157894737,4,2,7,60,0,0
121807,-105.263157894737,4,2,7,5,0,0
121891,-105.263157894737,4,2,7,5,0,0
121975,-105.263157894737,4,2,7,60,0,0
122141,-105.263157894737,4,2,7,5,0,0
122225,-105.263157894737,4,2,7,5,0,0
122307,-105.263157894737,4,2,7,60,0,0
122474,-105.263157894737,4,2,7,5,0,0
122558,-105.263157894737,4,2,7,5,0,0
122641,-105.263157894737,4,2,7,60,0,0
122807,-105.263157894737,4,2,7,5,0,0
122891,-105.263157894737,4,2,7,5,0,0
122975,-105.263157894737,4,2,7,60,0,0
123141,-105.263157894737,4,2,7,5,0,0
123225,-105.263157894737,4,2,7,5,0,0
123307,-105.263157894737,4,2,7,60,0,0
123474,-105.263157894737,4,2,7,5,0,0
123558,-105.263157894737,4,2,7,5,0,0
123641,-105.263157894737,4,2,7,60,0,0
123891,-105.263157894737,4,2,7,60,0,0
123975,-105.263157894737,4,2,7,60,0,0
124141,-105.263157894737,4,2,7,60,0,0
124225,-105.263157894737,4,2,7,60,0,0
124474,-105.263157894737,4,2,7,5,0,0
124558,-105.263157894737,4,2,7,5,0,0
124641,-105.263157894737,4,2,7,60,0,0
124807,-105.263157894737,4,2,7,60,0,0
124891,-105.263157894737,4,2,7,60,0,0
125557,-105.263157894737,4,2,7,60,0,0
125641,-105.263157894737,4,2,7,60,0,0
126141,-105.263157894737,4,2,7,60,0,0
126225,-105.263157894737,4,2,7,60,0,0
126474,-105.263157894737,4,2,7,60,0,0
126558,-105.263157894737,4,2,7,60,0,0
126807,-105.263157894737,4,2,7,60,0,0
126891,-105.263157894737,4,2,7,60,0,0
127141,-105.263157894737,4,2,7,60,0,0
127225,-105.263157894737,4,2,7,60,0,0
127474,-105.263157894737,4,2,7,60,0,0
127558,-105.263157894737,4,2,7,60,0,0
127974,-105.263157894737,4,2,7,70,0,0
128140,-105.263157894737,4,2,7,5,0,0
128224,-105.263157894737,4,2,7,5,0,0
128308,-105.263157894737,4,2,7,70,0,0
128474,-105.263157894737,4,2,7,5,0,0
128558,-105.263157894737,4,2,7,5,0,0
128641,-105.263157894737,4,2,7,70,0,0
128807,-105.263157894737,4,2,7,60,0,0
128891,-105.263157894737,4,2,7,60,0,0
128974,-105.263157894737,4,2,7,75,0,0
129141,-105.263157894737,4,2,7,5,0,0
129307,-105.263157894737,4,2,7,80,0,0
129474,-105.263157894737,4,2,7,5,0,0
129641,-105.263157894737,4,2,7,85,0,0
129807,-105.263157894737,4,2,7,5,0,0
129974,-105.263157894737,4,2,7,90,0,0
130641,-80,4,2,7,90,0,1
130807,-80,4,2,7,5,0,1
130891,-80,4,2,7,5,0,1
130974,-80,4,2,7,90,0,1
131474,-80,4,2,7,5,0,1
131557,-80,4,2,7,5,0,1
131641,-80,4,2,7,90,0,1
131807,-80,4,2,7,90,0,1
131891,-80,4,2,7,90,0,1
132141,-80,4,2,7,90,0,1
132225,-80,4,2,7,90,0,1
132474,-80,4,2,7,5,0,1
132557,-80,4,2,7,5,0,1
132641,-80,4,2,7,90,0,1
132807,-80,4,2,7,5,0,1
132891,-80,4,2,7,5,0,1
132974,-80,4,2,7,75,0,1
133307,-80,4,2,7,90,0,1
133474,-80,4,2,7,90,0,1
133558,-80,4,2,7,90,0,1
133641,-80,4,2,7,75,0,1
133974,-80,4,2,7,90,0,1
134141,-80,4,2,7,5,0,1
134225,-80,4,2,7,5,0,1
134307,-80,4,2,7,75,0,1
134640,-80,4,2,7,90,0,1
134807,-80,4,2,7,5,0,1
134891,-80,4,2,7,5,0,1
134974,-80,4,2,7,90,0,1
135224,-80,4,2,7,90,0,1
135308,-80,4,2,7,90,0,1
135474,-80,4,2,7,5,0,1
135558,-80,4,2,7,5,0,1
135641,-80,4,2,7,90,0,1
135807,-80,4,2,7,5,0,1
135891,-80,4,2,7,5,0,1
135974,-80,4,2,7,90,0,1
136307,-80,4,2,7,75,0,1
136640,-80,4,2,7,90,0,1
136807,-80,4,2,7,5,0,1
136891,-80,4,2,7,5,0,1
136974,-80,4,2,7,75,0,1
137141,-80,4,2,7,5,0,1
137307,-80,4,2,7,90,0,1
137474,-80,4,2,7,5,0,1
137558,-80,4,2,7,5,0,1
137641,-80,4,2,7,90,0,1
137891,-80,4,2,7,90,0,1
137975,-80,4,2,7,90,0,1
138141,-80,4,2,7,5,0,1
138225,-80,4,2,7,5,0,1
138307,-80,4,2,7,90,0,1
138641,-80,4,2,7,90,0,1
138807,-80,4,2,7,90,0,1
138891,-80,4,2,7,90,0,1
138974,-80,4,2,7,75,0,1
139307,-80,4,2,7,90,0,1
139474,-80,4,2,7,5,0,1
139558,-80,4,2,7,5,0,1
139641,-80,4,2,7,75,0,1
139807,-80,4,2,7,5,0,1
139891,-80,4,2,7,5,0,1
139974,-80,4,2,7,90,0,1
140141,-80,4,2,7,5,0,1
140225,-80,4,2,7,5,0,1
140308,-80,4,2,7,90,0,1
141474,-80,4,2,7,5,0,1
141641,-80,4,2,7,90,0,1
142141,-80,4,2,7,5,0,1
142225,-80,4,2,7,5,0,1
142307,-80,4,2,7,90,0,1
142474,-80,4,2,7,90,0,1
142558,-80,4,2,7,90,0,1
142974,-80,4,2,7,75,0,1
143141,-80,4,2,7,5,0,1
143307,-80,4,2,7,75,0,1
143474,-80,4,2,7,5,0,1
143558,-80,4,2,7,5,0,1
143641,-80,4,2,7,75,0,1
143807,-80,4,2,7,5,0,1
143974,-80,4,2,7,90,0,1
144141,-80,4,2,7,5,0,1
144225,-80,4,2,7,5,0,1
144307,-80,4,2,7,75,0,1
144474,-80,4,2,7,5,0,1
144640,-80,4,2,7,90,0,1
144807,-80,4,2,7,5,0,1
144891,-80,4,2,7,5,0,1
144974,-80,4,2,7,75,0,1
145141,-80,4,2,7,5,0,1
145225,-80,4,2,7,5,0,1
145307,-80,4,2,7,90,0,1
145474,-80,4,2,7,5,0,1
145558,-80,4,2,7,5,0,1
145641,-80,4,2,7,90,0,1
145975,-80,4,2,7,90,0,1
146141,-80,4,2,7,5,0,1
146225,-80,4,2,7,5,0,1
146307,-80,4,2,7,90,0,1
146474,-80,4,2,7,5,0,1
146641,-80,4,2,7,90,0,1
146807,-80,4,2,7,90,0,1
146891,-80,4,2,7,90,0,1
146974,-80,4,2,7,75,0,1
147307,-80,4,2,7,90,0,1
147474,-80,4,2,7,5,0,1
147558,-80,4,2,7,5,0,1
147641,-80,4,2,7,75,0,1
147807,-80,4,2,7,5,0,1
147974,-80,4,2,7,90,0,1
148141,-80,4,2,7,5,0,1
148225,-80,4,2,7,5,0,1
148307,-80,4,2,7,90,0,1
148557,-80,4,2,7,90,0,1
148641,-80,4,2,7,90,0,1
148807,-80,4,2,7,5,0,1
148891,-80,4,2,7,5,0,1
148974,-80,4,2,7,75,0,1
149307,-80,4,2,7,90,0,1
149474,-80,4,2,7,90,0,1
149558,-80,4,2,7,5,0,1
149641,-80,4,2,7,75,0,1
149974,-80,4,2,7,90,0,1
150141,-80,4,2,7,90,0,1
150225,-80,4,2,7,90,0,1
150474,-80,4,2,7,5,0,1
150641,-80,4,2,7,90,0,1
150807,-80,4,2,7,5,0,1
150891,-80,4,2,7,5,0,1
150974,-80,4,2,7,90,0,1
151141,-80,4,2,7,5,0,1
151307,-80,4,2,7,90,0,1
151974,-90.9090909090909,4,2,7,90,0,1
152224,-90.9090909090909,4,2,7,5,0,1
152307,-90.9090909090909,4,2,7,90,0,1
152474,-90.9090909090909,4,2,7,5,0,1
152641,-90.9090909090909,4,2,7,90,0,1
152807,-90.9090909090909,4,2,7,5,0,1
152891,-90.9090909090909,4,2,7,5,0,1
152974,-90.9090909090909,4,2,7,90,0,1
153141,-90.9090909090909,4,2,7,5,0,1
153225,-90.9090909090909,4,2,7,5,0,1
153308,-90.9090909090909,4,2,7,90,0,1
153474,-90.9090909090909,4,2,7,5,0,1
153558,-90.9090909090909,4,2,7,5,0,1
153641,-90.9090909090909,4,2,7,90,0,1
153807,-90.9090909090909,4,2,7,5,0,1
153974,-90.9090909090909,4,2,7,90,0,1
154141,-90.9090909090909,4,2,7,90,0,1
154225,-90.9090909090909,4,2,7,5,0,1
154307,-90.9090909090909,4,2,7,90,0,1
154474,-90.9090909090909,4,2,7,5,0,1
154558,-90.9090909090909,4,2,7,5,0,1
154641,-90.9090909090909,4,2,7,90,0,1
154807,-90.9090909090909,4,2,7,5,0,1
154891,-90.9090909090909,4,2,7,5,0,1
154974,-90.9090909090909,4,2,7,90,0,1
155141,-90.9090909090909,4,2,7,90,0,1
155225,-90.9090909090909,4,2,7,90,0,1
155474,-90.9090909090909,4,2,7,5,0,1
155557,-90.9090909090909,4,2,7,5,0,1
155641,-90.9090909090909,4,2,7,90,0,1
155807,-90.9090909090909,4,2,7,5,0,1
155891,-90.9090909090909,4,2,7,5,0,1
155974,-90.9090909090909,4,2,7,90,0,1
156141,-90.9090909090909,4,2,7,5,0,1
156307,-90.9090909090909,4,2,7,90,0,1
156807,-90.9090909090909,4,2,7,90,0,1
156891,-90.9090909090909,4,2,7,90,0,1
157807,-90.9090909090909,4,2,7,5,0,1
157970,-90.9090909090909,4,2,7,90,0,1
158141,-90.9090909090909,4,2,7,5,0,1
158225,-90.9090909090909,4,2,7,5,0,1
158307,-90.9090909090909,4,2,7,90,0,1
158474,-90.9090909090909,4,2,7,5,0,1
158558,-90.9090909090909,4,2,7,5,0,1
158641,-90.9090909090909,4,2,7,90,0,1
158807,-90.9090909090909,4,2,7,5,0,1
158891,-90.9090909090909,4,2,7,5,0,1
158974,-90.9090909090909,4,2,7,90,0,1
159141,-90.9090909090909,4,2,7,5,0,1
159307,-90.9090909090909,4,2,7,90,0,1
159474,-90.9090909090909,4,2,7,90,0,1
159558,-90.9090909090909,4,2,7,5,0,1
159641,-90.9090909090909,4,2,7,90,0,1
159807,-90.9090909090909,4,2,7,5,0,1
159891,-90.9090909090909,4,2,7,5,0,1
159974,-90.9090909090909,4,2,7,90,0,1
160141,-90.9090909090909,4,2,7,90,0,1
160225,-90.9090909090909,4,2,7,90,0,1
160474,-90.9090909090909,4,2,7,90,0,1
160558,-90.9090909090909,4,2,7,90,0,1
160891,-90.9090909090909,4,2,7,90,0,1
160975,-90.9090909090909,4,2,7,90,0,1
161141,-90.9090909090909,4,2,7,90,0,1
161225,-90.9090909090909,4,2,7,90,0,1
163141,-90.9090909090909,4,2,7,5,0,1
163307,-90.9090909090909,4,2,7,90,0,1
163474,-90.9090909090909,4,2,7,5,0,1
163558,-90.9090909090909,4,2,7,5,0,1
163641,-90.9090909090909,4,2,7,90,0,1
163807,-90.9090909090909,4,2,7,5,0,1
163891,-90.9090909090909,4,2,7,5,0,1
163974,-90.9090909090909,4,2,7,90,0,1
164141,-90.9090909090909,4,2,7,5,0,1
164225,-90.9090909090909,4,2,7,5,0,1
164307,-90.9090909090909,4,2,7,90,0,1
164474,-90.9090909090909,4,2,7,5,0,1
164641,-90.9090909090909,4,2,7,90,0,1
164807,-90.9090909090909,4,2,7,90,0,1
164891,-90.9090909090909,4,2,7,5,0,1
164974,-90.9090909090909,4,2,7,90,0,1
165141,-90.9090909090909,4,2,7,5,0,1
165225,-90.9090909090909,4,2,7,5,0,1
165307,-90.9090909090909,4,2,7,90,0,1
165474,-90.9090909090909,4,2,7,5,0,1
165558,-90.9090909090909,4,2,7,5,0,1
165641,-90.9090909090909,4,2,7,90,0,1
165807,-90.9090909090909,4,2,7,90,0,1
165891,-90.9090909090909,4,2,7,90,0,1
166141,-90.9090909090909,4,2,7,5,0,1
166224,-90.9090909090909,4,2,7,5,0,1
166308,-90.9090909090909,4,2,7,90,0,1
166474,-90.9090909090909,4,2,7,5,0,1
166558,-90.9090909090909,4,2,7,5,0,1
166641,-90.9090909090909,4,2,7,90,0,1
166807,-90.9090909090909,4,2,7,5,0,1
166974,-90.9090909090909,4,2,7,90,0,1
167474,-90.9090909090909,4,2,7,90,0,1
167558,-90.9090909090909,4,2,7,90,0,1
167974,-100,4,2,7,90,0,1
168474,-100,4,2,7,5,0,1
168558,-100,4,2,7,5,0,1
168641,-100,4,2,7,90,0,1
168807,-100,4,2,7,5,0,1
168891,-100,4,2,7,5,0,1
168975,-100,4,2,7,90,0,1
169141,-100,4,2,7,5,0,1
169225,-100,4,2,7,5,0,1
169307,-100,4,2,7,90,0,1
169474,-100,4,2,7,90,0,1
169558,-100,4,2,7,90,0,1
169807,-100,4,2,7,5,0,1
169891,-100,4,2,7,5,0,1
169974,-100,4,2,7,90,0,1
170141,-100,4,2,7,5,0,1
170224,-100,4,2,7,5,0,1
170308,-100,4,2,7,90,0,1
170474,-100,4,2,7,5,0,1
170558,-100,4,2,7,5,0,1
170641,-100,4,2,7,90,0,1
170807,-100,4,2,7,90,0,1
170891,-100,4,2,7,90,0,1
171141,-100,4,2,7,5,0,1
171225,-100,4,2,7,5,0,1
171308,-100,4,2,7,90,0,1
171474,-100,4,2,7,5,0,1
171557,-100,4,2,7,5,0,1
171641,-100,4,2,7,90,0,1
171724,-100,4,2,7,20,0,1
173307,-100,4,2,7,70,0,0

[Colours]
Combo1 : 222,118,120
Combo2 : 159,139,201
Combo3 : 198,142,173
Combo4 : 133,133,207

[HitObjects]
174,146,13307,6,0,B|193:136|213:138|213:138|232:103|222:64|184:44,1,134.999989442826,4|0,3:2|0:1,0:0:0:0:
184,42,13974,1,8,0:0:0:0:
75,115,14307,2,0,P|91:159|91:209,1,89.9999929618838,2|0,3:2|0:0,0:0:0:0:
36,273,14974,1,2,3:2:0:0:
177,239,15307,1,0,0:0:0:0:
201,157,15641,1,2,0:1:0:0:
182,244,15974,5,2,3:2:0:0:
167,327,16307,2,0,L|121:334,2,44.9999964809419,0|0|8,0:0|0:0|0:0,0:0:0:0:
252,299,16974,2,0,B|289:282|319:309|304:316|333:341|376:329,1,134.999989442826,2|0,3:2|0:0,0:0:0:0:
394,321,17641,1,2,3:2:0:0:
495,269,17974,2,0,P|482:312|483:357,1,89.9999929618838,8|2,0:0|3:2,0:0:0:0:
369,226,18641,5,4,3:1:0:0:
468,174,18974,2,0,L|516:181,2,44.9999964809419,0|0|8,0:0|0:0|0:0,0:0:0:0:
360,229,19641,1,2,3:2:0:0:
278,144,19974,1,0,0:0:0:0:
331,36,20308,1,2,3:2:0:0:
453,58,20641,1,8,0:0:0:0:
468,174,20974,1,0,0:0:0:0:
360,229,21307,5,2,3:2:0:0:
256,192,21474,12,0,22641,3:0:0:0:
19,296,23307,5,2,0:1:0:0:
19,296,23974,5,4,3:2:0:0:
87,223,24307,2,0,L|131:229,2,44.9999964809419,0|0|8,0:0|0:0|0:1,0:0:0:0:
217,240,24974,2,0,L|223:284,2,44.9999964809419,0|0|0,0:0|0:0|3:0,0:0:0:0:
311,291,25641,2,0,L|355:297,2,44.9999964809419,0|0|8,2:0|0:0|0:1,0:0:0:0:
440,309,26307,1,0,0:0:0:0:
505,248,26641,6,0,P|515:198|483:153,1,89.9999929618838,0|0,3:2|0:0,0:0:0:0:
411,66,27307,2,0,P|456:75|499:80,1,89.9999929618838,8|0,0:1|0:0,0:0:0:0:
421,217,27974,1,0,3:0:0:0:
358,144,28307,1,0,0:0:0:0:
267,184,28641,2,0,P|261:139|252:95,1,89.9999929618838,8|0,0:1|0:0,0:0:0:0:
153,33,29307,5,0,3:2:0:0:
93,120,29641,2,0,L|43:115,2,44.9999964809419,0|0|8,0:0|0:0|0:1,0:0:0:0:
82,200,30307,2,0,L|37:195,2,44.9999964809419,0|0|0,0:0|0:0|3:0,0:0:0:0:
3,269,30974,1,0,3:0:0:0:
164,171,31307,2,0,P|197:209|184:253,1,89.9999929618838,8|0,0:1|0:0,0:0:0:0:
60,335,31974,6,0,P|105:324|156:317,1,89.9999929618838,0|0,3:2|0:0,0:0:0:0:
264,361,32641,2,0,P|270:312|278:261,1,89.9999929618838,8|0,0:1|3:0,0:0:0:0:
396,329,33307,1,0,0:0:0:0:
446,208,33641,1,2,3:1:0:0:
407,230,33807,1,2,0:1:0:0:
362,224,33974,2,0,P|356:175|348:124,1,89.9999929618838,10|2,0:1|0:1,0:0:0:0:
459,78,34640,5,4,3:1:0:0:
359,29,34974,2,0,L|309:24,2,44.9999964809419,0|0|8,0:0|0:0|0:1,0:0:0:0:
221,114,35641,2,0,L|265:109,2,44.9999964809419,0|0|0,0:0|0:0|3:0,0:0:0:0:
144,53,36307,1,0,0:0:0:0:
66,181,36641,2,0,P|64:135|52:81,1,89.9999929618838,8|0,0:1|0:0,0:0:0:0:
0,248,37307,5,0,3:2:0:0:
157,204,37641,1,0,0:0:0:0:
182,291,37974,1,8,0:1:0:0:
23,334,38307,1,0,0:0:0:0:
185,298,38641,2,0,P|236:303|302:314,1,89.9999929618838,0|0,3:0|0:0,0:0:0:0:
390,280,39307,2,0,P|394:324|401:369,1,89.9999929618838,8|0,0:1|0:0,0:0:0:0:
274,308,39974,6,0,P|350:271|325:180,1,179.999985923768,0|8,3:2|0:1,0:0:0:0:
336,188,41307,1,2,3:2:0:0:
150,149,41641,1,2,3:2:0:0:
87,221,41974,1,10,0:1:0:0:
243,168,42307,1,2,0:0:0:0:
336,188,42641,6,0,P|337:142|348:98,1,89.9999929618838,0|0,3:3|0:0,0:0:0:0:
216,27,43307,2,0,L|223:71,1,44.9999964809419,8|0,0:1|0:0,0:0:0:0:
254,95,43641,2,0,L|247:139,1,44.9999964809419,0|0,3:0|0:0,0:0:0:0:
243,168,43974,2,0,P|194:172|144:182,1,89.9999929618838
32,271,44641,5,8,0:1:0:0:
72,132,44974,1,0,0:0:0:0:
20,283,45307,6,0,P|74:272|127:269,1,89.9999929618838,0|0,3:0|3:0,0:0:0:0:
245,298,45974,1,0,1:0:0:0:
167,206,46307,2,0,P|155:272|148:339,1,134.999989442826,0|0,3:0|0:0,0:0:0:0:
146,359,46974,2,0,P|121:360|100:365,2,44.9999964809419,2|0|2,3:1|0:0|1:1,0:0:0:0:
245,298,47641,1,2,0:1:0:0:
338,382,47974,6,0,P|390:344|378:277,1,134.999989442826,2|0,3:1|0:0,0:0:0:0:
367,268,48641,1,0,1:1:0:0:
245,298,48974,2,0,P|176:248|192:159,1,179.999985923768,0|0,3:0|3:0,0:0:0:0:
62,187,49974,1,0,1:0:0:0:
150,28,50307,1,0,3:0:0:0:
124,63,50473,1,0,0:0:0:0:
133,107,50640,6,0,P|182:113|233:121,1,89.9999929618838,0|2,3:0|0:1,0:0:0:0:
370,67,51307,2,0,P|388:107|378:150,1,89.9999929618838,2|2,1:1|3:1,0:0:0:0:
260,301,51974,2,0,P|255:256|248:212,1,89.9999929618838,2|0,0:1|3:1,0:0:0:0:
182,349,52641,1,0,1:1:0:0:
348,259,52974,1,0,0:1:0:0:
409,331,53307,6,0,B|434:334|452:351|452:351|499:283|444:234,1,179.999985923768,0|0,3:3|1:0,0:0:0:0:
512,130,54307,2,0,P|424:152|332:155,1,179.999985923768,0|0,3:0|3:0,0:0:0:0:
348,259,55307,5,2,1:1:0:0:
253,118,55641,1,2,3:1:0:0:
222,292,55974,6,0,P|177:296|139:274,1,89.9999929618838,4|0,3:1|0:0,0:0:0:0:
38,253,56641,2,0,B|95:272|135:233|110:219|150:183|209:206,1,179.999985923768,0|0,1:0|0:1,0:0:0:0:
253,118,57641,1,0,3:0:0:0:
220,34,57974,1,0,1:1:0:0:
285,201,58307,1,0,0:0:0:0:
222,292,58641,6,0,P|177:297|133:306,1,89.9999929618838,2|2,3:1|0:1,0:0:0:0:
8,231,59307,1,0,1:0:0:0:
55,342,59641,2,0,P|42:260|123:223,1,179.999985923768,2|0,3:1|0:0,0:0:0:0:
222,292,60641,1,0,1:0:0:0:
279,166,60974,2,0,L|285:122,1,44.9999964809419,0|0,3:0|0:0,0:0:0:0:
293,72,61307,6,0,P|248:91|195:79,1,89.9999929618838,0|2,3:0|0:1,0:0:0:0:
361,210,61974,2,0,P|399:239|416:291,1,89.9999929618838,2|2,1:1|3:1,0:0:0:0:
447,83,62641,2,0,P|453:34|489:-5,2,89.9999929618838,2|0|0,0:1|3:0|1:0,0:0:0:0:
499,160,63641,1,0,0:0:0:0:
445,232,63974,5,0,3:1:0:0:
361,210,64307,1,0,3:0:0:0:
316,39,64641,5,0,3:3:0:0:
339,123,64975,1,0,3:0:0:0:
214,247,65308,5,0,3:3:0:0:
275,185,65641,1,0,3:3:0:0:
445,232,65974,6,0,P|450:186|461:137,2,89.9999929618838,0|0|0,1:1|0:0|3:2,0:0:0:0:
448,328,66974,5,2,0:2:0:0:
366,290,67307,1,8,0:0:0:0:
297,349,67641,1,0,0:1:0:0:
366,290,67974,1,2,0:1:0:0:
352,204,68307,2,0,L|359:154,1,44.9999964809419,0|0,3:0|0:0,0:0:0:0:
362,115,68641,1,8,0:2:0:0:
75,121,69307,5,0,3:0:0:0:
158,153,69640,1,2,0:2:0:0:
146,63,69974,1,8,0:0:0:0:
88,209,70307,2,0,P|162:202|205:252,1,134.999989442826,0|0,3:0|0:0,0:0:0:0:
206,263,70974,6,0,L|216:340,1,44.9999964809419,4|0,0:1|0:0,0:0:0:0:
215,338,71307,2,0,L|260:344,3,44.9999964809419,10|2|2|2,0:2|0:1|0:1|0:1,0:0:0:0:
297,349,71974,5,0,3:0:0:0:
448,328,72307,5,2,0:2:0:0:
366,290,72640,1,8,0:0:0:0:
297,349,72974,1,0,0:1:0:0:
366,290,73307,1,2,0:1:0:0:
352,204,73640,2,0,L|359:154,1,44.9999964809419,0|0,3:0|0:0,0:0:0:0:
362,115,73974,1,8,0:0:0:0:
85,171,74641,5,0,3:0:0:0:
173,160,74974,2,0,B|177:181|177:181|167:203,2,44.9999964809419,2|0|8,0:1|0:0|0:0,0:0:0:0:
98,259,75641,2,0,P|172:252|215:302,1,134.999989442826,0|0,3:0|0:0,0:0:0:0:
216,313,76307,2,0,P|178:340|131:328,2,89.9999929618838,0|8|2,3:3|0:0|0:1,0:0:0:0:
297,349,77307,5,4,3:2:0:0:
448,328,77641,5,2,0:0:0:0:
366,290,77974,1,8,0:0:0:0:
297,349,78308,1,0,0:1:0:0:
366,290,78641,1,2,0:1:0:0:
352,204,78974,2,0,L|359:154,1,44.9999964809419,0|0,3:0|0:0,0:0:0:0:
362,115,79308,1,12,0:1:0:0:
75,121,79974,5,0,3:0:0:0:
158,153,80307,1,2,0:1:0:0:
146,63,80641,1,8,0:0:0:0:
88,209,80974,1,0,3:0:0:0:
241,185,81307,5,0,0:0:0:0:
259,192,81474,1,0,0:0:0:0:
277,199,81641,2,0,L|264:266,2,44.9999964809419,2|0|8,0:1|0:0|0:1,0:0:0:0:
358,314,82307,1,2,0:1:0:0:
377,306,82474,1,0,0:3:0:0:
396,298,82641,6,0,P|415:243|349:195,1,134.999989442826,0|0,3:0|0:0,0:0:0:0:
364,195,83307,2,0,B|333:206|333:206|260:196,1,89.9999929618838,8|0,0:0|0:0,0:0:0:0:
156,98,83974,2,0,P|137:153|203:201,1,134.999989442826
188,201,84640,2,0,B|219:190|219:190|292:200,1,89.9999929618838,8|0,0:1|0:0,0:0:0:0:
396,298,85307,5,0,3:0:0:0:
368,172,85641,2,0,L|376:216,2,44.9999964809419,0|0|8,0:0|0:0|0:0,0:0:0:0:
345,90,86307,1,2,3:2:0:0:
396,298,87974,5,0,3:0:0:0:
412,179,88307,2,0,L|421:112,1,47.4999964666368
424,90,88641,5,8,0:0:0:0:
321,205,88974,2,0,L|279:151,1,47.4999964666368,2|2,0:3|0:3,0:0:0:0:
266,134,89308,5,0,0:0:0:0:
278,287,89641,2,0,L|211:278,1,47.4999964666368,0|0,3:0|0:0,0:0:0:0:
189,275,89975,5,8,0:0:0:0:
28,326,90307,1,2,0:0:0:0:
69,334,90473,1,2,0:0:0:0:
109,343,90641,6,0,P|103:294|95:243,1,94.9999929332736,0|2,3:0|0:1,0:0:0:0:
51,52,91307,2,0,P|19:87|29:142,1,94.9999929332736,8|2,0:0|3:3,0:0:0:0:
51,151,91807,1,2,0:3:0:0:
79,166,91974,2,0,L|181:151,1,94.9999929332736,0|2,0:0|3:3,0:0:0:0:
323,103,92641,2,0,P|316:152|309:203,1,94.9999929332736,8|0,0:0|0:0,0:0:0:0:
396,298,93307,5,4,3:1:0:0:
266,282,93641,2,0,L|199:291,1,47.4999964666368,2|2,0:1|0:1,0:0:0:0:
177,294,93975,1,0,0:0:0:0:
117,156,94307,2,0,L|184:165,1,47.4999964666368,0|2,0:0|0:3,0:0:0:0:
206,168,94641,2,0,P|238:127|226:78,1,94.9999929332736,2|0,0:3|3:0,0:0:0:0:
74,150,95307,2,0,P|86:203|90:256,1,94.9999929332736,8|2,0:2|0:1,0:0:0:0:
8,331,95974,5,0,3:0:0:0:
174,296,96307,1,2,0:1:0:0:
340,260,96641,1,10,0:1:0:0:
268,337,96974,1,0,3:1:0:0:
285,168,97307,2,0,P|273:115|269:62,2,94.9999929332736,2|0|8,0:1|0:0|0:0,0:0:0:0:
340,260,98307,1,2,0:1:0:0:
174,296,98641,5,0,3:0:0:0:
340,260,98973,2,0,L|383:312,1,47.4999964666368,2|2,0:1|0:1,0:0:0:0:
394,320,99307,5,10,0:0:0:0:
286,197,99641,2,0,L|309:133,1,47.4999964666368,0|2,0:0|0:0,0:0:0:0:
315,122,99975,5,0,0:0:0:0:
256,271,100307,2,0,L|189:282,1,47.4999964666368,2|0,3:1|0:0,0:0:0:0:
176,284,100641,5,8,0:0:0:0:
42,182,100975,1,2,0:3:0:0:
83,174,101141,1,0,0:0:0:0:
123,165,101307,6,0,B|117:116|109:65,1,94.9999929332736,0|2,3:0|0:1,0:0:0:0:
205,179,101974,2,0,P|262:179|301:224,2,94.9999929332736,8|2|2,0:0|3:1|0:3,0:0:0:0:
143,275,102974,1,2,3:1:0:0:
50,287,103307,1,8,0:0:0:0:
233,262,103641,1,2,0:1:0:0:
302,324,103974,6,0,P|272:247|372:212,1,189.999985866547,0|8,3:0|0:0,0:0:0:0:
390,341,104974,1,0,3:0:0:0:
233,262,105307,2,0,P|181:268|115:277,1,94.9999929332736,0|0,0:0|3:0,0:0:0:0:
73,213,105974,2,0,P|41:253|55:301,1,94.9999929332736,8|2,0:0|0:1,0:0:0:0:
7,156,106641,6,0,L|170:180,1,142.49998939991,0|2,3:0|0:0,0:0:0:0:
167,181,107307,2,0,L|161:131,3,47.4999964666368,8|0|0|0,0:0|0:0|3:0|0:0,0:0:0:0:
184,183,107974,2,0,L|189:234,2,47.4999964666368,0|2|0,0:3|0:3|3:0,0:0:0:0:
128,327,108641,1,8,0:0:0:0:
267,272,108974,1,0,0:0:0:0:
344,318,109307,6,0,L|411:327,1,47.4999964666368,0|0,3:0|0:0,0:0:0:0:
433,330,109641,1,2,0:0:0:0:
267,272,109974,2,0,L|258:205,1,47.4999964666368,8|0,0:2|0:0,0:0:0:0:
255,183,110308,1,2,0:0:0:0:
207,337,110641,1,2,0:1:0:0:
134,266,110974,2,0,P|80:262|40:300,2,94.9999929332736,2|8|2,3:2|0:2|0:0,0:0:0:0:
207,337,111974,6,0,B|169:316|175:277|175:277|186:199,1,142.49998939991,0|0,3:0|0:0,0:0:0:0:
190,177,112641,1,8,0:2:0:0:
36,141,112974,2,0,B|93:164|144:114|112:118|158:73|218:95,1,189.999985866547,2|2,3:2|3:1,0:0:0:0:
295,154,113974,1,8,0:2:0:0:
258,13,114307,1,2,0:2:0:0:
279,29,114474,1,2,0:0:0:0:
300,47,114641,6,0,P|293:97|292:149,1,94.9999929332736,0|2,3:0|0:2,0:0:0:0:
461,163,115307,2,0,P|419:127|366:134,1,94.9999929332736,8|2,0:2|3:2,0:0:0:0:
252,227,115974,2,0,P|308:215|360:212,1,94.9999929332736,2|2,0:1|3:2,0:0:0:0:
426,247,116641,1,8,0:2:0:0:
291,141,116974,1,2,0:2:0:0:
208,197,117307,6,0,P|205:144|184:87,1,94.9999929332736,0|0,3:0|0:0,0:0:0:0:
120,163,117974,2,0,P|76:192|27:184,1,94.9999929332736,8|2,0:2|3:2,0:0:0:0:
208,197,118641,2,0,P|256:192|296:220,1,94.9999929332736,2|2,0:1|3:2,0:0:0:0:
140,253,119307,5,8,0:2:0:0:
192,104,119641,1,2,0:2:0:0:
293,216,119974,6,0,P|343:223|382:196,1,94.9999929332736,0|0,3:0|0:0,0:0:0:0:
494,191,120641,2,0,B|437:213|396:166|427:160|382:109|316:139,1,189.999985866547,8|2,0:2|0:1,0:0:0:0:
293,216,121641,1,2,3:2:0:0:
183,93,121974,1,8,0:2:0:0:
207,237,122307,1,2,0:2:0:0:
146,311,122641,6,0,P|97:317|47:326,1,94.9999929332736,0|2,3:0|0:2,0:0:0:0:
1,221,123307,1,8,0:2:0:0:
79,264,123641,2,0,P|118:193|29:142,1,189.999985866547,2|0,3:2|0:0,0:0:0:0:
1,221,124641,1,8,0:2:0:0:
108,122,124974,2,0,L|115:55,1,47.4999964666368,2|0,0:2|0:0,0:0:0:0:
116,34,125307,1,0,3:0:0:0:
256,192,125474,12,0,127307,0:0:0:0:
32,241,127974,5,2,3:2:0:0:
134,214,128307,1,2,3:2:0:0:
188,7,128641,5,2,1:2:0:0:
160,109,128975,1,2,3:2:0:0:
312,259,129308,5,2,3:2:0:0:
237,185,129641,1,2,3:2:0:0:
35,314,129974,5,0,1:2:0:0:
57,292,130140,1,8,0:3:0:0:
86,278,130307,1,4,0:3:0:0:
117,278,130474,1,0,3:0:0:0:
147,288,130640,5,6,3:2:0:0:
237,185,130974,6,0,P|253:149|239:110,1,62.4999970197678,2|0,0:0|0:0,0:0:0:0:
175,78,131307,2,0,L|90:88,1,62.4999970197678,0|0,1:0|0:0,0:0:0:0:
57,152,131641,2,0,P|24:103|38:37,1,124.999994039536,2|2,3:2|0:0,0:0:0:0:
147,168,132307,6,0,L|137:243,1,62.4999970197678,2|0,3:2|0:0,0:0:0:0:
89,320,132640,2,0,L|151:312,1,62.4999970197678,0|0,1:0|0:0,0:0:0:0:
252,302,132974,1,2,0:1:0:0:
229,322,133141,1,2,0:1:0:0:
234,351,133307,5,2,3:2:0:0:
324,250,133641,1,2,0:1:0:0:
352,259,133808,1,2,0:1:0:0:
375,241,133974,5,2,1:2:0:0:
243,213,134307,1,2,3:1:0:0:
237,183,134474,1,2,0:1:0:0:
209,172,134641,6,0,L|139:167,1,62.4999970197678,2|0,0:2|0:0,0:0:0:0:
102,241,134974,2,0,P|41:245|0:202,2,124.999994039536,2|2|2,3:0|1:3|0:0,0:0:0:0:
185,70,135974,6,0,P|138:108|156:177,1,124.999994039536,0|2,3:0|0:1,0:0:0:0:
174,177,136474,1,2,0:1:0:0:
200,185,136641,2,0,L|267:176,1,62.4999970197678,2|0,1:2|0:0,0:0:0:0:
350,149,136974,2,0,L|340:217,1,62.4999970197678,2|2,3:1|0:1,0:0:0:0:
323,291,137307,6,0,P|370:246|444:267,2,124.999994039536,2|0|0,0:0|3:0|1:0,0:0:0:0:
188,352,138307,1,2,0:1:0:0:
176,339,138474,1,2,0:1:0:0:
164,327,138641,6,0,L|172:256,1,62.4999970197678,2|0,3:2|0:0,0:0:0:0:
251,230,138974,1,2,0:1:0:0:
263,217,139141,1,2,0:1:0:0:
275,205,139308,6,0,L|267:134,1,62.4999970197678,2|0,1:2|0:0,0:0:0:0:
186,98,139641,1,2,3:1:0:0:
317,66,139974,6,0,L|388:75,1,62.4999970197678,2|0,0:2|0:0,0:0:0:0:
428,146,140307,1,0,3:0:0:0:
450,134,140474,1,0,0:0:0:0:
472,121,140641,2,0,L|464:50,1,62.4999970197678,4|4,1:1|0:3,0:0:0:0:
371,11,140974,2,0,L|378:73,1,62.4999970197678,0|0,3:0|0:0,0:0:0:0:
336,150,141307,5,4,3:2:0:0:
467,226,141641,6,0,P|483:262|469:301,1,62.4999970197678,2|0,0:0|0:0,0:0:0:0:
404,329,141974,2,0,L|319:319,1,62.4999970197678,0|0,1:2|0:0,0:0:0:0:
265,371,142308,2,0,L|250:237,1,124.999994039536,2|2,3:2|0:0,0:0:0:0:
73,204,142974,5,2,3:1:0:0:
57,356,143307,2,0,P|41:320|55:281,1,62.4999970197678,2|0,1:2|0:0,0:0:0:0:
134,283,143641,2,0,P|150:319|136:358,1,62.4999970197678,2|2,0:1|0:1,0:0:0:0:
233,324,143974,5,2,3:2:0:0:
305,138,144308,1,2,0:1:0:0:
171,94,144641,1,2,1:2:0:0:
73,204,144974,1,2,3:1:0:0:
212,246,145307,6,0,P|260:211|327:229,1,124.999994039536,2|2,0:2|3:0,0:0:0:0:
348,226,145807,1,0,0:0:0:0:
372,212,145974,2,0,P|386:178|381:150,1,62.4999970197678,2|0,1:3|0:0,0:0:0:0:
319,93,146307,2,0,B|247:104,1,62.4999970197678,2|0,0:0|0:0,0:0:0:0:
195,40,146641,6,0,P|148:78|166:147,1,124.999994039536,0|2,3:0|0:1,0:0:0:0:
177,153,147141,1,2,0:1:0:0:
198,168,147308,2,0,L|189:235,1,62.4999970197678,2|0,1:2|0:0,0:0:0:0:
151,317,147641,2,0,L|212:308,1,62.4999970197678,2|2,3:1|0:1,0:0:0:0:
274,244,147974,6,0,P|338:237|380:290,2,124.999994039536,2|0|2,0:2|3:0|1:2,0:0:0:0:
148,185,148974,1,2,0:1:0:0:
124,177,149141,1,2,0:1:0:0:
101,168,149307,6,0,L|91:95,1,62.4999970197678,2|0,3:2|0:0,0:0:0:0:
134,27,149641,2,0,L|196:34,1,62.4999970197678,2|2,0:1|0:1,0:0:0:0:
254,101,149974,2,0,P|339:123|388:50,1,187.499991059303,2|0,1:2|0:0,0:0:0:0:
388,50,150641,6,0,L|395:112,1,62.4999970197678,2|0,0:2|0:0,0:0:0:0:
484,98,150974,2,0,L|477:160,1,62.4999970197678,0|0,3:3|3:1,0:0:0:0:
426,232,151307,5,0,1:2:0:0:
404,210,151473,1,8,0:3:0:0:
375,196,151640,1,0,3:0:0:0:
344,196,151807,1,4,0:3:0:0:
314,206,151973,5,4,3:2:0:0:
246,352,152307,2,0,B|226:328|226:328|234:240,2,109.999998111725,0|0|2,0:0|1:0|3:2,0:0:0:0:
236,160,153307,1,2,0:0:0:0:
153,283,153640,1,2,3:2:0:0:
47,185,153974,2,0,L|163:200,1,109.999998111725,0|2,1:0|0:0,0:0:0:0:
153,283,154641,5,0,3:0:0:0:
318,262,154974,1,2,0:0:0:0:
482,250,155307,5,0,1:0:0:0:
317,272,155640,1,2,3:2:0:0:
374,123,155974,6,0,P|405:167|391:219,2,109.999998111725,2|0|0,0:1|3:2|1:0,0:0:0:0:
318,262,156974,1,2,0:0:0:0:
368,106,157307,5,0,3:0:0:0:
203,165,157641,2,0,B|227:185|227:185|315:177,2,109.999998111725,0|0|2,0:0|1:0|3:2,0:0:0:0:
145,45,158641,1,2,0:0:0:0:
264,98,158974,1,2,3:2:0:0:
126,226,159307,2,0,L|103:110,1,109.999998111725,0|2,1:0|0:0,0:0:0:0:
206,277,159974,5,0,3:0:0:0:
44,254,160307,1,2,0:0:0:0:
205,267,160640,5,0,1:0:0:0:
370,291,160973,1,2,3:2:0:0:
315,150,161307,6,0,P|284:194|298:246,2,109.999998111725,2|0|4,0:1|3:0|1:1,0:0:0:0:
206,277,162307,1,0,3:0:0:0:
302,140,162641,5,4,3:2:0:0:
160,108,162974,2,0,B|140:132|140:132|148:220,2,109.999998111725,2|0|2,0:0|1:0|3:2,0:0:0:0:
69,246,163974,1,2,0:0:0:0:
227,162,164307,1,2,3:2:0:0:
110,36,164641,2,0,L|-4:18,1,109.999998111725,0|2,1:0|0:0,0:0:0:0:
159,100,165307,5,0,3:0:0:0:
327,70,165641,1,2,0:0:0:0:
489,50,165974,5,0,1:0:0:0:
321,80,166308,1,2,3:2:0:0:
387,207,166641,6,0,P|418:163|404:111,2,109.999998111725,2|2|0,0:0|3:2|1:0,0:0:0:0:
327,70,167641,1,2,0:1:0:0:
393,227,167974,5,0,3:0:0:0:
253,267,168307,5,2,0:2:0:0:
414,315,168641,1,0,1:0:0:0:
242,256,168974,2,0,P|257:316|256:357,1,99.9999952316285,2|2,3:2|0:1,0:0:0:0:
164,195,169641,5,2,3:2:0:0:
2,238,169975,1,0,1:0:0:0:
175,184,170308,2,0,P|160:244|161:285,1,99.9999952316285,2|4,3:2|3:1,0:0:0:0:
260,120,170974,5,2,0:2:0:0:
422,163,171308,1,0,1:0:0:0:
250,110,171641,1,4,0:2:0:0:
256,192,171974,12,0,173307,0:0:0:0:
