osu file format v14

[General]
AudioFilename: audio.mp3
AudioLeadIn: 0
PreviewTime: 68457
Countdown: 0
SampleSet: Normal
StackLeniency: 0.7
Mode: 3
LetterboxInBreaks: 0
SpecialStyle: 0
WidescreenStoryboard: 1

[Editor]
DistanceSpacing: 0.4
BeatDivisor: 4
GridSize: 32
TimelineZoom: 1.7

[Metadata]
Title:Shen De Sui Bo Zhu Liu
TitleUnicode:神的随波逐流
Artist:Ling Yuan yousa
ArtistUnicode:泠鸢yousa
Creator:YuEast 2018
Version:Seiran's Hyper
Source:
Tags:seiran- -timerains- crystallized- 神のまにまに kami no manimani at god's mercy れるりり rerulili pop chinese vocaloid vocal dump cover
BeatmapID:4007380
BeatmapSetID:1897970

[Difficulty]
HPDrainRate:8
CircleSize:4
OverallDifficulty:7.5
ApproachRate:5
SliderMultiplier:1.4
SliderTickRate:1

[Events]
//Background and Video events
0,0,"full.jpg",0,0
//Break Periods
//Storyboard Layer 0 (Background)
//Storyboard Layer 1 (Fail)
//Storyboard Layer 2 (Pass)
//Storyboard Layer 3 (Foreground)
//Storyboard Layer 4 (Overlay)
//Storyboard Sound Samples
Sample,58680,0,"tom4.wav",70
Sample,83346,0,"tick.wav",70
Sample,135124,0,"tom4.wav",70
Sample,159791,0,"tick.wav",70
Sample,206235,0,"tom1.wav",70

[TimingPoints]
458,444.444444444444,4,1,1,80,1,0
69791,-100,4,1,1,80,0,1
98235,-100,4,1,1,80,0,0
146235,-100,4,1,1,80,0,1
173791,-100,4,1,1,80,0,0
206680,-100,4,1,1,80,0,1
249235,-100,4,1,1,80,0,0

[HitObjects]
64,192,458,5,4,0:0:0:0:
192,192,458,1,2,0:0:0:0:
320,192,458,1,0,0:0:0:0:
448,192,569,1,0,0:0:0:70:snare.wav
64,192,902,1,8,0:0:0:0:
320,192,902,1,0,0:0:0:0:
448,192,902,1,0,0:0:0:0:
64,192,1346,1,2,0:0:0:0:
192,192,1346,1,0,0:0:0:0:
320,192,1457,1,0,0:0:0:70:snare.wav
64,192,1791,1,8,0:0:0:0:
320,192,1791,1,0,0:0:0:0:
448,192,1791,1,0,0:0:0:0:
64,192,2235,1,2,0:0:0:0:
192,192,2235,1,0,0:0:0:0:
320,192,2346,1,0,0:0:0:70:snare.wav
64,192,2680,1,8,0:0:0:0:
320,192,2680,1,0,0:0:0:0:
448,192,2680,1,0,0:0:0:0:
320,192,3013,1,8,0:0:0:0:
448,192,3013,1,0,0:0:0:0:
64,192,3124,1,2,0:0:0:0:
320,192,3235,1,8,0:0:0:0:
448,192,3235,1,0,0:0:0:0:
64,192,3569,1,8,0:0:0:0:
320,192,3569,1,0,0:0:0:0:
448,192,3569,1,0,0:0:0:0:
64,192,4013,1,8,0:0:0:0:
192,192,4013,1,2,0:0:0:0:
448,192,4013,1,4,0:0:0:0:
320,192,4124,1,0,0:0:0:70:snare.wav
64,192,4457,1,8,0:0:0:0:
320,192,4457,1,0,0:0:0:0:
448,192,4457,1,0,0:0:0:0:
320,192,4680,1,8,0:0:0:0:
448,192,4680,1,0,0:0:0:0:
192,192,4791,1,8,0:0:0:0:
448,192,4902,1,2,0:0:0:0:
64,192,5013,1,8,0:0:0:0:
192,192,5013,1,0,0:0:0:0:
320,192,5124,1,8,0:0:0:0:
64,192,5235,1,8,0:0:0:0:
320,192,5346,1,8,0:0:0:0:
448,192,5346,1,0,0:0:0:0:
192,192,5457,1,8,0:0:0:0:
320,192,5569,1,2,0:0:0:0:
192,192,5680,1,2,0:0:0:0:
64,192,5791,1,8,0:0:0:0:
448,192,5791,1,0,0:0:0:0:
192,192,6235,1,0,0:0:0:0:
320,192,6680,1,0,0:0:0:0:
64,192,6902,1,0,0:0:0:70:tick.wav
64,192,7124,1,0,0:0:0:70:tick.wav
448,192,7124,1,0,0:0:0:0:
64,192,7569,128,4,7902:0:0:0:0:
192,192,7569,1,2,0:0:0:0:
448,192,7569,1,0,0:0:0:0:
320,192,7902,1,0,0:0:0:0:
448,192,7902,1,0,0:0:0:0:
64,192,8013,128,8,8346:0:0:0:0:
192,192,8013,1,0,0:0:0:0:
192,192,8346,1,0,0:0:0:0:
320,192,8346,1,0,0:0:0:0:
64,192,8457,1,2,0:0:0:0:
448,192,8457,128,0,8569:0:0:0:0:
192,192,8680,1,0,0:0:0:0:
448,192,8680,128,0,8791:0:0:0:0:
320,192,8902,1,8,0:0:0:0:
448,192,8902,128,0,9235:0:0:0:0:
64,192,9346,128,2,9680:0:0:0:0:
320,192,9346,1,0,0:0:0:0:
448,192,9346,1,0,0:0:0:0:
320,192,9680,1,0,0:0:0:0:
448,192,9680,1,0,0:0:0:0:
64,192,9791,128,8,10124:0:0:0:0:
192,192,9791,1,0,0:0:0:0:
192,192,10124,1,0,0:0:0:0:
320,192,10124,1,0,0:0:0:0:
64,192,10235,1,2,0:0:0:0:
448,192,10235,128,0,10346:0:0:0:0:
192,192,10457,1,0,0:0:0:0:
448,192,10457,128,0,10569:0:0:0:0:
320,192,10680,1,8,0:0:0:0:
448,192,10680,128,0,11013:0:0:0:0:
64,192,11124,128,2,11457:0:0:0:0:
320,192,11124,1,0,0:0:0:0:
448,192,11124,1,0,0:0:0:0:
320,192,11457,1,0,0:0:0:0:
448,192,11457,1,0,0:0:0:0:
64,192,11569,128,8,11902:0:0:0:0:
192,192,11569,1,0,0:0:0:0:
192,192,11902,1,0,0:0:0:0:
320,192,11902,1,0,0:0:0:0:
64,192,12013,1,2,0:0:0:0:
448,192,12013,128,0,12124:0:0:0:0:
192,192,12235,1,0,0:0:0:0:
448,192,12235,128,0,12346:0:0:0:0:
64,192,12457,1,8,0:0:0:0:
320,192,12457,128,0,12569:0:0:0:0:
192,192,12680,1,0,0:0:0:0:
320,192,12680,128,0,12791:0:0:0:0:
64,192,12902,128,2,13013:0:0:0:0:
320,192,12902,1,0,0:0:0:0:
448,192,12902,1,0,0:0:0:0:
192,192,13124,1,0,0:0:0:0:
320,192,13198,1,0,0:0:0:0:
64,192,13272,1,0,0:0:0:0:
320,192,13346,128,8,13457:0:0:0:0:
448,192,13346,1,0,0:0:0:0:
64,192,13569,1,0,0:0:0:0:
320,192,13569,128,0,13791:0:0:0:0:
192,192,13791,128,2,14013:0:0:0:0:
448,192,13791,1,0,0:0:0:0:
320,192,14013,128,0,14087:0:0:0:0:
448,192,14087,128,0,14161:0:0:0:0:
192,192,14161,128,0,14235:0:0:0:0:
320,192,14235,128,8,14346:0:0:0:0:
448,192,14235,128,0,14346:0:0:0:0:
64,192,14457,128,0,14569:0:0:0:0:
192,192,14457,128,0,14569:0:0:0:0:
64,192,14680,128,2,15013:0:0:0:0:
320,192,14680,1,4,0:0:0:0:
448,192,14680,1,0,0:0:0:0:
192,192,14902,1,0,0:0:0:0:
320,192,15013,1,0,0:0:0:0:
448,192,15013,1,0,0:0:0:0:
64,192,15124,128,8,15457:0:0:0:0:
192,192,15124,1,0,0:0:0:0:
448,192,15346,1,0,0:0:0:0:
192,192,15457,1,0,0:0:0:0:
320,192,15457,1,0,0:0:0:0:
64,192,15569,1,2,0:0:0:0:
448,192,15569,128,0,15680:0:0:0:0:
192,192,15791,1,0,0:0:0:0:
448,192,15791,128,0,15902:0:0:0:0:
320,192,16013,1,8,0:0:0:0:
448,192,16013,128,0,16346:0:0:0:0:
192,192,16235,1,0,0:0:0:0:
64,192,16457,128,2,16791:0:0:0:0:
320,192,16457,1,0,0:0:0:0:
448,192,16457,1,0,0:0:0:0:
192,192,16680,1,0,0:0:0:0:
320,192,16791,1,0,0:0:0:0:
448,192,16791,1,0,0:0:0:0:
64,192,16902,128,8,17235:0:0:0:0:
192,192,16902,1,0,0:0:0:0:
448,192,17124,1,0,0:0:0:0:
192,192,17235,1,0,0:0:0:0:
320,192,17235,1,0,0:0:0:0:
64,192,17346,1,2,0:0:0:0:
448,192,17346,128,0,17457:0:0:0:0:
192,192,17569,1,0,0:0:0:0:
448,192,17569,128,0,17680:0:0:0:0:
320,192,17791,1,8,0:0:0:0:
448,192,17791,128,0,18124:0:0:0:0:
192,192,18013,1,0,0:0:0:0:
64,192,18235,128,2,18569:0:0:0:0:
320,192,18235,1,0,0:0:0:0:
448,192,18235,1,0,0:0:0:0:
192,192,18457,1,0,0:0:0:0:
320,192,18569,1,0,0:0:0:0:
448,192,18569,1,0,0:0:0:0:
64,192,18680,128,8,19013:0:0:0:0:
192,192,18680,1,0,0:0:0:0:
448,192,18902,1,0,0:0:0:0:
192,192,19013,1,0,0:0:0:0:
320,192,19013,1,0,0:0:0:0:
64,192,19124,1,2,0:0:0:0:
448,192,19124,128,0,19235:0:0:0:0:
192,192,19346,1,0,0:0:0:0:
448,192,19346,128,0,19457:0:0:0:0:
64,192,19569,1,8,0:0:0:0:
320,192,19569,128,0,19680:0:0:0:0:
192,192,19791,1,0,0:0:0:0:
320,192,19791,128,0,19902:0:0:0:0:
64,192,20013,128,4,20124:0:0:0:0:
320,192,20013,1,2,0:0:0:0:
448,192,20013,1,0,0:0:0:0:
192,192,20235,128,0,20346:0:0:0:70:tom1.wav
448,192,20235,1,0,0:0:0:0:
64,192,20346,128,0,20457:0:0:0:0:
320,192,20457,1,2,0:0:0:0:
448,192,20457,1,0,0:0:0:0:
192,192,20569,1,0,0:0:0:70:tom2.wav
320,192,20680,1,0,0:0:0:0:
448,192,20791,1,0,0:0:0:0:
64,192,20902,1,2,0:0:0:0:
192,192,20902,1,0,0:0:0:0:
320,192,20976,1,8,0:0:0:0:
448,192,21050,1,8,0:0:0:0:
192,192,21124,1,8,0:0:0:0:
320,192,21346,1,2,0:0:0:0:
448,192,21346,1,8,0:0:0:0:
64,192,21457,1,8,0:0:0:0:
192,192,21457,1,0,0:0:0:0:
448,192,21569,1,0,0:0:0:0:
64,192,21791,1,2,0:0:0:0:
320,192,21791,1,4,0:0:0:0:
192,192,22013,1,8,0:0:0:0:
64,192,22124,1,2,0:0:0:0:
320,192,22235,1,8,0:0:0:0:
448,192,22235,1,0,0:0:0:0:
64,192,22346,1,8,0:0:0:0:
192,192,22346,1,0,0:0:0:0:
320,192,22457,1,0,0:0:0:70:tom1.wav
448,192,22569,1,0,0:0:0:70:tom2.wav
64,192,22680,1,2,0:0:0:0:
192,192,22680,1,8,0:0:0:0:
448,192,22902,1,0,0:0:0:0:
320,192,23124,1,0,0:0:0:0:
192,192,23346,1,0,0:0:0:0:
64,192,23569,1,2,0:0:0:0:
448,192,23569,1,0,0:0:0:0:
192,192,23680,1,0,0:0:0:0:
320,192,23791,1,0,0:0:0:0:
448,192,23902,1,0,0:0:0:0:
64,192,24013,1,8,0:0:0:0:
192,192,24013,1,0,0:0:0:0:
320,192,24124,1,0,0:0:0:0:
192,192,24235,1,0,0:0:0:0:
64,192,24346,1,0,0:0:0:0:
320,192,24457,1,2,0:0:0:0:
448,192,24457,1,0,0:0:0:0:
192,192,24569,1,0,0:0:0:0:
320,192,24680,1,0,0:0:0:0:
64,192,24791,1,0,0:0:0:0:
192,192,24902,1,8,0:0:0:0:
448,192,24902,1,0,0:0:0:0:
192,192,25124,1,0,0:0:0:0:
320,192,25124,1,0,0:0:0:0:
64,192,25346,1,2,0:0:0:0:
448,192,25346,1,0,0:0:0:0:
192,192,25457,1,0,0:0:0:0:
320,192,25569,1,0,0:0:0:0:
448,192,25680,1,0,0:0:0:0:
64,192,25791,1,8,0:0:0:0:
192,192,25791,1,0,0:0:0:0:
320,192,25902,1,0,0:0:0:0:
192,192,26013,1,0,0:0:0:0:
320,192,26124,1,0,0:0:0:0:
64,192,26235,1,2,0:0:0:0:
448,192,26235,1,0,0:0:0:0:
192,192,26346,1,0,0:0:0:0:
320,192,26457,1,0,0:0:0:0:
448,192,26569,1,0,0:0:0:0:
64,192,26680,1,8,0:0:0:0:
192,192,26680,1,0,0:0:0:0:
192,192,26902,1,0,0:0:0:0:
64,192,27013,1,0,0:0:0:0:
320,192,27124,1,2,0:0:0:0:
448,192,27124,1,0,0:0:0:0:
192,192,27235,1,0,0:0:0:0:
320,192,27346,1,0,0:0:0:0:
64,192,27569,1,8,0:0:0:0:
448,192,27569,1,0,0:0:0:0:
192,192,27680,1,0,0:0:0:0:
192,192,27902,1,0,0:0:0:0:
64,192,28013,1,2,0:0:0:0:
448,192,28013,1,0,0:0:0:0:
320,192,28124,1,0,0:0:0:0:
192,192,28235,1,0,0:0:0:0:
320,192,28346,1,0,0:0:0:0:
64,192,28457,1,8,0:0:0:0:
448,192,28457,1,0,0:0:0:0:
192,192,28569,1,0,0:0:0:0:
320,192,28680,1,0,0:0:0:0:
448,192,28791,1,0,0:0:0:0:
64,192,28902,1,2,0:0:0:0:
192,192,28902,1,0,0:0:0:0:
320,192,29013,1,0,0:0:0:0:
192,192,29124,1,0,0:0:0:0:
320,192,29235,1,0,0:0:0:0:
64,192,29346,1,8,0:0:0:0:
448,192,29346,1,0,0:0:0:0:
192,192,29457,1,0,0:0:0:0:
320,192,29569,1,0,0:0:0:0:
192,192,29680,1,0,0:0:0:0:
64,192,29791,1,2,0:0:0:0:
448,192,29791,1,0,0:0:0:0:
192,192,29902,1,8,0:0:0:0:
320,192,29902,1,0,0:0:0:0:
448,192,30013,1,0,0:0:0:0:
320,192,30124,1,0,0:0:0:0:
64,192,30235,1,8,0:0:0:0:
192,192,30235,1,0,0:0:0:0:
320,192,30346,1,0,0:0:0:0:
192,192,30457,1,0,0:0:0:0:
64,192,30569,1,0,0:0:0:0:
320,192,30680,1,2,0:0:0:0:
448,192,30680,1,0,0:0:0:0:
192,192,30791,1,0,0:0:0:0:
320,192,30902,1,0,0:0:0:0:
448,192,31013,1,0,0:0:0:0:
192,192,31124,1,8,0:0:0:0:
320,192,31124,1,0,0:0:0:0:
64,192,31235,1,0,0:0:0:0:
192,192,31346,1,0,0:0:0:0:
320,192,31457,1,0,0:0:0:0:
64,192,31569,1,2,0:0:0:0:
192,192,31569,1,0,0:0:0:0:
448,192,31680,1,0,0:0:0:0:
320,192,31791,1,0,0:0:0:0:
192,192,31902,1,0,0:0:0:0:
320,192,32013,1,8,0:0:0:0:
448,192,32013,1,0,0:0:0:0:
192,192,32124,1,0,0:0:0:0:
64,192,32235,1,0,0:0:0:0:
192,192,32346,1,0,0:0:0:0:
64,192,32457,1,2,0:0:0:0:
320,192,32457,1,0,0:0:0:0:
448,192,32569,1,0,0:0:0:0:
192,192,32680,1,0,0:0:0:0:
320,192,32791,1,0,0:0:0:0:
64,192,32902,1,8,0:0:0:0:
448,192,32902,1,0,0:0:0:0:
192,192,33013,1,0,0:0:0:0:
320,192,33124,1,0,0:0:0:0:
448,192,33235,1,0,0:0:0:0:
64,192,33346,1,2,0:0:0:0:
192,192,33346,1,0,0:0:0:0:
320,192,33569,1,0,0:0:0:0:
192,192,33680,1,0,0:0:0:0:
64,192,33791,1,8,0:0:0:0:
448,192,33791,1,0,0:0:0:0:
320,192,33902,1,0,0:0:0:0:
192,192,34013,1,0,0:0:0:0:
320,192,34124,1,0,0:0:0:0:
64,192,34235,1,2,0:0:0:0:
448,192,34235,1,0,0:0:0:0:
192,192,34457,1,0,0:0:0:0:
320,192,34569,1,0,0:0:0:0:
64,192,34680,1,8,0:0:0:0:
448,192,34680,1,0,0:0:0:0:
192,192,34791,1,0,0:0:0:0:
320,192,34902,1,0,0:0:0:0:
192,192,35013,1,0,0:0:0:0:
64,192,35124,1,2,0:0:0:0:
448,192,35124,1,0,0:0:0:0:
320,192,35346,1,0,0:0:0:0:
448,192,35457,1,0,0:0:0:0:
64,192,35569,1,8,0:0:0:0:
192,192,35569,1,0,0:0:0:0:
320,192,35680,1,0,0:0:0:0:
192,192,35791,1,0,0:0:0:0:
64,192,35902,1,0,0:0:0:0:
320,192,36013,1,2,0:0:0:0:
448,192,36013,1,0,0:0:0:0:
64,192,36124,1,0,0:0:0:0:
192,192,36235,1,8,0:0:0:0:
320,192,36235,1,0,0:0:0:0:
64,192,36457,1,8,0:0:0:0:
192,192,36457,1,0,0:0:0:0:
320,192,36569,1,8,0:0:0:0:
448,192,36569,1,0,0:0:0:0:
192,192,36680,1,0,0:0:0:0:
64,192,36791,1,0,0:0:0:0:
320,192,36902,1,2,0:0:0:0:
448,192,36902,1,4,0:0:0:0:
64,192,37124,1,8,0:0:0:0:
192,192,37124,1,0,0:0:0:0:
320,192,37235,1,0,0:0:0:0:
64,192,37346,1,0,0:0:0:70:tom1.wav
448,192,37346,1,0,0:0:0:0:
192,192,37457,1,0,0:0:0:70:tom1.wav
320,192,37569,1,0,0:0:0:70:tom2.wav
448,192,37680,1,0,0:0:0:70:tom2.wav
64,192,37791,1,2,0:0:0:0:
192,192,37791,1,4,0:0:0:0:
320,192,37902,1,0,0:0:0:0:
64,192,38013,1,0,0:0:0:0:
192,192,38124,1,0,0:0:0:0:
320,192,38235,1,8,0:0:0:0:
448,192,38235,1,0,0:0:0:0:
64,192,38346,1,0,0:0:0:0:
320,192,38457,1,0,0:0:0:0:
448,192,38569,1,0,0:0:0:0:
64,192,38680,1,2,0:0:0:0:
192,192,38680,1,0,0:0:0:0:
320,192,38791,1,0,0:0:0:0:
64,192,38902,1,0,0:0:0:0:
320,192,39013,1,0,0:0:0:0:
64,192,39124,1,8,0:0:0:0:
192,192,39124,1,0,0:0:0:0:
448,192,39235,1,0,0:0:0:0:
192,192,39346,1,0,0:0:0:0:
448,192,39457,1,0,0:0:0:0:
192,192,39569,1,2,0:0:0:0:
320,192,39569,1,0,0:0:0:0:
64,192,39680,1,0,0:0:0:0:
320,192,39791,1,0,0:0:0:0:
64,192,39902,1,0,0:0:0:0:
320,192,40013,1,8,0:0:0:0:
448,192,40013,1,0,0:0:0:0:
192,192,40124,1,0,0:0:0:0:
448,192,40235,1,0,0:0:0:0:
192,192,40346,1,0,0:0:0:0:
64,192,40457,1,2,0:0:0:0:
448,192,40457,1,0,0:0:0:0:
320,192,40569,1,0,0:0:0:0:
192,192,40680,1,0,0:0:0:0:
448,192,40791,1,0,0:0:0:0:
64,192,40902,1,8,0:0:0:0:
320,192,40902,1,0,0:0:0:0:
320,192,41124,1,0,0:0:0:0:
448,192,41235,1,0,0:0:0:0:
64,192,41346,1,2,0:0:0:0:
192,192,41346,1,0,0:0:0:0:
320,192,41457,1,0,0:0:0:0:
192,192,41569,1,0,0:0:0:0:
64,192,41791,1,8,0:0:0:0:
320,192,41791,1,0,0:0:0:0:
448,192,41902,1,0,0:0:0:0:
448,192,42124,1,0,0:0:0:0:
192,192,42235,1,2,0:0:0:0:
320,192,42235,1,0,0:0:0:0:
64,192,42346,1,0,0:0:0:0:
320,192,42457,1,0,0:0:0:0:
64,192,42569,1,0,0:0:0:0:
192,192,42680,1,8,0:0:0:0:
448,192,42680,1,0,0:0:0:0:
320,192,42791,1,0,0:0:0:0:
448,192,42902,1,0,0:0:0:0:
192,192,43013,1,0,0:0:0:0:
320,192,43124,1,2,0:0:0:0:
448,192,43124,1,0,0:0:0:0:
64,192,43235,1,0,0:0:0:0:
320,192,43346,1,0,0:0:0:0:
192,192,43457,1,0,0:0:0:0:
64,192,43569,1,8,0:0:0:0:
448,192,43569,1,0,0:0:0:0:
320,192,43680,1,0,0:0:0:0:
448,192,43791,1,0,0:0:0:0:
192,192,43902,1,8,0:0:0:0:
320,192,43902,1,0,0:0:0:0:
192,192,44124,1,8,0:0:0:0:
320,192,44124,1,0,0:0:0:0:
64,192,44235,1,0,0:0:0:0:
448,192,44346,1,0,0:0:0:0:
64,192,44457,1,8,0:0:0:0:
192,192,44457,1,0,0:0:0:0:
320,192,44569,1,0,0:0:0:0:
64,192,44680,1,0,0:0:0:0:
448,192,44791,1,0,0:0:0:0:
192,192,44902,1,2,0:0:0:0:
320,192,44902,1,0,0:0:0:0:
64,192,45013,1,0,0:0:0:0:
320,192,45124,1,0,0:0:0:0:
64,192,45235,1,0,0:0:0:0:
192,192,45346,1,8,0:0:0:0:
320,192,45346,1,0,0:0:0:0:
448,192,45457,1,0,0:0:0:0:
192,192,45569,1,0,0:0:0:0:
448,192,45680,1,0,0:0:0:0:
192,192,45791,1,2,0:0:0:0:
320,192,45791,1,0,0:0:0:0:
64,192,45902,1,0,0:0:0:0:
320,192,46013,1,0,0:0:0:0:
448,192,46124,1,0,0:0:0:0:
192,192,46235,1,8,0:0:0:0:
320,192,46235,1,0,0:0:0:0:
64,192,46346,1,0,0:0:0:0:
192,192,46457,1,0,0:0:0:0:
448,192,46569,1,0,0:0:0:0:
192,192,46680,1,2,0:0:0:0:
320,192,46680,1,0,0:0:0:0:
64,192,46791,1,0,0:0:0:0:
320,192,46902,1,0,0:0:0:0:
192,192,47013,1,0,0:0:0:0:
64,192,47124,1,8,0:0:0:0:
448,192,47124,1,0,0:0:0:0:
320,192,47235,1,0,0:0:0:0:
192,192,47346,1,0,0:0:0:0:
448,192,47457,1,0,0:0:0:0:
192,192,47569,1,2,0:0:0:0:
320,192,47569,1,0,0:0:0:0:
64,192,47791,1,0,0:0:0:0:
192,192,47902,1,0,0:0:0:0:
320,192,48013,1,8,0:0:0:0:
448,192,48013,1,0,0:0:0:0:
192,192,48124,1,0,0:0:0:0:
320,192,48235,1,0,0:0:0:0:
448,192,48346,1,0,0:0:0:0:
192,192,48457,1,2,0:0:0:0:
320,192,48457,1,0,0:0:0:0:
64,192,48569,1,0,0:0:0:0:
192,192,48680,1,0,0:0:0:0:
320,192,48791,1,0,0:0:0:0:
64,192,48902,1,8,0:0:0:0:
192,192,48902,1,0,0:0:0:0:
448,192,49124,1,0,0:0:0:0:
320,192,49235,1,0,0:0:0:0:
64,192,49346,1,2,0:0:0:0:
192,192,49346,1,0,0:0:0:0:
320,192,49457,1,0,0:0:0:0:
192,192,49569,1,0,0:0:0:0:
64,192,49680,1,0,0:0:0:0:
320,192,49791,1,8,0:0:0:0:
448,192,49791,1,0,0:0:0:0:
192,192,49902,1,0,0:0:0:0:
320,192,50013,1,0,0:0:0:0:
448,192,50124,1,0,0:0:0:0:
192,192,50235,1,2,0:0:0:0:
320,192,50235,1,0,0:0:0:0:
192,192,50457,1,8,0:0:0:0:
320,192,50457,1,0,0:0:0:0:
64,192,50680,1,8,0:0:0:0:
192,192,50680,1,0,0:0:0:0:
320,192,50791,1,8,0:0:0:0:
448,192,50791,1,0,0:0:0:0:
192,192,50902,1,0,0:0:0:70:tom1.wav
320,192,51124,1,2,0:0:0:0:
448,192,51124,1,0,0:0:0:70:tom2.wav
192,192,51272,1,8,0:0:0:0:
320,192,51272,1,0,0:0:0:0:
64,192,51569,1,8,0:0:0:0:
192,192,51569,1,0,0:0:0:70:tom4.wav
320,192,51680,1,8,0:0:0:0:
448,192,51680,1,0,0:0:0:0:
64,192,52013,1,4,0:0:0:0:
192,192,52013,1,2,0:0:0:0:
320,192,52124,1,0,0:0:0:0:
64,192,52235,1,0,0:0:0:0:
192,192,52457,1,2,0:0:0:0:
320,192,52457,1,0,0:0:0:0:
448,192,52569,1,0,0:0:0:0:
192,192,52680,1,0,0:0:0:0:
448,192,52791,1,0,0:0:0:0:
64,192,52902,1,2,0:0:0:0:
448,192,52902,1,0,0:0:0:0:
192,192,53124,1,0,0:0:0:0:
64,192,53235,1,0,0:0:0:0:
320,192,53346,1,2,0:0:0:0:
448,192,53346,1,8,0:0:0:0:
192,192,53457,1,0,0:0:0:0:
320,192,53569,1,0,0:0:0:0:
448,192,53680,1,0,0:0:0:0:
64,192,53791,1,2,0:0:0:0:
320,192,53791,1,0,0:0:0:0:
192,192,54013,1,0,0:0:0:0:
64,192,54124,1,0,0:0:0:0:
320,192,54235,1,2,0:0:0:0:
448,192,54235,1,0,0:0:0:0:
320,192,54457,1,0,0:0:0:0:
448,192,54569,1,0,0:0:0:0:
64,192,54680,1,2,0:0:0:0:
192,192,54680,1,0,0:0:0:0:
192,192,54902,1,0,0:0:0:0:
64,192,55013,1,0,0:0:0:0:
192,192,55124,1,2,0:0:0:0:
320,192,55124,1,8,0:0:0:0:
320,192,55346,1,0,0:0:0:0:
192,192,55457,1,0,0:0:0:0:
64,192,55569,1,2,0:0:0:0:
448,192,55569,1,0,0:0:0:0:
320,192,55680,1,0,0:0:0:0:
448,192,55791,1,0,0:0:0:0:
320,192,55902,1,0,0:0:0:0:
64,192,56013,1,2,0:0:0:0:
448,192,56013,1,0,0:0:0:0:
320,192,56124,1,0,0:0:0:0:
448,192,56235,1,0,0:0:0:0:
64,192,56457,1,2,0:0:0:0:
192,192,56457,1,0,0:0:0:0:
320,192,56680,1,0,0:0:0:0:
192,192,56791,1,0,0:0:0:0:
64,192,56902,1,2,0:0:0:0:
448,192,56902,1,8,0:0:0:0:
320,192,57013,1,0,0:0:0:0:
192,192,57124,1,0,0:0:0:0:
320,192,57235,1,0,0:0:0:0:
64,192,57346,1,2,0:0:0:0:
448,192,57346,1,0,0:0:0:0:
192,192,57457,1,0,0:0:0:0:
64,192,57569,1,12,0:0:0:0:
192,192,57680,1,0,0:0:0:0:
64,192,57791,1,4,0:0:0:0:
448,192,57791,1,2,0:0:0:0:
192,192,57902,1,0,0:0:0:0:
64,192,58013,1,0,0:0:0:70:tom2.wav
320,192,58124,1,0,0:0:0:0:
192,192,58235,1,2,0:0:0:0:
448,192,58346,1,0,0:0:0:0:
320,192,58457,1,0,0:0:0:0:
448,192,58569,1,0,0:0:0:0:
192,192,58680,1,2,0:0:0:0:
320,192,58791,1,0,0:0:0:70:tom4.wav
192,192,58902,1,0,0:0:0:70:tom4.wav
448,192,59013,1,0,0:0:0:70:tom4.wav
64,192,59124,1,2,0:0:0:0:
320,192,59124,1,4,0:0:0:0:
192,192,59235,1,0,0:0:0:0:
448,192,59346,1,0,0:0:0:0:
64,192,59569,1,8,0:0:0:0:
320,192,59569,1,0,0:0:0:0:
448,192,59680,1,0,0:0:0:0:
320,192,59902,1,0,0:0:0:0:
64,192,60013,1,2,0:0:0:0:
320,192,60013,1,0,0:0:0:0:
192,192,60235,1,0,0:0:0:0:
64,192,60457,1,8,0:0:0:0:
320,192,60457,1,0,0:0:0:0:
192,192,60680,1,0,0:0:0:0:
192,192,60902,1,2,0:0:0:0:
448,192,60902,1,0,0:0:0:0:
64,192,61013,1,0,0:0:0:0:
320,192,61124,1,0,0:0:0:0:
192,192,61346,1,8,0:0:0:0:
448,192,61346,1,0,0:0:0:0:
64,192,61457,1,0,0:0:0:0:
192,192,61680,1,0,0:0:0:0:
192,192,61791,1,2,0:0:0:0:
448,192,61791,1,0,0:0:0:0:
320,192,62013,1,0,0:0:0:0:
192,192,62235,1,8,0:0:0:0:
448,192,62235,1,0,0:0:0:0:
64,192,62457,1,0,0:0:0:0:
192,192,62569,1,0,0:0:0:0:
320,192,62680,1,2,0:0:0:0:
448,192,62680,1,4,0:0:0:0:
320,192,62902,1,0,0:0:0:0:
448,192,63013,1,0,0:0:0:0:
64,192,63124,1,8,0:0:0:0:
192,192,63124,1,0,0:0:0:0:
192,192,63346,1,0,0:0:0:0:
64,192,63457,1,0,0:0:0:0:
320,192,63569,1,2,0:0:0:0:
448,192,63569,1,0,0:0:0:0:
192,192,63680,1,0,0:0:0:0:
320,192,63791,1,0,0:0:0:0:
192,192,64013,1,8,0:0:0:0:
448,192,64013,1,0,0:0:0:0:
64,192,64124,1,0,0:0:0:0:
320,192,64235,1,0,0:0:0:0:
192,192,64346,1,0,0:0:0:0:
64,192,64457,1,2,0:0:0:0:
448,192,64457,1,0,0:0:0:0:
320,192,64569,1,0,0:0:0:0:
192,192,64680,1,0,0:0:0:0:
320,192,64791,1,0,0:0:0:0:
64,192,64902,1,8,0:0:0:0:
448,192,64902,1,0,0:0:0:0:
192,192,65013,1,0,0:0:0:0:
320,192,65124,1,0,0:0:0:0:
192,192,65235,1,0,0:0:0:0:
64,192,65346,1,2,0:0:0:0:
320,192,65346,1,0,0:0:0:0:
448,192,65457,1,0,0:0:0:0:
192,192,65569,1,0,0:0:0:0:
320,192,65680,1,0,0:0:0:0:
64,192,65791,1,8,0:0:0:0:
448,192,65791,1,0,0:0:0:0:
192,192,65902,1,0,0:0:0:0:
64,192,66013,1,0,0:0:0:0:
320,192,66124,1,0,0:0:0:0:
192,192,66180,1,0,0:0:0:0:
64,192,66235,1,2,0:0:0:0:
448,192,66235,1,4,0:0:0:0:
64,192,66457,1,8,0:0:0:0:
192,192,66457,1,0,0:0:0:0:
64,192,66680,1,8,0:0:0:0:
192,192,66680,1,2,0:0:0:0:
192,192,66902,1,8,0:0:0:0:
64,192,66976,1,8,0:0:0:0:
192,192,67050,1,8,0:0:0:0:
320,192,67124,1,8,0:0:0:0:
448,192,67124,1,2,0:0:0:0:
64,192,67235,1,8,0:0:0:0:
320,192,67346,1,0,0:0:0:0:
64,192,67457,1,8,0:0:0:0:
192,192,67457,1,0,0:0:0:0:
320,192,67569,1,2,0:0:0:0:
448,192,67569,1,0,0:0:0:0:
192,192,67680,1,0,0:0:0:70:tom1.wav
320,192,67791,1,0,0:0:0:70:tom2.wav
192,192,67902,1,0,0:0:0:70:tom3.wav
64,192,68013,1,2,0:0:0:0:
448,192,68013,1,0,0:0:0:0:
64,192,69791,1,4,0:0:0:0:
320,192,69791,1,2,0:0:0:0:
448,192,69791,1,0,0:0:0:0:
192,192,69902,1,0,0:0:0:0:
64,192,70013,1,0,0:0:0:0:
448,192,70124,1,0,0:0:0:0:
192,192,70235,1,8,0:0:0:0:
448,192,70235,1,0,0:0:0:0:
64,192,70346,1,0,0:0:0:0:
320,192,70457,1,0,0:0:0:0:
192,192,70569,1,0,0:0:0:0:
64,192,70680,1,2,0:0:0:0:
192,192,70680,1,0,0:0:0:0:
448,192,70791,1,0,0:0:0:0:
64,192,70902,1,0,0:0:0:0:
320,192,71013,1,0,0:0:0:0:
64,192,71124,1,8,0:0:0:0:
192,192,71124,1,0,0:0:0:0:
320,192,71235,1,0,0:0:0:0:
448,192,71346,1,0,0:0:0:0:
320,192,71569,1,2,0:0:0:0:
448,192,71569,1,0,0:0:0:0:
192,192,71680,1,0,0:0:0:0:
64,192,71791,1,0,0:0:0:0:
448,192,71902,1,0,0:0:0:0:
192,192,72013,1,8,0:0:0:0:
448,192,72013,1,0,0:0:0:0:
64,192,72124,1,0,0:0:0:0:
320,192,72235,1,0,0:0:0:0:
192,192,72346,1,0,0:0:0:0:
64,192,72457,1,2,0:0:0:0:
192,192,72457,1,0,0:0:0:0:
448,192,72569,1,0,0:0:0:0:
64,192,72680,1,0,0:0:0:0:
320,192,72791,1,0,0:0:0:0:
64,192,72902,1,8,0:0:0:0:
192,192,72902,1,0,0:0:0:0:
320,192,73013,1,0,0:0:0:0:
448,192,73124,1,0,0:0:0:0:
320,192,73346,1,2,0:0:0:0:
448,192,73346,1,0,0:0:0:0:
192,192,73457,1,0,0:0:0:0:
64,192,73569,1,0,0:0:0:0:
448,192,73680,1,0,0:0:0:0:
192,192,73791,1,8,0:0:0:0:
448,192,73791,1,0,0:0:0:0:
64,192,73902,1,0,0:0:0:0:
320,192,74013,1,0,0:0:0:0:
192,192,74124,1,0,0:0:0:0:
64,192,74235,1,2,0:0:0:0:
192,192,74235,1,0,0:0:0:0:
448,192,74346,1,0,0:0:0:0:
64,192,74457,1,0,0:0:0:0:
320,192,74569,1,0,0:0:0:0:
64,192,74680,1,8,0:0:0:0:
192,192,74680,1,0,0:0:0:0:
320,192,74791,1,0,0:0:0:0:
192,192,74902,1,0,0:0:0:0:
448,192,75013,1,0,0:0:0:0:
192,192,75124,1,2,0:0:0:0:
320,192,75124,1,0,0:0:0:0:
64,192,75235,1,0,0:0:0:0:
320,192,75346,1,0,0:0:0:0:
192,192,75457,1,0,0:0:0:0:
320,192,75569,1,8,0:0:0:0:
448,192,75569,1,0,0:0:0:0:
64,192,75680,1,0,0:0:0:0:
448,192,75791,1,0,0:0:0:0:
192,192,75902,1,8,0:0:0:0:
320,192,76013,128,2,76235:0:0:0:0:
448,192,76013,1,0,0:0:0:0:
192,192,76235,128,0,76309:0:0:0:0:
64,192,76309,128,0,76383:0:0:0:0:
320,192,76383,128,0,76457:0:0:0:0:
64,192,76457,128,2,76569:0:0:0:0:
192,192,76457,128,0,76569:0:0:0:0:
320,192,76680,128,0,76791:0:0:0:0:
448,192,76680,128,0,76791:0:0:0:0:
64,192,76902,1,2,0:0:0:0:
320,192,76902,1,4,0:0:0:0:
448,192,76902,1,0,0:0:0:0:
192,192,77013,1,0,0:0:0:0:
64,192,77124,1,0,0:0:0:0:
448,192,77235,1,0,0:0:0:0:
192,192,77346,1,8,0:0:0:0:
448,192,77346,1,0,0:0:0:0:
64,192,77457,1,0,0:0:0:0:
320,192,77569,1,0,0:0:0:0:
192,192,77680,1,0,0:0:0:0:
64,192,77791,1,2,0:0:0:0:
192,192,77791,1,0,0:0:0:0:
448,192,77902,1,0,0:0:0:0:
64,192,78013,1,0,0:0:0:0:
320,192,78124,1,0,0:0:0:0:
64,192,78235,1,8,0:0:0:0:
192,192,78235,1,0,0:0:0:0:
320,192,78346,1,0,0:0:0:0:
448,192,78457,1,0,0:0:0:0:
320,192,78680,1,2,0:0:0:0:
448,192,78680,1,0,0:0:0:0:
192,192,78791,1,0,0:0:0:0:
64,192,78902,1,0,0:0:0:0:
448,192,79013,1,0,0:0:0:0:
192,192,79124,1,8,0:0:0:0:
448,192,79124,1,0,0:0:0:0:
64,192,79235,1,0,0:0:0:0:
320,192,79346,1,0,0:0:0:0:
192,192,79457,1,0,0:0:0:0:
64,192,79569,1,2,0:0:0:0:
192,192,79569,1,0,0:0:0:0:
448,192,79680,1,0,0:0:0:0:
64,192,79791,1,0,0:0:0:0:
320,192,79902,1,0,0:0:0:0:
64,192,80013,1,8,0:0:0:0:
192,192,80013,1,0,0:0:0:0:
320,192,80124,1,0,0:0:0:0:
448,192,80235,1,0,0:0:0:0:
320,192,80457,1,2,0:0:0:0:
448,192,80457,1,0,0:0:0:0:
192,192,80569,1,0,0:0:0:0:
64,192,80680,1,0,0:0:0:0:
448,192,80791,1,0,0:0:0:0:
192,192,80902,1,8,0:0:0:0:
448,192,80902,1,0,0:0:0:0:
64,192,81013,1,0,0:0:0:0:
320,192,81124,1,0,0:0:0:0:
192,192,81235,1,0,0:0:0:0:
192,192,81346,1,2,0:0:0:0:
448,192,81346,1,0,0:0:0:0:
64,192,81457,1,0,0:0:0:0:
448,192,81569,1,0,0:0:0:0:
192,192,81680,1,0,0:0:0:0:
320,192,81791,1,8,0:0:0:0:
448,192,81791,1,0,0:0:0:0:
192,192,81902,1,0,0:0:0:0:
320,192,82013,1,0,0:0:0:0:
64,192,82124,1,0,0:0:0:0:
192,192,82235,1,2,0:0:0:0:
320,192,82235,128,0,82346:0:0:0:0:
64,192,82346,1,0,0:0:0:0:
192,192,82457,128,0,82569:0:0:0:0:
320,192,82569,1,0,0:0:0:0:
64,192,82680,128,8,82791:0:0:0:0:
192,192,82680,1,0,0:0:0:0:
320,192,82791,1,0,0:0:0:0:
448,192,82902,128,0,83013:0:0:0:0:
192,192,83013,1,0,0:0:0:0:
320,192,83124,128,2,83235:0:0:0:0:
448,192,83124,1,0,0:0:0:0:
192,192,83235,1,0,0:0:0:0:
64,192,83346,128,8,83457:0:0:0:0:
192,192,83457,1,0,0:0:0:0:
320,192,83569,1,2,0:0:0:0:
448,192,83569,1,0,0:0:0:70:tick.wav
64,192,83680,1,0,0:0:0:70:tom1.wav
192,192,83680,1,0,0:0:0:0:
320,192,83791,1,0,0:0:0:70:tom2.wav
448,192,83791,1,0,0:0:0:70:tick.wav
64,192,84013,1,4,0:0:0:0:
192,192,84013,1,2,0:0:0:0:
448,192,84013,1,0,0:0:0:0:
320,192,84124,1,0,0:0:0:0:
448,192,84235,1,0,0:0:0:0:
64,192,84346,1,0,0:0:0:0:
64,192,84457,1,8,0:0:0:0:
320,192,84457,1,0,0:0:0:0:
448,192,84569,1,0,0:0:0:0:
192,192,84680,1,0,0:0:0:0:
320,192,84791,1,0,0:0:0:0:
320,192,84902,1,2,0:0:0:0:
448,192,84902,1,0,0:0:0:0:
64,192,85013,1,0,0:0:0:0:
448,192,85124,1,0,0:0:0:0:
192,192,85235,1,0,0:0:0:0:
320,192,85346,1,8,0:0:0:0:
448,192,85346,1,0,0:0:0:0:
192,192,85457,1,0,0:0:0:0:
64,192,85569,1,0,0:0:0:0:
64,192,85791,1,2,0:0:0:0:
192,192,85791,1,0,0:0:0:0:
320,192,85902,1,0,0:0:0:0:
448,192,86013,1,0,0:0:0:0:
64,192,86124,1,0,0:0:0:0:
64,192,86235,1,8,0:0:0:0:
320,192,86235,1,0,0:0:0:0:
448,192,86346,1,0,0:0:0:0:
192,192,86457,1,0,0:0:0:0:
320,192,86569,1,0,0:0:0:0:
320,192,86680,1,2,0:0:0:0:
448,192,86680,1,0,0:0:0:0:
64,192,86791,1,0,0:0:0:0:
448,192,86902,1,0,0:0:0:0:
192,192,87013,1,0,0:0:0:0:
320,192,87124,1,8,0:0:0:0:
448,192,87124,1,0,0:0:0:0:
192,192,87235,1,0,0:0:0:0:
64,192,87346,1,0,0:0:0:0:
64,192,87569,1,2,0:0:0:0:
192,192,87569,1,0,0:0:0:0:
320,192,87680,1,0,0:0:0:0:
448,192,87791,1,0,0:0:0:0:
64,192,87902,1,0,0:0:0:0:
64,192,88013,1,8,0:0:0:0:
320,192,88013,1,0,0:0:0:0:
448,192,88124,1,0,0:0:0:0:
192,192,88235,1,0,0:0:0:0:
320,192,88346,1,0,0:0:0:0:
320,192,88457,1,2,0:0:0:0:
448,192,88457,1,0,0:0:0:0:
64,192,88569,1,0,0:0:0:0:
448,192,88680,1,0,0:0:0:0:
192,192,88791,1,0,0:0:0:0:
320,192,88902,1,8,0:0:0:0:
448,192,88902,1,0,0:0:0:0:
192,192,89013,1,0,0:0:0:0:
320,192,89124,1,0,0:0:0:0:
64,192,89235,1,0,0:0:0:0:
192,192,89346,1,2,0:0:0:0:
320,192,89346,1,0,0:0:0:0:
448,192,89457,1,0,0:0:0:0:
192,192,89569,1,0,0:0:0:0:
320,192,89680,1,0,0:0:0:0:
64,192,89791,1,8,0:0:0:0:
192,192,89791,1,0,0:0:0:0:
448,192,89902,1,0,0:0:0:0:
64,192,90013,1,0,0:0:0:0:
320,192,90124,1,0,0:0:0:0:
64,192,90235,1,2,0:0:0:0:
192,192,90235,128,0,90457:0:0:0:0:
320,192,90457,128,0,90532:0:0:0:0:
448,192,90532,128,0,90606:0:0:0:0:
192,192,90606,128,0,90680:0:0:0:0:
320,192,90680,128,8,90791:0:0:0:0:
448,192,90680,128,0,90791:0:0:0:0:
64,192,90902,128,0,91013:0:0:0:0:
192,192,90902,128,0,91013:0:0:0:0:
64,192,91124,1,4,0:0:0:0:
192,192,91124,1,2,0:0:0:0:
448,192,91124,1,0,0:0:0:0:
320,192,91235,1,0,0:0:0:0:
448,192,91346,1,0,0:0:0:0:
64,192,91457,1,0,0:0:0:0:
64,192,91569,1,8,0:0:0:0:
320,192,91569,1,0,0:0:0:0:
448,192,91680,1,0,0:0:0:0:
192,192,91791,1,0,0:0:0:0:
320,192,91902,1,0,0:0:0:0:
320,192,92013,1,2,0:0:0:0:
448,192,92013,1,0,0:0:0:0:
64,192,92124,1,0,0:0:0:0:
448,192,92235,1,0,0:0:0:0:
192,192,92346,1,0,0:0:0:0:
320,192,92457,1,8,0:0:0:0:
448,192,92457,1,0,0:0:0:0:
192,192,92569,1,0,0:0:0:0:
64,192,92680,1,0,0:0:0:0:
64,192,92902,1,2,0:0:0:0:
192,192,92902,1,0,0:0:0:0:
320,192,93013,1,0,0:0:0:0:
448,192,93124,1,0,0:0:0:0:
64,192,93235,1,0,0:0:0:0:
64,192,93346,1,8,0:0:0:0:
320,192,93346,1,0,0:0:0:0:
448,192,93457,1,0,0:0:0:0:
192,192,93569,1,0,0:0:0:0:
320,192,93680,1,0,0:0:0:0:
320,192,93791,1,2,0:0:0:0:
448,192,93791,1,0,0:0:0:0:
64,192,93902,1,0,0:0:0:0:
448,192,94013,1,0,0:0:0:0:
192,192,94124,1,0,0:0:0:0:
320,192,94235,1,8,0:0:0:0:
448,192,94235,1,0,0:0:0:0:
192,192,94346,1,0,0:0:0:0:
64,192,94457,1,0,0:0:0:0:
64,192,94680,1,2,0:0:0:0:
192,192,94680,1,0,0:0:0:0:
320,192,94791,1,0,0:0:0:0:
448,192,94902,1,0,0:0:0:0:
64,192,95013,1,0,0:0:0:0:
64,192,95124,1,8,0:0:0:0:
320,192,95124,1,0,0:0:0:0:
448,192,95235,1,0,0:0:0:0:
192,192,95346,1,0,0:0:0:0:
320,192,95457,1,0,0:0:0:0:
320,192,95569,1,2,0:0:0:0:
448,192,95569,1,0,0:0:0:0:
64,192,95680,1,0,0:0:0:0:
448,192,95791,1,0,0:0:0:0:
192,192,95902,1,0,0:0:0:0:
320,192,96013,1,8,0:0:0:0:
448,192,96013,1,0,0:0:0:0:
192,192,96124,1,0,0:0:0:0:
320,192,96235,1,0,0:0:0:0:
64,192,96346,1,0,0:0:0:0:
192,192,96457,128,2,96569:0:0:0:0:
320,192,96457,1,4,0:0:0:0:
448,192,96569,1,0,0:0:0:0:
64,192,96680,128,8,96791:0:0:0:0:
192,192,96680,1,0,0:0:0:0:
320,192,96902,1,2,0:0:0:0:
448,192,96902,128,0,97013:0:0:0:0:
64,192,97013,1,8,0:0:0:0:
192,192,97124,1,0,0:0:0:70:tom1.wav
320,192,97124,128,0,97235:0:0:0:0:
64,192,97346,1,2,0:0:0:0:
192,192,97346,128,4,97457:0:0:0:0:
320,192,97457,1,0,0:0:0:0:
64,192,97569,1,0,0:0:0:70:tick.wav
448,192,97569,128,0,97680:0:0:0:0:
192,192,97680,1,0,0:0:0:0:
320,192,97791,1,2,0:0:0:0:
448,192,97791,1,0,0:0:0:70:tick.wav
64,192,97902,1,0,0:0:0:0:
192,192,97902,1,0,0:0:0:0:
320,192,98013,1,0,0:0:0:70:tom2.wav
448,192,98013,1,0,0:0:0:70:tick.wav
64,192,98235,1,2,0:0:0:0:
192,192,98235,1,0,0:0:0:0:
320,192,98309,1,0,0:0:0:0:
448,192,98383,1,0,0:0:0:0:
192,192,98457,1,8,0:0:0:0:
320,192,98532,1,0,0:0:0:0:
64,192,98606,1,0,0:0:0:0:
192,192,98680,1,8,0:0:0:0:
320,192,98754,1,0,0:0:0:0:
448,192,98828,1,0,0:0:0:0:
192,192,98902,1,0,0:0:0:0:
320,192,98976,1,0,0:0:0:0:
64,192,99050,1,0,0:0:0:0:
192,192,99124,1,10,0:0:0:0:
448,192,99124,1,4,0:0:0:0:
64,192,99346,1,0,0:0:0:0:
192,192,99569,1,0,0:0:0:0:
320,192,99791,1,0,0:0:0:0:
64,192,100013,1,2,0:0:0:0:
448,192,100013,128,0,100235:0:0:0:0:
192,192,100124,1,0,0:0:0:0:
320,192,100235,1,0,0:0:0:0:
448,192,100346,1,0,0:0:0:0:
64,192,100457,1,8,0:0:0:0:
192,192,100457,1,0,0:0:0:0:
320,192,100569,1,0,0:0:0:0:
192,192,100680,1,0,0:0:0:0:
64,192,100791,1,0,0:0:0:0:
320,192,100902,1,2,0:0:0:0:
448,192,100902,1,0,0:0:0:0:
192,192,101013,1,0,0:0:0:0:
448,192,101124,1,0,0:0:0:0:
320,192,101235,1,0,0:0:0:0:
64,192,101346,1,8,0:0:0:0:
192,192,101346,1,0,0:0:0:0:
320,192,101569,1,0,0:0:0:0:
320,192,101680,1,0,0:0:0:0:
64,192,101791,128,2,102013:0:0:0:0:
448,192,101791,1,0,0:0:0:0:
192,192,101902,1,0,0:0:0:0:
320,192,102013,1,0,0:0:0:0:
448,192,102124,1,0,0:0:0:0:
64,192,102235,1,8,0:0:0:0:
192,192,102235,1,0,0:0:0:0:
320,192,102346,1,0,0:0:0:0:
192,192,102457,1,0,0:0:0:0:
320,192,102569,1,0,0:0:0:0:
64,192,102680,1,2,0:0:0:0:
448,192,102680,1,0,0:0:0:0:
192,192,102791,1,0,0:0:0:0:
320,192,102902,1,0,0:0:0:0:
448,192,103013,1,0,0:0:0:0:
64,192,103124,1,8,0:0:0:0:
192,192,103124,1,0,0:0:0:0:
192,192,103346,1,0,0:0:0:0:
64,192,103457,1,0,0:0:0:0:
320,192,103569,1,2,0:0:0:0:
448,192,103569,128,0,103791:0:0:0:0:
192,192,103680,1,0,0:0:0:0:
320,192,103791,1,0,0:0:0:0:
64,192,104013,1,8,0:0:0:0:
448,192,104013,1,0,0:0:0:0:
192,192,104124,1,0,0:0:0:0:
320,192,104235,1,0,0:0:0:0:
192,192,104346,1,0,0:0:0:0:
64,192,104457,1,2,0:0:0:0:
448,192,104457,1,0,0:0:0:0:
320,192,104569,1,0,0:0:0:0:
192,192,104680,1,0,0:0:0:0:
320,192,104791,1,0,0:0:0:0:
64,192,104902,1,8,0:0:0:0:
448,192,104902,1,0,0:0:0:0:
192,192,105013,1,0,0:0:0:0:
320,192,105124,1,0,0:0:0:0:
448,192,105235,1,0,0:0:0:0:
64,192,105346,128,2,105569:0:0:0:0:
192,192,105346,1,0,0:0:0:0:
320,192,105457,1,0,0:0:0:0:
192,192,105569,1,0,0:0:0:0:
320,192,105680,1,0,0:0:0:0:
64,192,105791,1,8,0:0:0:0:
448,192,105791,1,0,0:0:0:0:
192,192,105902,1,0,0:0:0:0:
320,192,106013,1,0,0:0:0:0:
192,192,106124,1,0,0:0:0:0:
64,192,106235,1,2,0:0:0:0:
448,192,106235,1,0,0:0:0:0:
192,192,106346,1,8,0:0:0:0:
320,192,106346,1,0,0:0:0:0:
448,192,106457,1,0,0:0:0:0:
320,192,106569,1,0,0:0:0:0:
64,192,106680,1,8,0:0:0:0:
192,192,106680,1,0,0:0:0:0:
320,192,106791,1,0,0:0:0:0:
192,192,106902,1,0,0:0:0:0:
64,192,107013,1,0,0:0:0:0:
320,192,107124,1,2,0:0:0:0:
448,192,107124,128,0,107346:0:0:0:0:
192,192,107235,1,0,0:0:0:0:
320,192,107346,1,0,0:0:0:0:
448,192,107457,1,0,0:0:0:0:
192,192,107569,1,8,0:0:0:0:
320,192,107569,1,0,0:0:0:0:
64,192,107680,1,0,0:0:0:0:
192,192,107791,1,0,0:0:0:0:
320,192,107902,1,0,0:0:0:0:
64,192,108013,1,2,0:0:0:0:
192,192,108013,1,0,0:0:0:0:
448,192,108124,1,0,0:0:0:0:
320,192,108235,1,0,0:0:0:0:
192,192,108346,1,0,0:0:0:0:
320,192,108457,1,8,0:0:0:0:
448,192,108457,1,0,0:0:0:0:
192,192,108569,1,0,0:0:0:0:
64,192,108680,1,0,0:0:0:0:
192,192,108791,1,0,0:0:0:0:
64,192,108902,128,2,109124:0:0:0:0:
320,192,108902,1,0,0:0:0:0:
448,192,109013,1,0,0:0:0:0:
192,192,109124,1,0,0:0:0:0:
320,192,109235,1,0,0:0:0:0:
64,192,109346,1,8,0:0:0:0:
448,192,109346,1,0,0:0:0:0:
192,192,109457,1,0,0:0:0:0:
320,192,109569,1,0,0:0:0:0:
448,192,109680,1,0,0:0:0:0:
64,192,109791,1,2,0:0:0:0:
192,192,109791,1,0,0:0:0:0:
320,192,110013,1,0,0:0:0:0:
192,192,110124,1,0,0:0:0:0:
64,192,110235,1,8,0:0:0:0:
448,192,110235,1,0,0:0:0:0:
320,192,110346,1,0,0:0:0:0:
192,192,110457,1,0,0:0:0:0:
320,192,110569,1,0,0:0:0:0:
64,192,110680,1,2,0:0:0:0:
448,192,110680,128,0,110902:0:0:0:0:
192,192,110902,1,0,0:0:0:0:
320,192,111013,1,0,0:0:0:0:
64,192,111124,1,8,0:0:0:0:
448,192,111124,1,0,0:0:0:0:
192,192,111235,1,0,0:0:0:0:
320,192,111346,1,0,0:0:0:0:
192,192,111457,1,0,0:0:0:0:
64,192,111569,1,2,0:0:0:0:
448,192,111569,1,0,0:0:0:0:
320,192,111791,1,0,0:0:0:0:
448,192,111902,1,0,0:0:0:0:
64,192,112013,1,8,0:0:0:0:
192,192,112013,1,0,0:0:0:0:
320,192,112124,1,0,0:0:0:0:
192,192,112235,1,0,0:0:0:0:
64,192,112346,1,0,0:0:0:0:
320,192,112457,1,2,0:0:0:0:
448,192,112457,1,0,0:0:0:0:
64,192,112569,1,0,0:0:0:0:
192,192,112680,1,8,0:0:0:0:
320,192,112680,1,0,0:0:0:0:
64,192,112902,1,8,0:0:0:0:
192,192,112902,1,2,0:0:0:0:
320,192,113013,1,8,0:0:0:0:
448,192,113013,1,0,0:0:0:0:
192,192,113124,1,0,0:0:0:0:
64,192,113235,1,0,0:0:0:0:
320,192,113346,1,2,0:0:0:0:
448,192,113346,1,4,0:0:0:0:
64,192,113457,1,0,0:0:0:0:
192,192,113457,1,0,0:0:0:0:
320,192,113569,1,8,0:0:0:0:
448,192,113569,1,0,0:0:0:0:
64,192,113791,1,0,0:0:0:70:tom1.wav
448,192,113791,1,0,0:0:0:0:
192,192,113902,1,0,0:0:0:70:tom1.wav
320,192,114013,1,0,0:0:0:70:tom2.wav
448,192,114124,1,0,0:0:0:70:tom2.wav
64,192,114235,128,2,114457:0:0:0:0:
192,192,114235,1,4,0:0:0:0:
320,192,114346,1,0,0:0:0:0:
448,192,114457,1,0,0:0:0:0:
192,192,114569,1,0,0:0:0:0:
320,192,114680,1,8,0:0:0:0:
448,192,114680,1,0,0:0:0:0:
64,192,114791,1,0,0:0:0:0:
320,192,114902,1,0,0:0:0:0:
448,192,115013,1,0,0:0:0:0:
64,192,115124,1,2,0:0:0:0:
192,192,115124,1,0,0:0:0:0:
320,192,115235,1,0,0:0:0:0:
64,192,115346,1,0,0:0:0:0:
320,192,115457,1,0,0:0:0:0:
64,192,115569,1,8,0:0:0:0:
192,192,115569,1,0,0:0:0:0:
448,192,115680,1,0,0:0:0:0:
192,192,115791,1,0,0:0:0:0:
448,192,115902,1,0,0:0:0:0:
192,192,116013,128,2,116235:0:0:0:0:
320,192,116013,1,0,0:0:0:0:
64,192,116124,1,0,0:0:0:0:
320,192,116235,1,0,0:0:0:0:
64,192,116346,1,0,0:0:0:0:
320,192,116457,1,8,0:0:0:0:
448,192,116457,1,0,0:0:0:0:
192,192,116569,1,0,0:0:0:0:
448,192,116680,1,0,0:0:0:0:
192,192,116791,1,0,0:0:0:0:
64,192,116902,1,2,0:0:0:0:
448,192,116902,1,0,0:0:0:0:
192,192,117013,1,0,0:0:0:0:
320,192,117124,1,0,0:0:0:0:
448,192,117235,1,0,0:0:0:0:
64,192,117346,1,8,0:0:0:0:
320,192,117346,1,0,0:0:0:0:
192,192,117457,1,0,0:0:0:0:
320,192,117569,1,0,0:0:0:0:
448,192,117680,1,0,0:0:0:0:
64,192,117791,128,2,118013:0:0:0:0:
192,192,117791,1,0,0:0:0:0:
320,192,117902,1,0,0:0:0:0:
192,192,118013,1,0,0:0:0:0:
64,192,118235,1,8,0:0:0:0:
320,192,118235,1,0,0:0:0:0:
448,192,118346,1,0,0:0:0:0:
64,192,118457,1,0,0:0:0:0:
192,192,118569,1,0,0:0:0:0:
320,192,118680,1,2,0:0:0:0:
448,192,118680,1,0,0:0:0:0:
64,192,118791,1,0,0:0:0:0:
320,192,118902,1,0,0:0:0:0:
64,192,119013,1,0,0:0:0:0:
192,192,119124,1,8,0:0:0:0:
448,192,119124,1,0,0:0:0:0:
320,192,119235,1,0,0:0:0:0:
448,192,119346,1,0,0:0:0:0:
192,192,119457,1,0,0:0:0:0:
320,192,119569,1,2,0:0:0:0:
448,192,119569,128,0,119791:0:0:0:0:
64,192,119680,1,0,0:0:0:0:
320,192,119791,1,0,0:0:0:0:
192,192,119902,1,0,0:0:0:0:
64,192,120013,1,8,0:0:0:0:
448,192,120013,1,0,0:0:0:0:
320,192,120124,1,0,0:0:0:0:
448,192,120235,1,0,0:0:0:0:
192,192,120346,1,8,0:0:0:0:
320,192,120346,1,0,0:0:0:0:
192,192,120569,1,8,0:0:0:0:
320,192,120569,1,0,0:0:0:0:
64,192,120680,1,0,0:0:0:0:
448,192,120791,1,0,0:0:0:0:
64,192,120902,1,8,0:0:0:0:
192,192,120902,1,0,0:0:0:0:
320,192,121013,1,0,0:0:0:0:
64,192,121124,1,8,0:0:0:0:
192,192,121124,1,0,0:0:0:0:
448,192,121235,1,8,0:0:0:0:
192,192,121346,128,2,121569:0:0:0:0:
320,192,121346,1,0,0:0:0:0:
64,192,121457,1,0,0:0:0:0:
320,192,121569,1,0,0:0:0:0:
64,192,121680,1,0,0:0:0:0:
192,192,121791,1,8,0:0:0:0:
320,192,121791,1,0,0:0:0:0:
448,192,121902,1,0,0:0:0:0:
192,192,122013,1,0,0:0:0:0:
448,192,122124,1,0,0:0:0:0:
192,192,122235,1,2,0:0:0:0:
320,192,122235,1,0,0:0:0:0:
64,192,122346,1,0,0:0:0:0:
320,192,122457,1,0,0:0:0:0:
448,192,122569,1,0,0:0:0:0:
192,192,122680,1,8,0:0:0:0:
320,192,122680,1,0,0:0:0:0:
64,192,122791,1,0,0:0:0:0:
192,192,122902,1,0,0:0:0:0:
448,192,123013,1,0,0:0:0:0:
192,192,123124,128,2,123346:0:0:0:0:
320,192,123124,1,0,0:0:0:0:
64,192,123235,1,0,0:0:0:0:
320,192,123346,1,0,0:0:0:0:
192,192,123457,1,0,0:0:0:0:
64,192,123569,1,8,0:0:0:0:
448,192,123569,1,0,0:0:0:0:
320,192,123680,1,0,0:0:0:0:
192,192,123791,1,0,0:0:0:0:
448,192,123902,1,0,0:0:0:0:
192,192,124013,1,2,0:0:0:0:
320,192,124013,1,0,0:0:0:0:
64,192,124235,1,0,0:0:0:0:
192,192,124346,1,0,0:0:0:0:
320,192,124457,1,8,0:0:0:0:
448,192,124457,1,0,0:0:0:0:
192,192,124569,1,0,0:0:0:0:
320,192,124680,1,0,0:0:0:0:
448,192,124791,1,0,0:0:0:0:
192,192,124902,1,2,0:0:0:0:
320,192,124902,128,0,125124:0:0:0:0:
64,192,125013,1,0,0:0:0:0:
192,192,125124,1,0,0:0:0:0:
320,192,125235,1,0,0:0:0:0:
64,192,125346,1,8,0:0:0:0:
192,192,125346,1,0,0:0:0:0:
448,192,125569,1,0,0:0:0:0:
320,192,125680,1,0,0:0:0:0:
64,192,125791,1,2,0:0:0:0:
192,192,125791,1,0,0:0:0:0:
320,192,125902,1,8,0:0:0:0:
192,192,126013,1,0,0:0:0:0:
64,192,126124,1,0,0:0:0:0:
320,192,126235,1,8,0:0:0:0:
448,192,126235,1,0,0:0:0:0:
192,192,126346,1,0,0:0:0:0:
320,192,126457,1,0,0:0:0:0:
448,192,126569,1,0,0:0:0:0:
192,192,126680,1,2,0:0:0:0:
320,192,126680,128,0,126902:0:0:0:0:
192,192,126902,1,8,0:0:0:0:
448,192,126902,1,0,0:0:0:0:
64,192,127124,1,8,0:0:0:0:
192,192,127124,1,0,0:0:0:0:
320,192,127235,1,8,0:0:0:0:
448,192,127235,1,0,0:0:0:0:
192,192,127346,1,0,0:0:0:70:tom1.wav
320,192,127569,1,2,0:0:0:0:
448,192,127569,1,0,0:0:0:70:tom2.wav
192,192,127717,1,8,0:0:0:0:
320,192,127717,1,0,0:0:0:0:
64,192,128013,1,2,0:0:0:0:
192,192,128013,1,8,0:0:0:0:
320,192,128124,1,0,0:0:0:70:tom1.wav
448,192,128124,1,0,0:0:0:0:
192,192,128235,1,0,0:0:0:70:tom2.wav
448,192,128346,1,0,0:0:0:70:tom3.wav
64,192,128457,1,4,0:0:0:0:
192,192,128457,1,2,0:0:0:0:
320,192,128457,1,0,0:0:0:0:
192,192,128902,1,0,0:0:0:0:
64,192,129235,1,0,0:0:0:0:
320,192,129346,1,0,0:0:0:0:
448,192,129569,1,0,0:0:0:0:
192,192,129791,1,0,0:0:0:0:
320,192,130013,1,0,0:0:0:0:
64,192,130235,1,2,0:0:0:0:
192,192,130235,1,4,0:0:0:0:
320,192,130235,1,0,0:0:0:0:
64,192,130457,1,0,0:0:0:0:
192,192,130902,1,0,0:0:0:0:
320,192,131346,1,0,0:0:0:0:
448,192,131569,1,0,0:0:0:0:
320,192,131791,1,0,0:0:0:0:
192,192,132013,1,2,0:0:0:0:
320,192,132013,1,4,0:0:0:0:
448,192,132013,1,0,0:0:0:0:
192,192,132235,1,0,0:0:0:0:
320,192,132457,1,0,0:0:0:0:
320,192,133124,1,0,0:0:0:0:
448,192,133346,1,0,0:0:0:0:
192,192,133569,1,2,0:0:0:0:
320,192,133569,1,8,0:0:0:0:
192,192,134013,1,8,0:0:0:0:
320,192,134013,1,4,0:0:0:0:
192,192,134235,1,4,0:0:0:0:
320,192,134235,1,2,0:0:0:0:
320,192,134457,1,0,0:0:0:70:tom2.wav
64,192,134680,1,2,0:0:0:0:
192,192,134680,1,0,0:0:0:0:
320,192,134754,1,0,0:0:0:0:
448,192,134828,1,0,0:0:0:0:
64,192,134902,1,0,0:0:0:0:
192,192,134976,1,0,0:0:0:0:
448,192,135050,1,0,0:0:0:0:
320,192,135124,1,2,0:0:0:0:
192,192,135198,1,0,0:0:0:0:
64,192,135272,1,0,0:0:0:0:
320,192,135346,1,0,0:0:0:70:tom4.wav
192,192,135420,1,0,0:0:0:0:
448,192,135495,1,0,0:0:0:0:
64,192,135569,1,4,0:0:0:0:
320,192,135569,1,2,0:0:0:0:
192,192,135680,1,0,0:0:0:0:
448,192,135791,1,0,0:0:0:0:
64,192,136013,1,8,0:0:0:0:
320,192,136013,1,0,0:0:0:0:
448,192,136124,1,0,0:0:0:0:
320,192,136346,1,0,0:0:0:0:
64,192,136457,1,2,0:0:0:0:
320,192,136457,1,0,0:0:0:0:
192,192,136680,1,0,0:0:0:0:
64,192,136902,1,8,0:0:0:0:
320,192,136902,1,0,0:0:0:0:
192,192,137124,1,0,0:0:0:0:
192,192,137346,1,2,0:0:0:0:
448,192,137346,1,0,0:0:0:0:
64,192,137457,1,0,0:0:0:0:
320,192,137569,1,0,0:0:0:0:
192,192,137791,1,8,0:0:0:0:
448,192,137791,1,0,0:0:0:0:
64,192,137902,1,0,0:0:0:0:
192,192,138124,1,0,0:0:0:0:
192,192,138235,1,2,0:0:0:0:
448,192,138235,1,0,0:0:0:0:
320,192,138457,1,0,0:0:0:0:
192,192,138680,1,8,0:0:0:0:
448,192,138680,1,0,0:0:0:0:
64,192,138902,1,0,0:0:0:0:
192,192,139013,1,0,0:0:0:0:
320,192,139124,1,2,0:0:0:0:
448,192,139124,1,4,0:0:0:0:
320,192,139346,1,0,0:0:0:0:
448,192,139457,1,0,0:0:0:0:
64,192,139569,1,8,0:0:0:0:
192,192,139569,1,0,0:0:0:0:
192,192,139791,1,0,0:0:0:0:
64,192,139902,1,0,0:0:0:0:
320,192,140013,1,2,0:0:0:0:
448,192,140013,1,0,0:0:0:0:
192,192,140124,1,0,0:0:0:0:
320,192,140235,1,0,0:0:0:0:
192,192,140457,1,8,0:0:0:0:
448,192,140457,1,0,0:0:0:0:
64,192,140569,1,0,0:0:0:0:
320,192,140680,1,0,0:0:0:0:
192,192,140791,1,0,0:0:0:0:
64,192,140902,1,2,0:0:0:0:
448,192,140902,1,0,0:0:0:0:
320,192,141013,1,0,0:0:0:0:
192,192,141124,1,0,0:0:0:0:
320,192,141235,1,0,0:0:0:0:
64,192,141346,1,8,0:0:0:0:
448,192,141346,1,0,0:0:0:0:
192,192,141457,1,0,0:0:0:0:
320,192,141569,1,0,0:0:0:0:
192,192,141680,1,0,0:0:0:0:
64,192,141791,1,2,0:0:0:0:
320,192,141791,1,0,0:0:0:0:
448,192,141902,1,0,0:0:0:0:
192,192,142013,1,0,0:0:0:0:
320,192,142124,1,0,0:0:0:0:
64,192,142235,1,8,0:0:0:0:
448,192,142235,1,0,0:0:0:0:
192,192,142346,1,0,0:0:0:0:
64,192,142457,1,0,0:0:0:0:
320,192,142569,1,0,0:0:0:0:
192,192,142624,1,0,0:0:0:0:
64,192,142680,1,2,0:0:0:0:
448,192,142680,1,4,0:0:0:0:
64,192,142902,1,8,0:0:0:0:
192,192,142902,1,0,0:0:0:0:
64,192,143124,1,8,0:0:0:0:
192,192,143124,1,0,0:0:0:0:
192,192,143346,1,8,0:0:0:0:
64,192,143420,1,8,0:0:0:0:
192,192,143495,1,8,0:0:0:0:
320,192,143569,1,8,0:0:0:0:
448,192,143569,1,0,0:0:0:0:
64,192,143680,1,8,0:0:0:0:
320,192,143791,1,0,0:0:0:0:
64,192,143902,1,8,0:0:0:0:
192,192,143902,1,0,0:0:0:0:
320,192,144013,1,2,0:0:0:0:
448,192,144013,1,0,0:0:0:0:
192,192,144124,1,0,0:0:0:70:tom1.wav
320,192,144235,1,0,0:0:0:70:tom2.wav
192,192,144346,1,0,0:0:0:70:tom3.wav
64,192,144457,128,2,146124:0:0:0:0:
448,192,144457,128,0,146124:0:0:0:0:
64,192,146235,1,4,0:0:0:0:
448,192,146235,128,2,146457:0:0:0:0:
192,192,146346,1,0,0:0:0:0:
64,192,146457,1,0,0:0:0:0:
448,192,146569,1,0,0:0:0:0:
192,192,146680,1,8,0:0:0:0:
448,192,146680,1,0,0:0:0:0:
64,192,146791,1,0,0:0:0:0:
320,192,146902,1,0,0:0:0:0:
192,192,147013,1,0,0:0:0:0:
64,192,147124,1,2,0:0:0:0:
192,192,147124,1,0,0:0:0:0:
448,192,147235,1,0,0:0:0:0:
64,192,147346,1,0,0:0:0:0:
320,192,147457,1,0,0:0:0:0:
64,192,147569,1,8,0:0:0:0:
192,192,147569,1,0,0:0:0:0:
320,192,147680,1,0,0:0:0:0:
448,192,147791,1,0,0:0:0:0:
320,192,148013,1,2,0:0:0:0:
448,192,148013,128,0,148235:0:0:0:0:
192,192,148124,1,0,0:0:0:0:
64,192,148235,1,0,0:0:0:0:
448,192,148346,1,0,0:0:0:0:
192,192,148457,1,8,0:0:0:0:
448,192,148457,1,0,0:0:0:0:
64,192,148569,1,0,0:0:0:0:
320,192,148680,1,0,0:0:0:0:
192,192,148791,1,0,0:0:0:0:
64,192,148902,1,2,0:0:0:0:
192,192,148902,1,0,0:0:0:0:
448,192,149013,1,0,0:0:0:0:
64,192,149124,1,0,0:0:0:0:
320,192,149235,1,0,0:0:0:0:
64,192,149346,1,8,0:0:0:0:
192,192,149346,1,0,0:0:0:0:
320,192,149457,1,0,0:0:0:0:
448,192,149569,1,0,0:0:0:0:
320,192,149791,1,2,0:0:0:0:
448,192,149791,128,0,150013:0:0:0:0:
192,192,149902,1,0,0:0:0:0:
64,192,150013,1,0,0:0:0:0:
448,192,150124,1,0,0:0:0:0:
192,192,150235,1,8,0:0:0:0:
448,192,150235,1,0,0:0:0:0:
64,192,150346,1,0,0:0:0:0:
320,192,150457,1,0,0:0:0:0:
192,192,150569,1,0,0:0:0:0:
64,192,150680,1,2,0:0:0:0:
192,192,150680,1,0,0:0:0:0:
448,192,150791,1,0,0:0:0:0:
64,192,150902,1,0,0:0:0:0:
320,192,151013,1,0,0:0:0:0:
64,192,151124,1,8,0:0:0:0:
192,192,151124,1,0,0:0:0:0:
320,192,151235,1,0,0:0:0:0:
192,192,151346,1,0,0:0:0:0:
448,192,151457,1,0,0:0:0:0:
192,192,151569,1,2,0:0:0:0:
320,192,151569,1,0,0:0:0:0:
64,192,151680,1,0,0:0:0:0:
320,192,151791,1,0,0:0:0:0:
192,192,151902,1,0,0:0:0:0:
320,192,152013,1,8,0:0:0:0:
448,192,152013,1,0,0:0:0:0:
64,192,152124,1,0,0:0:0:0:
448,192,152235,1,0,0:0:0:0:
192,192,152346,1,8,0:0:0:0:
320,192,152457,128,2,152680:0:0:0:0:
448,192,152457,1,0,0:0:0:0:
192,192,152680,128,0,152754:0:0:0:0:
64,192,152754,128,0,152828:0:0:0:0:
320,192,152828,128,0,152902:0:0:0:0:
64,192,152902,128,2,153013:0:0:0:0:
192,192,152902,128,0,153013:0:0:0:0:
320,192,153124,128,0,153235:0:0:0:0:
448,192,153124,128,0,153235:0:0:0:0:
64,192,153346,1,2,0:0:0:0:
320,192,153346,1,4,0:0:0:0:
448,192,153346,128,0,153569:0:0:0:0:
192,192,153457,1,0,0:0:0:0:
64,192,153569,1,0,0:0:0:0:
448,192,153680,1,0,0:0:0:0:
192,192,153791,1,8,0:0:0:0:
448,192,153791,1,0,0:0:0:0:
64,192,153902,1,0,0:0:0:0:
320,192,154013,1,0,0:0:0:0:
192,192,154124,1,0,0:0:0:0:
64,192,154235,1,2,0:0:0:0:
192,192,154235,1,0,0:0:0:0:
448,192,154346,1,0,0:0:0:0:
64,192,154457,1,0,0:0:0:0:
320,192,154569,1,0,0:0:0:0:
64,192,154680,1,8,0:0:0:0:
192,192,154680,1,0,0:0:0:0:
320,192,154791,1,0,0:0:0:0:
448,192,154902,1,0,0:0:0:0:
320,192,155124,1,2,0:0:0:0:
448,192,155124,128,0,155346:0:0:0:0:
192,192,155235,1,0,0:0:0:0:
64,192,155346,1,0,0:0:0:0:
448,192,155457,1,0,0:0:0:0:
192,192,155569,1,8,0:0:0:0:
448,192,155569,1,0,0:0:0:0:
64,192,155680,1,0,0:0:0:0:
320,192,155791,1,0,0:0:0:0:
192,192,155902,1,0,0:0:0:0:
64,192,156013,1,2,0:0:0:0:
192,192,156013,1,0,0:0:0:0:
448,192,156124,1,0,0:0:0:0:
64,192,156235,1,0,0:0:0:0:
320,192,156346,1,0,0:0:0:0:
64,192,156457,1,8,0:0:0:0:
192,192,156457,1,0,0:0:0:0:
320,192,156569,1,0,0:0:0:0:
448,192,156680,1,0,0:0:0:0:
320,192,156902,1,2,0:0:0:0:
448,192,156902,128,0,157124:0:0:0:0:
192,192,157013,1,0,0:0:0:0:
64,192,157124,1,0,0:0:0:0:
448,192,157235,1,0,0:0:0:0:
192,192,157346,1,8,0:0:0:0:
448,192,157346,1,0,0:0:0:0:
64,192,157457,1,0,0:0:0:0:
320,192,157569,1,0,0:0:0:0:
192,192,157680,1,0,0:0:0:0:
192,192,157791,1,2,0:0:0:0:
448,192,157791,1,0,0:0:0:0:
64,192,157902,1,0,0:0:0:0:
448,192,158013,1,0,0:0:0:0:
192,192,158124,1,0,0:0:0:0:
320,192,158235,1,8,0:0:0:0:
448,192,158235,1,0,0:0:0:0:
192,192,158346,1,0,0:0:0:0:
320,192,158457,1,0,0:0:0:0:
64,192,158569,1,0,0:0:0:0:
192,192,158680,1,2,0:0:0:0:
320,192,158680,128,0,158791:0:0:0:0:
64,192,158791,1,0,0:0:0:0:
192,192,158902,128,0,159013:0:0:0:0:
320,192,159013,1,0,0:0:0:0:
64,192,159124,128,8,159235:0:0:0:0:
192,192,159124,1,0,0:0:0:0:
320,192,159235,1,0,0:0:0:0:
448,192,159346,128,0,159457:0:0:0:0:
192,192,159457,1,0,0:0:0:0:
320,192,159569,128,2,159680:0:0:0:0:
448,192,159569,1,0,0:0:0:0:
192,192,159680,1,0,0:0:0:0:
64,192,159791,128,8,159902:0:0:0:0:
192,192,159902,1,0,0:0:0:0:
320,192,160013,1,2,0:0:0:0:
448,192,160013,1,0,0:0:0:70:tick.wav
64,192,160124,1,0,0:0:0:70:tom1.wav
192,192,160124,1,0,0:0:0:0:
320,192,160235,1,0,0:0:0:70:tom2.wav
448,192,160235,1,0,0:0:0:70:tick.wav
64,192,160457,1,4,0:0:0:0:
192,192,160457,1,2,0:0:0:0:
448,192,160457,1,0,0:0:0:0:
320,192,160569,1,0,0:0:0:0:
448,192,160680,1,0,0:0:0:0:
64,192,160791,1,0,0:0:0:0:
64,192,160902,1,8,0:0:0:0:
320,192,160902,1,0,0:0:0:0:
448,192,161013,1,0,0:0:0:0:
192,192,161124,1,0,0:0:0:0:
320,192,161235,1,0,0:0:0:0:
320,192,161346,1,2,0:0:0:0:
448,192,161346,1,0,0:0:0:0:
64,192,161457,1,0,0:0:0:0:
448,192,161569,1,0,0:0:0:0:
192,192,161680,1,0,0:0:0:0:
320,192,161791,1,8,0:0:0:0:
448,192,161791,1,0,0:0:0:0:
192,192,161902,1,0,0:0:0:0:
64,192,162013,1,0,0:0:0:0:
64,192,162235,128,2,162457:0:0:0:0:
192,192,162235,1,0,0:0:0:0:
320,192,162346,1,0,0:0:0:0:
448,192,162457,1,0,0:0:0:0:
64,192,162569,1,0,0:0:0:0:
64,192,162680,1,8,0:0:0:0:
320,192,162680,1,0,0:0:0:0:
448,192,162791,1,0,0:0:0:0:
192,192,162902,1,0,0:0:0:0:
320,192,163013,1,0,0:0:0:0:
320,192,163124,1,2,0:0:0:0:
448,192,163124,1,0,0:0:0:0:
64,192,163235,1,0,0:0:0:0:
448,192,163346,1,0,0:0:0:0:
192,192,163457,1,0,0:0:0:0:
320,192,163569,1,8,0:0:0:0:
448,192,163569,1,0,0:0:0:0:
192,192,163680,1,0,0:0:0:0:
64,192,163791,1,0,0:0:0:0:
64,192,164013,128,2,164235:0:0:0:0:
192,192,164013,1,0,0:0:0:0:
320,192,164124,1,0,0:0:0:0:
448,192,164235,1,0,0:0:0:0:
64,192,164457,1,8,0:0:0:0:
320,192,164457,1,0,0:0:0:0:
448,192,164569,1,0,0:0:0:0:
192,192,164680,1,0,0:0:0:0:
320,192,164791,1,0,0:0:0:0:
320,192,164902,1,2,0:0:0:0:
448,192,164902,1,0,0:0:0:0:
64,192,165013,1,0,0:0:0:0:
448,192,165124,1,0,0:0:0:0:
192,192,165235,1,0,0:0:0:0:
320,192,165346,1,8,0:0:0:0:
448,192,165346,1,0,0:0:0:0:
192,192,165457,1,0,0:0:0:0:
320,192,165569,1,0,0:0:0:0:
64,192,165680,1,0,0:0:0:0:
192,192,165791,1,2,0:0:0:0:
320,192,165791,1,0,0:0:0:0:
448,192,165902,1,0,0:0:0:0:
192,192,166013,1,0,0:0:0:0:
320,192,166124,1,0,0:0:0:0:
64,192,166235,1,8,0:0:0:0:
192,192,166235,1,0,0:0:0:0:
448,192,166346,1,0,0:0:0:0:
64,192,166457,1,0,0:0:0:0:
320,192,166569,1,0,0:0:0:0:
64,192,166680,1,2,0:0:0:0:
192,192,166680,128,0,166902:0:0:0:0:
320,192,166902,128,0,166976:0:0:0:0:
448,192,166976,128,0,167050:0:0:0:0:
192,192,167050,128,0,167124:0:0:0:0:
320,192,167124,128,8,167235:0:0:0:0:
448,192,167124,128,0,167235:0:0:0:0:
64,192,167346,128,0,167457:0:0:0:0:
192,192,167346,128,0,167457:0:0:0:0:
64,192,167569,128,4,167791:0:0:0:0:
192,192,167569,1,2,0:0:0:0:
448,192,167569,1,0,0:0:0:0:
320,192,167680,1,0,0:0:0:0:
448,192,167791,1,0,0:0:0:0:
64,192,167902,1,0,0:0:0:0:
64,192,168013,1,8,0:0:0:0:
320,192,168013,1,0,0:0:0:0:
448,192,168124,1,0,0:0:0:0:
192,192,168235,1,0,0:0:0:0:
320,192,168346,1,0,0:0:0:0:
320,192,168457,1,2,0:0:0:0:
448,192,168457,1,0,0:0:0:0:
64,192,168569,1,0,0:0:0:0:
448,192,168680,1,0,0:0:0:0:
192,192,168791,1,0,0:0:0:0:
320,192,168902,1,8,0:0:0:0:
448,192,168902,1,0,0:0:0:0:
192,192,169013,1,0,0:0:0:0:
64,192,169124,1,0,0:0:0:0:
64,192,169346,128,2,169569:0:0:0:0:
192,192,169346,1,0,0:0:0:0:
320,192,169457,1,0,0:0:0:0:
448,192,169569,1,0,0:0:0:0:
64,192,169680,1,0,0:0:0:0:
64,192,169791,1,8,0:0:0:0:
320,192,169791,1,0,0:0:0:0:
448,192,169902,1,0,0:0:0:0:
192,192,170013,1,0,0:0:0:0:
320,192,170124,1,0,0:0:0:0:
320,192,170235,1,2,0:0:0:0:
448,192,170235,1,0,0:0:0:0:
64,192,170346,1,0,0:0:0:0:
448,192,170457,1,0,0:0:0:0:
192,192,170569,1,0,0:0:0:0:
320,192,170680,1,8,0:0:0:0:
448,192,170680,1,0,0:0:0:0:
192,192,170791,1,0,0:0:0:0:
64,192,170902,1,0,0:0:0:0:
64,192,171124,128,2,171346:0:0:0:0:
192,192,171124,1,0,0:0:0:0:
320,192,171235,1,0,0:0:0:0:
448,192,171346,1,0,0:0:0:0:
64,192,171457,1,0,0:0:0:0:
64,192,171569,1,8,0:0:0:0:
320,192,171569,1,0,0:0:0:0:
448,192,171680,1,0,0:0:0:0:
192,192,171791,1,0,0:0:0:0:
320,192,171902,1,0,0:0:0:0:
320,192,172013,1,2,0:0:0:0:
448,192,172013,1,0,0:0:0:0:
64,192,172124,1,0,0:0:0:0:
448,192,172235,1,0,0:0:0:0:
192,192,172346,1,0,0:0:0:0:
320,192,172457,1,8,0:0:0:0:
448,192,172457,1,0,0:0:0:0:
192,192,172569,1,0,0:0:0:0:
320,192,172680,1,0,0:0:0:0:
64,192,172791,1,0,0:0:0:0:
192,192,172902,128,2,173013:0:0:0:0:
320,192,172902,1,0,0:0:0:0:
448,192,173013,1,0,0:0:0:0:
64,192,173124,128,8,173235:0:0:0:0:
192,192,173124,1,0,0:0:0:70:tick.wav
320,192,173346,1,2,0:0:0:0:
448,192,173346,128,0,173457:0:0:0:70:tick.wav
64,192,173457,1,8,0:0:0:0:
192,192,173569,1,0,0:0:0:70:tom1.wav
320,192,173569,128,0,173680:0:0:0:70:tick.wav
64,192,173791,1,2,0:0:0:0:
192,192,173791,128,4,173902:0:0:0:0:
320,192,173902,1,0,0:0:0:0:
64,192,174013,1,8,0:0:0:0:
448,192,174013,128,0,174124:0:0:0:0:
192,192,174124,1,0,0:0:0:0:
320,192,174235,1,2,0:0:0:0:
448,192,174235,1,0,0:0:0:0:
64,192,174346,1,8,0:0:0:0:
192,192,174346,1,0,0:0:0:0:
320,192,174457,1,0,0:0:0:70:tom2.wav
448,192,174457,1,0,0:0:0:0:
64,192,174680,1,2,0:0:0:0:
192,192,174680,1,4,0:0:0:0:
320,192,174754,1,0,0:0:0:0:
448,192,174828,1,0,0:0:0:0:
64,192,175124,1,8,0:0:0:0:
192,192,175124,1,0,0:0:0:0:
320,192,175198,1,0,0:0:0:0:
448,192,175272,1,0,0:0:0:0:
320,192,175569,1,2,0:0:0:0:
448,192,175569,1,0,0:0:0:0:
192,192,175643,1,0,0:0:0:0:
64,192,175717,1,0,0:0:0:0:
320,192,175791,1,0,0:0:0:0:
64,192,176013,1,8,0:0:0:0:
192,192,176013,1,0,0:0:0:0:
320,192,176087,1,0,0:0:0:0:
448,192,176161,1,0,0:0:0:0:
192,192,176235,1,0,0:0:0:0:
320,192,176457,1,2,0:0:0:0:
448,192,176457,1,0,0:0:0:0:
192,192,176680,1,0,0:0:0:0:
448,192,176754,1,0,0:0:0:0:
320,192,176828,1,0,0:0:0:0:
64,192,176902,1,8,0:0:0:0:
192,192,176902,1,0,0:0:0:0:
448,192,177013,1,0,0:0:0:0:
64,192,177124,1,0,0:0:0:0:
192,192,177198,1,0,0:0:0:0:
320,192,177272,1,0,0:0:0:0:
64,192,177346,1,2,0:0:0:0:
448,192,177346,1,0,0:0:0:0:
320,192,177569,1,0,0:0:0:0:
448,192,177569,1,0,0:0:0:0:
192,192,177791,1,8,0:0:0:0:
320,192,177791,1,0,0:0:0:0:
64,192,178013,1,0,0:0:0:0:
192,192,178013,1,0,0:0:0:0:
320,192,178235,1,2,0:0:0:0:
448,192,178235,1,4,0:0:0:0:
192,192,178309,1,0,0:0:0:0:
64,192,178383,1,0,0:0:0:0:
64,192,178680,1,8,0:0:0:0:
192,192,178680,1,0,0:0:0:0:
320,192,178754,1,0,0:0:0:0:
448,192,178828,1,0,0:0:0:0:
192,192,178902,1,0,0:0:0:0:
64,192,179124,1,2,0:0:0:0:
320,192,179124,1,4,0:0:0:0:
448,192,179198,1,0,0:0:0:0:
192,192,179272,1,0,0:0:0:0:
320,192,179346,1,0,0:0:0:0:
192,192,179569,1,8,0:0:0:0:
448,192,179569,1,0,0:0:0:0:
64,192,179643,1,0,0:0:0:0:
320,192,179717,1,0,0:0:0:0:
192,192,179791,1,0,0:0:0:0:
320,192,180013,1,2,0:0:0:0:
448,192,180013,1,4,0:0:0:0:
192,192,180087,1,0,0:0:0:0:
64,192,180161,1,0,0:0:0:0:
448,192,180235,1,0,0:0:0:0:
64,192,180457,1,8,0:0:0:0:
192,192,180457,1,0,0:0:0:0:
320,192,180532,1,0,0:0:0:0:
448,192,180606,1,0,0:0:0:0:
64,192,180680,1,0,0:0:0:0:
320,192,180902,1,2,0:0:0:0:
448,192,180902,1,0,0:0:0:0:
192,192,181124,1,0,0:0:0:0:
320,192,181124,1,0,0:0:0:0:
64,192,181346,1,8,0:0:0:0:
192,192,181346,1,0,0:0:0:0:
320,192,181569,1,0,0:0:0:0:
448,192,181569,1,0,0:0:0:0:
64,192,181791,1,2,0:0:0:0:
192,192,181791,1,4,0:0:0:0:
320,192,181902,1,0,0:0:0:0:
192,192,182013,1,0,0:0:0:0:
64,192,182124,1,0,0:0:0:0:
320,192,182235,1,8,0:0:0:0:
448,192,182235,1,0,0:0:0:0:
192,192,182346,1,0,0:0:0:0:
320,192,182457,1,0,0:0:0:0:
64,192,182569,1,0,0:0:0:0:
192,192,182680,1,2,0:0:0:0:
320,192,182680,1,0,0:0:0:0:
448,192,182791,1,0,0:0:0:0:
192,192,182902,1,0,0:0:0:0:
320,192,183013,1,0,0:0:0:0:
64,192,183124,1,8,0:0:0:0:
448,192,183124,1,0,0:0:0:0:
192,192,183235,1,0,0:0:0:0:
320,192,183346,1,0,0:0:0:0:
192,192,183457,1,0,0:0:0:0:
64,192,183569,1,2,0:0:0:0:
448,192,183569,1,0,0:0:0:0:
320,192,183680,1,0,0:0:0:0:
192,192,183791,1,0,0:0:0:0:
320,192,183902,1,0,0:0:0:0:
64,192,184013,1,8,0:0:0:0:
448,192,184013,1,0,0:0:0:0:
64,192,184161,1,0,0:0:0:0:
64,192,184309,1,0,0:0:0:0:
320,192,184457,1,2,0:0:0:0:
448,192,184457,1,0,0:0:0:0:
192,192,184680,1,0,0:0:0:0:
320,192,184754,1,0,0:0:0:0:
64,192,184902,1,8,0:0:0:0:
192,192,184902,1,0,0:0:0:0:
448,192,184976,1,0,0:0:0:0:
64,192,185124,1,0,0:0:0:0:
192,192,185198,1,0,0:0:0:0:
64,192,185346,1,2,0:0:0:0:
320,192,185346,1,4,0:0:0:0:
448,192,185346,1,0,0:0:0:0:
192,192,185569,1,0,0:0:0:0:
320,192,185643,1,0,0:0:0:0:
448,192,185717,1,0,0:0:0:0:
64,192,185791,1,8,0:0:0:0:
192,192,185791,1,0,0:0:0:0:
448,192,185902,1,0,0:0:0:0:
192,192,186013,1,0,0:0:0:0:
64,192,186087,1,0,0:0:0:0:
320,192,186161,1,0,0:0:0:0:
192,192,186235,1,2,0:0:0:0:
448,192,186309,1,0,0:0:0:0:
320,192,186383,1,0,0:0:0:0:
192,192,186457,1,0,0:0:0:0:
64,192,186532,1,0,0:0:0:0:
320,192,186606,1,0,0:0:0:0:
192,192,186680,1,8,0:0:0:0:
448,192,186754,1,0,0:0:0:0:
320,192,186828,1,0,0:0:0:0:
192,192,186902,1,0,0:0:0:0:
64,192,186976,1,0,0:0:0:0:
320,192,187050,1,0,0:0:0:0:
64,192,187124,1,2,0:0:0:0:
192,192,187124,1,0,0:0:0:0:
192,192,187346,1,0,0:0:0:0:
320,192,187569,1,8,0:0:0:0:
448,192,187569,1,0,0:0:0:0:
320,192,187791,1,0,0:0:0:0:
192,192,187865,1,0,0:0:0:0:
448,192,187939,1,0,0:0:0:0:
192,192,188013,1,2,0:0:0:0:
320,192,188013,1,0,0:0:0:0:
64,192,188087,1,0,0:0:0:0:
192,192,188235,1,0,0:0:0:0:
320,192,188309,1,0,0:0:0:0:
64,192,188457,1,8,0:0:0:0:
448,192,188457,1,0,0:0:0:0:
192,192,188532,1,0,0:0:0:0:
192,192,188680,1,0,0:0:0:0:
320,192,188754,1,0,0:0:0:0:
448,192,188828,1,0,0:0:0:0:
64,192,188902,1,2,0:0:0:0:
192,192,188902,1,4,0:0:0:0:
64,192,189013,1,8,0:0:0:0:
448,192,189124,1,8,0:0:0:0:
320,192,189235,1,8,0:0:0:0:
64,192,189346,1,8,0:0:0:0:
192,192,189346,1,0,0:0:0:0:
192,192,189457,1,8,0:0:0:0:
448,192,189569,1,0,0:0:0:70:tom1.wav
64,192,189680,1,0,0:0:0:70:tom1.wav
192,192,189791,1,0,0:0:0:70:tom1.wav
320,192,189791,1,0,0:0:0:0:
320,192,189902,1,0,0:0:0:70:tom1.wav
64,192,190013,1,0,0:0:0:70:tom2.wav
192,192,190124,1,0,0:0:0:70:tom2.wav
320,192,190235,1,0,0:0:0:70:tom2.wav
448,192,190235,1,0,0:0:0:0:
448,192,190346,1,0,0:0:0:70:tom2.wav
192,192,190457,1,0,0:0:0:70:tom3.wav
320,192,190569,1,0,0:0:0:70:tom3.wav
64,192,190680,1,2,0:0:0:0:
448,192,190680,1,4,0:0:0:0:
320,192,192457,1,0,0:0:0:0:
448,192,192457,1,0,0:0:0:0:
192,192,192902,1,0,0:0:0:0:
320,192,192902,1,0,0:0:0:0:
64,192,193124,1,0,0:0:0:0:
192,192,193346,1,0,0:0:0:0:
320,192,193346,1,0,0:0:0:0:
320,192,193791,1,0,0:0:0:0:
448,192,193791,1,0,0:0:0:0:
64,192,194235,1,0,0:0:0:0:
192,192,194235,1,0,0:0:0:0:
192,192,194680,1,0,0:0:0:0:
320,192,194680,1,0,0:0:0:0:
448,192,194902,1,0,0:0:0:0:
192,192,195124,1,0,0:0:0:0:
320,192,195124,1,0,0:0:0:0:
64,192,195569,1,0,0:0:0:0:
192,192,195569,1,0,0:0:0:0:
320,192,196013,1,0,0:0:0:0:
448,192,196013,1,0,0:0:0:0:
192,192,196457,1,0,0:0:0:0:
320,192,196457,1,0,0:0:0:0:
64,192,196680,1,0,0:0:0:0:
192,192,196902,1,0,0:0:0:0:
320,192,196902,1,0,0:0:0:0:
320,192,197346,1,0,0:0:0:0:
448,192,197346,1,0,0:0:0:0:
64,192,197791,1,0,0:0:0:0:
192,192,197791,1,0,0:0:0:0:
192,192,198235,1,0,0:0:0:0:
320,192,198235,1,0,0:0:0:0:
448,192,198457,1,0,0:0:0:0:
192,192,198680,1,8,0:0:0:0:
320,192,198680,1,0,0:0:0:0:
192,192,198902,1,0,0:0:0:0:
192,192,199124,1,0,0:0:0:0:
320,192,199124,1,0,0:0:0:0:
64,192,199569,1,8,0:0:0:0:
192,192,199569,1,0,0:0:0:0:
320,192,199791,1,0,0:0:0:70:snare.wav
448,192,199902,1,0,0:0:0:70:snare.wav
64,192,200013,1,8,0:0:0:0:
192,192,200013,1,0,0:0:0:0:
320,192,200235,1,0,0:0:0:70:snare.wav
192,192,200346,1,0,0:0:0:70:snare.wav
64,192,200457,1,8,0:0:0:0:
448,192,200457,1,0,0:0:0:0:
320,192,200680,1,0,0:0:0:70:snare.wav
448,192,200791,1,0,0:0:0:70:snare.wav
64,192,200902,1,8,0:0:0:0:
192,192,200902,1,0,0:0:0:0:
320,192,201013,1,8,0:0:0:0:
448,192,201013,1,0,0:0:0:0:
64,192,201346,1,8,0:0:0:0:
192,192,201346,1,0,0:0:0:0:
192,192,201569,1,0,0:0:0:70:snare.wav
320,192,201680,1,0,0:0:0:70:snare.wav
64,192,201791,1,8,0:0:0:0:
448,192,201791,1,0,0:0:0:0:
320,192,202013,1,0,0:0:0:70:snare.wav
448,192,202124,1,0,0:0:0:70:snare.wav
64,192,202235,1,8,0:0:0:0:
192,192,202235,1,0,0:0:0:0:
320,192,202457,1,0,0:0:0:70:snare.wav
192,192,202569,1,0,0:0:0:70:snare.wav
320,192,202680,1,8,0:0:0:0:
448,192,202680,1,0,0:0:0:0:
64,192,202791,1,8,0:0:0:0:
192,192,202791,1,0,0:0:0:0:
192,192,203124,1,8,0:0:0:0:
448,192,203124,1,0,0:0:0:0:
320,192,203346,1,0,0:0:0:70:snare.wav
448,192,203457,1,0,0:0:0:70:snare.wav
64,192,203569,1,8,0:0:0:0:
192,192,203569,1,0,0:0:0:0:
192,192,203791,1,0,0:0:0:70:snare.wav
64,192,203902,1,0,0:0:0:70:snare.wav
320,192,204013,1,8,0:0:0:0:
448,192,204013,1,0,0:0:0:0:
320,192,204235,1,0,0:0:0:70:snare.wav
192,192,204346,1,0,0:0:0:70:snare.wav
64,192,204457,1,8,0:0:0:0:
448,192,204457,1,0,0:0:0:0:
320,192,204569,1,8,0:0:0:0:
192,192,204680,1,0,0:0:0:70:snare.wav
64,192,204791,1,0,0:0:0:70:snare.wav
320,192,204902,1,4,0:0:0:0:
448,192,204902,1,2,0:0:0:0:
192,192,205013,1,0,0:0:0:70:tom2.wav
320,192,205124,1,0,0:0:0:70:tom2.wav
448,192,205235,1,0,0:0:0:70:tom2.wav
192,192,205346,1,2,0:0:0:0:
320,192,205346,1,4,0:0:0:0:
64,192,205457,1,0,0:0:0:0:
192,192,205569,1,0,0:0:0:0:
320,192,205680,1,0,0:0:0:0:
64,192,205791,1,8,0:0:0:0:
448,192,205791,1,2,0:0:0:0:
192,192,205865,1,8,0:0:0:0:
320,192,205939,1,8,0:0:0:0:
64,192,206013,1,8,0:0:0:0:
448,192,206087,1,0,0:0:0:0:
192,192,206161,1,0,0:0:0:0:
320,192,206235,1,2,0:0:0:0:
64,192,206309,1,0,0:0:0:70:tom1.wav
192,192,206383,1,0,0:0:0:70:tom2.wav
448,192,206457,1,0,0:0:0:70:tom2.wav
320,192,206532,1,0,0:0:0:70:tom3.wav
192,192,206606,1,0,0:0:0:70:tom3.wav
64,192,206680,1,4,0:0:0:0:
448,192,206680,1,2,0:0:0:0:
192,192,206791,1,0,0:0:0:0:
64,192,206902,1,0,0:0:0:0:
448,192,207013,1,0,0:0:0:0:
192,192,207124,1,8,0:0:0:0:
448,192,207124,1,0,0:0:0:0:
64,192,207235,1,0,0:0:0:0:
320,192,207346,1,0,0:0:0:0:
64,192,207457,1,0,0:0:0:0:
64,192,207569,1,2,0:0:0:0:
448,192,207569,1,0,0:0:0:0:
320,192,207680,1,0,0:0:0:0:
448,192,207791,1,0,0:0:0:0:
320,192,207902,1,0,0:0:0:0:
64,192,208013,1,8,0:0:0:0:
448,192,208013,1,0,0:0:0:0:
320,192,208124,1,0,0:0:0:0:
192,192,208235,1,0,0:0:0:0:
64,192,208457,1,2,0:0:0:0:
192,192,208457,1,0,0:0:0:0:
320,192,208569,1,0,0:0:0:0:
448,192,208680,1,0,0:0:0:0:
64,192,208791,1,0,0:0:0:0:
64,192,208902,1,8,0:0:0:0:
320,192,208902,1,0,0:0:0:0:
448,192,209013,1,0,0:0:0:0:
192,192,209124,1,0,0:0:0:0:
448,192,209235,1,0,0:0:0:0:
64,192,209346,1,2,0:0:0:0:
448,192,209346,1,0,0:0:0:0:
192,192,209457,1,0,0:0:0:0:
64,192,209569,1,0,0:0:0:0:
192,192,209680,1,0,0:0:0:0:
64,192,209791,1,8,0:0:0:0:
448,192,209791,1,0,0:0:0:0:
192,192,209902,1,0,0:0:0:0:
320,192,210013,1,0,0:0:0:0:
320,192,210235,1,2,0:0:0:0:
448,192,210235,1,0,0:0:0:0:
192,192,210346,1,0,0:0:0:0:
64,192,210457,1,0,0:0:0:0:
320,192,210569,1,0,0:0:0:0:
192,192,210680,1,8,0:0:0:0:
448,192,210680,1,0,0:0:0:0:
64,192,210791,1,0,0:0:0:0:
320,192,210902,1,0,0:0:0:0:
64,192,211013,1,0,0:0:0:0:
64,192,211124,1,2,0:0:0:0:
192,192,211124,1,0,0:0:0:0:
448,192,211235,1,0,0:0:0:0:
192,192,211346,1,0,0:0:0:0:
448,192,211457,1,0,0:0:0:0:
64,192,211569,1,8,0:0:0:0:
192,192,211569,1,0,0:0:0:0:
320,192,211680,1,0,0:0:0:0:
448,192,211791,1,0,0:0:0:0:
320,192,211902,1,0,0:0:0:0:
64,192,212013,1,2,0:0:0:0:
448,192,212013,1,0,0:0:0:0:
192,192,212124,1,0,0:0:0:0:
320,192,212235,1,0,0:0:0:0:
192,192,212346,1,0,0:0:0:0:
64,192,212457,1,8,0:0:0:0:
320,192,212457,1,0,0:0:0:0:
448,192,212569,1,0,0:0:0:0:
64,192,212680,1,0,0:0:0:0:
320,192,212791,1,8,0:0:0:0:
448,192,212791,1,0,0:0:0:0:
64,192,212902,1,2,0:0:0:0:
192,192,212902,128,0,213124:0:0:0:0:
320,192,213124,128,0,213198:0:0:0:0:
448,192,213198,128,0,213272:0:0:0:0:
192,192,213272,128,0,213346:0:0:0:0:
320,192,213346,128,2,213457:0:0:0:0:
448,192,213346,128,0,213457:0:0:0:0:
64,192,213569,128,0,213680:0:0:0:0:
192,192,213569,128,0,213680:0:0:0:0:
64,192,213791,1,2,0:0:0:0:
320,192,213791,1,4,0:0:0:0:
448,192,213791,1,0,0:0:0:0:
192,192,213902,1,0,0:0:0:0:
64,192,214013,1,0,0:0:0:0:
448,192,214124,1,0,0:0:0:0:
192,192,214235,1,8,0:0:0:0:
448,192,214235,1,0,0:0:0:0:
64,192,214346,1,0,0:0:0:0:
320,192,214457,1,0,0:0:0:0:
64,192,214569,1,0,0:0:0:0:
64,192,214680,1,2,0:0:0:0:
448,192,214680,1,0,0:0:0:0:
320,192,214791,1,0,0:0:0:0:
448,192,214902,1,0,0:0:0:0:
320,192,215013,1,0,0:0:0:0:
64,192,215124,1,8,0:0:0:0:
448,192,215124,1,0,0:0:0:0:
320,192,215235,1,0,0:0:0:0:
192,192,215346,1,0,0:0:0:0:
64,192,215569,1,2,0:0:0:0:
192,192,215569,1,0,0:0:0:0:
320,192,215680,1,0,0:0:0:0:
448,192,215791,1,0,0:0:0:0:
64,192,215902,1,0,0:0:0:0:
64,192,216013,1,8,0:0:0:0:
320,192,216013,1,0,0:0:0:0:
448,192,216124,1,0,0:0:0:0:
192,192,216235,1,0,0:0:0:0:
448,192,216346,1,0,0:0:0:0:
64,192,216457,1,2,0:0:0:0:
448,192,216457,1,0,0:0:0:0:
192,192,216569,1,0,0:0:0:0:
64,192,216680,1,0,0:0:0:0:
192,192,216791,1,0,0:0:0:0:
64,192,216902,1,8,0:0:0:0:
448,192,216902,1,0,0:0:0:0:
192,192,217013,1,0,0:0:0:0:
320,192,217124,1,0,0:0:0:0:
320,192,217346,1,2,0:0:0:0:
448,192,217346,1,0,0:0:0:0:
192,192,217457,1,0,0:0:0:0:
64,192,217569,1,0,0:0:0:0:
448,192,217680,1,0,0:0:0:0:
192,192,217791,1,8,0:0:0:0:
448,192,217791,1,0,0:0:0:0:
64,192,217902,1,0,0:0:0:0:
320,192,218013,1,0,0:0:0:0:
64,192,218124,1,0,0:0:0:0:
64,192,218235,1,2,0:0:0:0:
448,192,218235,1,0,0:0:0:0:
320,192,218346,1,0,0:0:0:0:
448,192,218457,1,0,0:0:0:0:
192,192,218569,1,0,0:0:0:0:
64,192,218680,1,8,0:0:0:0:
320,192,218680,1,0,0:0:0:0:
192,192,218791,1,0,0:0:0:0:
320,192,218902,1,0,0:0:0:0:
448,192,218902,1,0,0:0:0:0:
64,192,219013,1,0,0:0:0:0:
192,192,219124,128,2,219235:0:0:0:0:
320,192,219124,1,4,0:0:0:0:
448,192,219235,1,0,0:0:0:0:
64,192,219346,128,8,219457:0:0:0:0:
192,192,219346,1,0,0:0:0:0:
320,192,219569,1,2,0:0:0:0:
448,192,219569,128,0,219680:0:0:0:0:
64,192,219680,1,8,0:0:0:0:
192,192,219791,1,0,0:0:0:70:tom1.wav
320,192,219791,128,0,219902:0:0:0:0:
64,192,220013,1,2,0:0:0:0:
192,192,220013,128,0,220124:0:0:0:70:tom2.wav
320,192,220124,1,0,0:0:0:0:
64,192,220235,1,8,0:0:0:0:
448,192,220235,128,0,220346:0:0:0:0:
192,192,220346,1,0,0:0:0:0:
320,192,220457,1,2,0:0:0:0:
448,192,220457,1,0,0:0:0:0:
64,192,220569,1,0,0:0:0:70:tom1.wav
192,192,220569,1,0,0:0:0:0:
320,192,220680,1,0,0:0:0:70:tom2.wav
448,192,220680,1,0,0:0:0:0:
64,192,220902,1,4,0:0:0:0:
192,192,220902,1,2,0:0:0:0:
448,192,220902,1,0,0:0:0:0:
320,192,221013,1,0,0:0:0:0:
448,192,221124,1,0,0:0:0:0:
192,192,221235,1,0,0:0:0:0:
64,192,221346,1,8,0:0:0:0:
320,192,221346,1,0,0:0:0:0:
448,192,221457,1,0,0:0:0:0:
192,192,221569,1,0,0:0:0:0:
64,192,221680,1,0,0:0:0:0:
320,192,221791,1,2,0:0:0:0:
448,192,221791,1,0,0:0:0:0:
64,192,221902,1,0,0:0:0:0:
320,192,222013,1,0,0:0:0:0:
192,192,222124,1,0,0:0:0:0:
320,192,222235,1,8,0:0:0:0:
448,192,222235,1,0,0:0:0:0:
192,192,222346,1,0,0:0:0:0:
64,192,222457,1,0,0:0:0:0:
64,192,222680,1,2,0:0:0:0:
192,192,222680,1,0,0:0:0:0:
320,192,222791,1,0,0:0:0:0:
448,192,222902,1,0,0:0:0:0:
192,192,223013,1,0,0:0:0:0:
64,192,223124,1,8,0:0:0:0:
320,192,223124,1,0,0:0:0:0:
448,192,223235,1,0,0:0:0:0:
192,192,223346,1,0,0:0:0:0:
64,192,223457,1,0,0:0:0:0:
320,192,223569,1,2,0:0:0:0:
448,192,223569,1,0,0:0:0:0:
64,192,223680,1,0,0:0:0:0:
320,192,223791,1,0,0:0:0:0:
192,192,223902,1,0,0:0:0:0:
320,192,224013,1,8,0:0:0:0:
448,192,224013,1,0,0:0:0:0:
192,192,224124,1,0,0:0:0:0:
64,192,224235,1,0,0:0:0:0:
64,192,224457,1,2,0:0:0:0:
192,192,224457,1,0,0:0:0:0:
320,192,224569,1,0,0:0:0:0:
448,192,224680,1,0,0:0:0:0:
192,192,224791,1,0,0:0:0:0:
64,192,224902,1,8,0:0:0:0:
320,192,224902,1,0,0:0:0:0:
448,192,225013,1,0,0:0:0:0:
192,192,225124,1,0,0:0:0:0:
448,192,225235,1,0,0:0:0:0:
320,192,225346,1,2,0:0:0:0:
448,192,225346,1,0,0:0:0:0:
64,192,225457,1,0,0:0:0:0:
320,192,225569,1,0,0:0:0:0:
64,192,225680,1,0,0:0:0:0:
320,192,225791,1,8,0:0:0:0:
448,192,225791,1,0,0:0:0:0:
192,192,225902,1,0,0:0:0:0:
64,192,226013,1,0,0:0:0:0:
192,192,226124,1,0,0:0:0:0:
64,192,226235,1,2,0:0:0:0:
448,192,226235,1,0,0:0:0:0:
320,192,226346,1,0,0:0:0:0:
192,192,226457,1,0,0:0:0:0:
320,192,226569,1,0,0:0:0:0:
192,192,226680,1,8,0:0:0:0:
448,192,226680,1,0,0:0:0:0:
64,192,226791,1,0,0:0:0:0:
320,192,226902,1,0,0:0:0:0:
64,192,227013,1,8,0:0:0:0:
192,192,227013,1,0,0:0:0:0:
320,192,227124,128,2,227346:0:0:0:0:
448,192,227124,1,0,0:0:0:0:
192,192,227346,128,0,227420:0:0:0:0:
64,192,227420,128,0,227495:0:0:0:0:
320,192,227495,128,0,227569:0:0:0:0:
64,192,227569,128,2,227680:0:0:0:0:
192,192,227569,128,0,227680:0:0:0:0:
320,192,227791,128,0,227902:0:0:0:0:
448,192,227791,128,0,227902:0:0:0:0:
64,192,228013,1,2,0:0:0:0:
192,192,228013,1,4,0:0:0:0:
448,192,228013,1,0,0:0:0:0:
320,192,228124,1,0,0:0:0:0:
448,192,228235,1,0,0:0:0:0:
192,192,228346,1,0,0:0:0:0:
64,192,228457,1,8,0:0:0:0:
320,192,228457,1,0,0:0:0:0:
448,192,228569,1,0,0:0:0:0:
192,192,228680,1,0,0:0:0:0:
448,192,228791,1,0,0:0:0:0:
320,192,228902,1,2,0:0:0:0:
448,192,228902,1,0,0:0:0:0:
64,192,229013,1,0,0:0:0:0:
320,192,229124,1,0,0:0:0:0:
192,192,229235,1,0,0:0:0:0:
320,192,229346,1,8,0:0:0:0:
448,192,229346,1,0,0:0:0:0:
192,192,229457,1,0,0:0:0:0:
64,192,229569,1,0,0:0:0:0:
64,192,229791,1,2,0:0:0:0:
192,192,229791,1,0,0:0:0:0:
320,192,229902,1,0,0:0:0:0:
448,192,230013,1,0,0:0:0:0:
192,192,230124,1,0,0:0:0:0:
64,192,230235,1,8,0:0:0:0:
320,192,230235,1,0,0:0:0:0:
448,192,230346,1,0,0:0:0:0:
192,192,230457,1,0,0:0:0:0:
448,192,230569,1,0,0:0:0:0:
320,192,230680,1,2,0:0:0:0:
448,192,230680,1,0,0:0:0:0:
64,192,230791,1,0,0:0:0:0:
320,192,230902,1,0,0:0:0:0:
192,192,231013,1,0,0:0:0:0:
320,192,231124,1,8,0:0:0:0:
448,192,231124,1,0,0:0:0:0:
192,192,231235,1,0,0:0:0:0:
64,192,231346,1,0,0:0:0:0:
64,192,231569,1,2,0:0:0:0:
192,192,231569,1,0,0:0:0:0:
320,192,231680,1,0,0:0:0:0:
448,192,231791,1,0,0:0:0:0:
192,192,231902,1,0,0:0:0:0:
64,192,232013,1,8,0:0:0:0:
320,192,232013,1,0,0:0:0:0:
448,192,232124,1,0,0:0:0:0:
192,192,232235,1,0,0:0:0:0:
320,192,232346,1,0,0:0:0:0:
64,192,232457,1,2,0:0:0:0:
448,192,232457,1,0,0:0:0:0:
192,192,232569,1,0,0:0:0:0:
64,192,232680,1,0,0:0:0:0:
320,192,232791,1,0,0:0:0:0:
192,192,232902,1,8,0:0:0:0:
448,192,232902,1,0,0:0:0:0:
320,192,233013,1,0,0:0:0:0:
192,192,233124,1,0,0:0:0:0:
448,192,233235,1,0,0:0:0:0:
192,192,233346,128,2,233457:0:0:0:0:
320,192,233346,1,0,0:0:0:0:
448,192,233457,1,0,0:0:0:0:
320,192,233569,128,0,233680:0:0:0:0:
192,192,233680,1,0,0:0:0:0:
320,192,233791,1,8,0:0:0:0:
448,192,233791,128,0,233902:0:0:0:0:
192,192,233902,1,0,0:0:0:0:
64,192,234013,128,0,234124:0:0:0:0:
320,192,234124,1,0,0:0:0:0:
64,192,234235,1,2,0:0:0:0:
192,192,234235,128,0,234346:0:0:0:0:
320,192,234346,1,0,0:0:0:0:
448,192,234457,128,0,234569:0:0:0:70:tick.wav
320,192,234569,1,0,0:0:0:0:
64,192,234680,1,2,0:0:0:0:
192,192,234680,1,0,0:0:0:0:
320,192,234791,1,0,0:0:0:70:tom1.wav
448,192,234791,1,0,0:0:0:0:
64,192,234902,1,0,0:0:0:70:tom2.wav
192,192,234902,1,0,0:0:0:70:tick.wav
64,192,235124,1,2,0:0:0:0:
320,192,235124,1,4,0:0:0:0:
448,192,235124,1,0,0:0:0:0:
192,192,235235,1,0,0:0:0:0:
64,192,235346,1,0,0:0:0:0:
320,192,235457,1,0,0:0:0:0:
192,192,235569,1,8,0:0:0:0:
448,192,235569,1,0,0:0:0:0:
64,192,235680,1,0,0:0:0:0:
320,192,235791,1,0,0:0:0:0:
64,192,235902,1,0,0:0:0:0:
64,192,236013,1,2,0:0:0:0:
192,192,236013,1,0,0:0:0:0:
448,192,236124,1,0,0:0:0:0:
192,192,236235,1,0,0:0:0:0:
320,192,236346,1,0,0:0:0:0:
64,192,236457,1,8,0:0:0:0:
192,192,236457,1,0,0:0:0:0:
320,192,236569,1,0,0:0:0:0:
448,192,236680,1,0,0:0:0:0:
320,192,236902,1,2,0:0:0:0:
448,192,236902,1,0,0:0:0:0:
192,192,237013,1,0,0:0:0:0:
64,192,237124,1,0,0:0:0:0:
320,192,237235,1,0,0:0:0:0:
192,192,237346,1,8,0:0:0:0:
448,192,237346,1,0,0:0:0:0:
64,192,237457,1,0,0:0:0:0:
320,192,237569,1,0,0:0:0:0:
64,192,237680,1,0,0:0:0:0:
64,192,237791,1,2,0:0:0:0:
192,192,237791,1,0,0:0:0:0:
448,192,237902,1,0,0:0:0:0:
192,192,238013,1,0,0:0:0:0:
320,192,238124,1,0,0:0:0:0:
64,192,238235,1,8,0:0:0:0:
192,192,238235,1,0,0:0:0:0:
320,192,238346,1,0,0:0:0:0:
448,192,238457,1,0,0:0:0:0:
320,192,238680,1,2,0:0:0:0:
448,192,238680,1,0,0:0:0:0:
192,192,238791,1,0,0:0:0:0:
64,192,238902,1,0,0:0:0:0:
320,192,239013,1,0,0:0:0:0:
192,192,239124,1,8,0:0:0:0:
448,192,239124,1,0,0:0:0:0:
64,192,239235,1,0,0:0:0:0:
448,192,239346,1,0,0:0:0:0:
320,192,239457,1,0,0:0:0:0:
64,192,239569,1,2,0:0:0:0:
192,192,239569,1,0,0:0:0:0:
448,192,239680,1,0,0:0:0:0:
192,192,239791,1,0,0:0:0:0:
448,192,239902,1,0,0:0:0:0:
64,192,240013,1,8,0:0:0:0:
192,192,240013,1,0,0:0:0:0:
320,192,240124,1,0,0:0:0:0:
448,192,240235,1,0,0:0:0:0:
320,192,240346,1,0,0:0:0:0:
64,192,240457,1,2,0:0:0:0:
448,192,240457,1,0,0:0:0:0:
192,192,240569,1,0,0:0:0:0:
320,192,240680,1,0,0:0:0:0:
192,192,240791,1,0,0:0:0:0:
64,192,240902,1,8,0:0:0:0:
320,192,240902,1,0,0:0:0:0:
448,192,241013,1,0,0:0:0:0:
192,192,241124,1,0,0:0:0:0:
448,192,241235,1,0,0:0:0:0:
64,192,241346,1,2,0:0:0:0:
192,192,241346,128,0,241569:0:0:0:0:
320,192,241569,128,0,241643:0:0:0:0:
448,192,241643,128,0,241717:0:0:0:0:
192,192,241717,128,0,241791:0:0:0:0:
320,192,241791,128,8,241902:0:0:0:0:
448,192,241791,128,0,241902:0:0:0:0:
64,192,242013,128,0,242124:0:0:0:0:
192,192,242013,128,0,242124:0:0:0:0:
64,192,242235,1,4,0:0:0:0:
320,192,242235,1,2,0:0:0:0:
448,192,242235,1,0,0:0:0:0:
192,192,242346,1,0,0:0:0:0:
64,192,242457,1,0,0:0:0:0:
320,192,242569,1,0,0:0:0:0:
192,192,242680,1,8,0:0:0:0:
448,192,242680,1,0,0:0:0:0:
64,192,242791,1,0,0:0:0:0:
320,192,242902,1,0,0:0:0:0:
64,192,243013,1,0,0:0:0:0:
64,192,243124,1,2,0:0:0:0:
192,192,243124,1,0,0:0:0:0:
448,192,243235,1,0,0:0:0:0:
192,192,243346,1,0,0:0:0:0:
320,192,243457,1,0,0:0:0:0:
64,192,243569,1,8,0:0:0:0:
192,192,243569,1,0,0:0:0:0:
320,192,243680,1,0,0:0:0:0:
448,192,243791,1,0,0:0:0:0:
320,192,244013,1,2,0:0:0:0:
448,192,244013,1,0,0:0:0:0:
192,192,244124,1,0,0:0:0:0:
64,192,244235,1,0,0:0:0:0:
320,192,244346,1,0,0:0:0:0:
192,192,244457,1,8,0:0:0:0:
448,192,244457,1,0,0:0:0:0:
64,192,244569,1,0,0:0:0:0:
320,192,244680,1,0,0:0:0:0:
64,192,244791,1,0,0:0:0:0:
64,192,244902,1,2,0:0:0:0:
192,192,244902,1,0,0:0:0:0:
448,192,245013,1,0,0:0:0:0:
192,192,245124,1,0,0:0:0:0:
320,192,245235,1,0,0:0:0:0:
64,192,245346,1,8,0:0:0:0:
192,192,245346,1,0,0:0:0:0:
320,192,245457,1,0,0:0:0:0:
448,192,245569,1,0,0:0:0:0:
320,192,245791,1,2,0:0:0:0:
448,192,245791,1,0,0:0:0:0:
192,192,245902,1,0,0:0:0:0:
64,192,246013,1,0,0:0:0:0:
320,192,246124,1,0,0:0:0:0:
192,192,246235,1,8,0:0:0:0:
448,192,246235,1,0,0:0:0:0:
64,192,246346,1,0,0:0:0:0:
320,192,246457,1,0,0:0:0:0:
64,192,246569,1,0,0:0:0:0:
64,192,246680,1,2,0:0:0:0:
192,192,246680,1,0,0:0:0:0:
448,192,246791,1,0,0:0:0:0:
320,192,246902,1,0,0:0:0:0:
448,192,247013,1,0,0:0:0:0:
64,192,247124,1,8,0:0:0:0:
320,192,247124,1,0,0:0:0:0:
192,192,247235,1,0,0:0:0:0:
320,192,247346,1,0,0:0:0:0:
192,192,247457,1,0,0:0:0:0:
64,192,247569,128,2,247680:0:0:0:0:
448,192,247569,1,4,0:0:0:0:
320,192,247680,1,8,0:0:0:0:
192,192,247791,128,8,247902:0:0:0:0:
448,192,247791,1,0,0:0:0:0:
320,192,247902,1,8,0:0:0:0:
64,192,248013,128,2,248124:0:0:0:0:
192,192,248013,1,4,0:0:0:0:
448,192,248124,1,8,0:0:0:0:
192,192,248235,128,8,248346:0:0:0:0:
320,192,248235,1,0,0:0:0:0:
64,192,248346,1,8,0:0:0:0:
320,192,248457,128,4,248569:0:0:0:0:
448,192,248457,1,2,0:0:0:0:
192,192,248569,1,8,0:0:0:0:
64,192,248680,1,8,0:0:0:0:
448,192,248680,128,0,248791:0:0:0:70:tick.wav
320,192,248791,1,8,0:0:0:0:
64,192,248902,1,2,0:0:0:0:
192,192,248902,1,4,0:0:0:0:
320,192,249013,1,8,0:0:0:0:
448,192,249013,1,0,0:0:0:0:
64,192,249124,1,8,0:0:0:0:
192,192,249124,1,0,0:0:0:70:tick.wav
320,192,249235,1,2,0:0:0:0:
448,192,249235,1,4,0:0:0:0:
