osu file format v14

[General]
AudioFilename: audio.mp3
AudioLeadIn: 0
PreviewTime: 68655
Countdown: 0
SampleSet: Soft
StackLeniency: 0.4
Mode: 0
LetterboxInBreaks: 0
WidescreenStoryboard: 1

[Editor]
Bookmarks: 7767,23767,37989,52211,69989,84211,100211
DistanceSpacing: 1.2
BeatDivisor: 4
GridSize: 32
TimelineZoom: 1.6

[Metadata]
Title:Shen De Sui Bo Zhu Liu
TitleUnicode:神的随波逐流
Artist:Ling Yuan yousa
ArtistUnicode:泠鸢yousa
Creator:Rizen
Version:Pata-Mon's Hard
Source:
Tags:神のまにまに Kami no Manimani At God's Mercy LCFC LowComboFC -_G_I_D_Z_- -GIDZ- Little CloudSplash16 Karen Pata-Mon
BeatmapID:1400355
BeatmapSetID:650303

[Difficulty]
HPDrainRate:5
CircleSize:3.5
OverallDifficulty:6
ApproachRate:7
SliderMultiplier:1.5
SliderTickRate:1

[Events]
//Background and Video events
0,0,"aa.jpg",0,0
//Break Periods
//Storyboard Layer 0 (Background)
//Storyboard Layer 1 (Fail)
//Storyboard Layer 2 (Pass)
//Storyboard Layer 3 (Foreground)
//Storyboard Sound Samples

[TimingPoints]
656,444.444444444444,4,3,8,40,1,0
656,-117.647058823529,4,3,8,40,0,0
3655,-117.647058823529,4,3,8,5,0,0
3767,-117.647058823529,4,3,8,40,0,0
6433,-142.857142857143,4,2,8,40,0,0
7767,-100,4,2,8,50,0,0
23767,-117.647058823529,4,2,8,40,0,0
37989,-100,4,2,8,50,0,0
52211,-111.111111111111,4,2,8,50,0,0
59322,-100,4,2,8,50,0,0
68655,-142.857142857143,4,2,8,40,0,0
69989,-100,4,2,8,60,0,1
83544,-100,4,2,8,80,0,1
84211,-100,4,2,8,60,0,1
97767,-100,4,2,8,80,0,1
98433,-100,4,2,8,50,0,0
98544,-100,4,2,8,30,0,0

[Colours]
Combo1 : 190,190,190
Combo2 : 255,128,0
Combo3 : 255,255,128
Combo4 : 255,128,192

[HitObjects]
256,192,6433,6,0,L|256:64,1,104.999996795654,2|2,0:0|0:0,0:0:0:0:
197,28,7100,1,2,0:0:0:0:
315,28,7322,1,2,0:0:0:0:
315,28,7767,6,0,P|372:33|435:53,1,112.5,6|0,0:0|0:0,0:0:0:0:
464,70,8211,2,0,L|455:200,1,112.5,10|0,0:0|0:0,0:0:0:0:
450,226,8655,1,2,0:0:0:0:
367,191,8878,1,2,0:0:0:0:
284,226,9100,1,10,0:0:0:0:
284,226,9544,6,0,P|223:226|150:204,1,112.5,2|0,0:0|0:0,0:0:0:0:
133,192,9989,2,0,L|154:326,1,112.5,10|0,0:0|0:0,0:0:0:0:
160,347,10433,1,2,0:0:0:0:
243,314,10655,1,2,0:0:0:0:
326,347,10878,1,10,0:0:0:0:
326,347,11322,6,0,L|347:213,1,112.5,2|0,0:0|0:0,0:0:0:0:
319,197,11767,2,0,P|258:197|185:219,1,112.5,10|0,0:0|0:0,0:0:0:0:
174,238,12211,2,0,L|68:230,1,75,2|2,0:0|0:0,0:0:0:0:
9,227,12655,1,10,0:0:0:0:
5,231,12878,1,2,0:0:0:0:
134,149,13100,5,2,0:0:0:0:
223,146,13322,2,0,L|258:120,2,25,2|2|2,0:0|0:0|0:0,0:0:0:0:
239,171,13544,2,0,P|253:213|249:259,1,75,10|2,0:0|0:0,0:0:0:0:
182,300,13989,2,0,L|332:286,1,150,2|8,0:0|0:0,0:0:0:0:
421,278,14655,1,2,0:0:0:0:
403,103,14878,6,0,P|371:149|370:205,1,112.5,6|0,0:0|0:0,0:0:0:0:
325,198,15322,2,0,L|212:208,1,112.5,10|0,0:0|0:0,0:0:0:0:
173,228,15766,1,2,0:0:0:0:
83,215,15989,1,2,0:0:0:0:
63,127,16211,1,10,0:0:0:0:
63,127,16655,6,0,L|176:137,1,112.5,2|0,0:0|0:0,0:0:0:0:
210,165,17100,2,0,L|323:155,1,112.5,10|0,0:0|0:0,0:0:0:0:
366,150,17544,1,2,0:0:0:0:
379,61,17766,1,2,0:0:0:0:
304,9,17989,1,10,0:0:0:0:
304,9,18433,6,0,P|248:17|185:68,1,112.5,2|0,0:0|0:0,0:0:0:0:
176,84,18878,2,0,L|188:219,1,112.5,10|0,0:0|0:0,0:0:0:0:
154,228,19322,2,0,P|116:227|65:209,1,75,2|2,0:0|0:0,0:0:0:0:
16,153,19766,1,10,0:0:0:0:
12,149,19989,1,2,0:0:0:0:
131,28,20211,6,0,L|135:131,1,75,6|0,0:0|0:0,0:0:0:0:
170,129,20544,1,0,0:0:0:0:
174,133,20655,2,0,L|170:236,1,75,10|0,0:0|0:0,0:0:0:0:
115,279,21100,2,0,L|121:321,3,25,0|0|0|0,3:0|3:0|3:0|3:0,0:0:0:0:
197,347,21544,2,0,L|191:389,2,37.5,0|0|0,3:0|3:0|3:0,0:0:0:0:
171,208,21989,6,0,P|205:198|273:196,1,75,2|8,0:0|0:0,0:0:0:0:
287,209,22322,1,2,0:0:0:0:
291,213,22433,2,0,L|288:266,3,37.5,8|8|2|2,0:0|0:0|0:0|0:0,0:0:0:0:
303,293,22878,1,8,0:0:0:0:
303,293,23767,6,0,P|368:308|453:309,1,127.50000243187,2|10,0:0|0:0,0:0:0:0:
449,146,24655,2,0,L|365:151,1,63.7500012159348,2|0,0:0|0:0,0:0:0:0:
322,203,25100,2,0,L|238:208,1,63.7500012159348,10|0,0:0|0:0,0:0:0:0:
186,166,25544,6,0,P|174:135|180:77,2,63.7500012159348,2|0|10,0:0|0:0|0:0,0:0:0:0:
258,207,26211,1,2,0:0:0:0:
225,283,26433,2,0,P|173:286|103:258,1,127.50000243187,2|10,0:0|0:0,0:0:0:0:
44,200,27100,1,2,0:0:0:0:
90,131,27322,5,2,0:0:0:0:
90,131,27767,2,0,L|83:6,1,95.6250018239022,10|0,0:0|0:0,0:0:0:0:
117,10,28211,2,0,L|204:15,1,63.7500012159348,2|0,0:0|0:0,0:0:0:0:
241,69,28655,2,0,L|328:64,1,63.7500012159348,10|0,0:0|0:0,0:0:0:0:
369,13,29100,5,2,0:0:0:0:
446,43,29322,1,2,0:0:0:0:
459,125,29544,1,10,0:0:0:0:
395,177,29767,2,0,L|308:172,1,63.7500012159348,2|0,0:0|0:0,0:0:0:0:
300,145,30100,1,8,0:0:0:0:
296,141,30211,2,0,L|209:146,2,63.7500012159348,2|8|0,0:0|0:0|0:0,0:0:0:0:
267,229,30878,6,0,L|153:222,1,95.6250018239022,2|0,0:0|0:0,0:0:0:0:
149,188,31322,2,0,L|35:195,1,95.6250018239022,10|0,0:0|0:0,0:0:0:0:
14,209,31767,1,2,0:0:0:0:
7,126,31989,1,2,0:0:0:0:
0,43,32211,2,0,L|87:48,1,63.7500012159348,10|0,0:0|0:0,0:0:0:0:
131,94,32655,5,2,0:0:0:0:
209,66,32878,1,2,0:0:0:0:
277,113,33100,1,10,0:0:0:0:
355,85,33322,2,0,L|442:90,1,63.7500012159348,2|0,0:0|0:0,0:0:0:0:
487,135,33767,1,2,0:0:0:0:
450,209,33989,2,0,L|363:214,1,63.7500012159348,10|0,0:0|0:0,0:0:0:0:
251,181,34433,5,2,0:0:0:0:
308,241,34655,2,0,P|312:268|297:319,2,63.7500012159348,2|8|0,0:0|0:0|0:0,0:0:0:0:
251,181,35322,1,2,0:0:0:0:
194,121,35544,2,0,P|189:94|205:43,2,63.7500012159348,2|8|0,0:0|0:0|0:0,0:0:0:0:
191,238,36211,6,0,L|142:240,2,31.8750006079674,0|0|8,3:0|3:0|0:0,0:0:0:0:
251,181,36655,2,0,L|300:183,2,31.8750006079674,0|8|0,3:0|0:0|3:0,3:0:0:0:
194,121,37100,1,6,0:0:0:0:
254,64,37322,2,0,L|341:60,2,63.7500012159348,2|8|0,0:0|0:0|0:0,0:0:0:0:
283,183,37989,6,0,P|356:217|448:215,1,150,6|8,0:0|0:0,0:0:0:0:
468,45,38878,2,0,L|377:47,1,75,2|0,0:0|0:0,0:0:0:0:
323,104,39322,2,0,L|232:106,1,75,10|0,0:0|0:0,0:0:0:0:
166,67,39767,5,2,0:0:0:0:
174,157,39989,1,2,0:0:0:0:
182,247,40211,1,10,0:0:0:0:
101,209,40433,2,0,L|10:211,2,75,2|0|0,0:0|0:0|0:0,0:0:0:0:
182,247,41100,1,10,0:0:0:0:
255,195,41322,1,2,0:0:0:0:
247,105,41544,5,2,0:0:0:0:
247,105,41989,2,0,P|302:104|361:115,1,112.5,10|0,0:0|0:0,0:0:0:0:
397,136,42433,1,2,0:0:0:0:
381,224,42655,1,2,0:0:0:0:
365,312,42878,2,0,L|274:317,1,75,10|0,0:0|0:0,0:0:0:0:
241,241,43322,5,2,0:0:0:0:
151,246,43544,1,2,0:0:0:0:
110,326,43767,1,10,0:0:0:0:
191,365,43989,1,2,0:0:0:0:
195,361,44100,1,8,0:0:0:0:
200,358,44211,2,0,L|201:313,2,37.5,2|8|0,0:0|0:0|0:0,0:0:0:0:
151,246,44655,2,0,P|243:241|273:268,1,75,10|0,0:0|0:0,0:0:0:0:
287,296,45100,6,0,L|430:285,1,112.5,2|0,0:0|0:0,0:0:0:0:
444,282,45544,2,0,P|454:232|451:161,1,112.5,10|0,0:0|0:0,0:0:0:0:
415,144,45989,1,2,0:0:0:0:
436,56,46211,1,2,0:0:0:0:
360,6,46433,2,0,L|253:10,1,75,10|0,0:0|0:0,0:0:0:0:
226,77,46878,5,2,0:0:0:0:
136,69,47100,1,2,0:0:0:0:
46,61,47322,1,10,0:0:0:0:
84,142,47544,2,0,L|84:217,1,75,2|0,0:0|0:0,0:0:0:0:
46,298,47989,1,2,0:0:0:0:
136,290,48211,1,10,0:0:0:0:
226,282,48433,1,2,0:0:0:0:
313,199,48655,6,0,L|319:347,1,150,2|8,0:0|0:0,0:0:0:0:
408,335,49322,1,2,0:0:0:0:
497,321,49544,2,0,L|491:173,1,112.5,2|0,0:0|0:0,0:0:0:0:
460,176,49989,2,0,L|463:102,1,75,10|0,0:0|0:0,0:0:0:0:
369,45,50433,6,0,L|372:119,1,75,2|8,0:0|0:0,0:0:0:0:
377,210,50878,1,8,0:0:0:0:
373,214,50989,1,8,0:0:0:0:
369,218,51100,1,2,0:0:0:0:
295,167,51322,1,2,0:0:0:0:
216,210,51544,1,2,0:0:0:0:
142,159,51767,2,0,L|92:164,2,37.5,0|0|0,3:0|3:0|3:0,0:0:0:0:
295,167,52211,6,0,P|297:115|294:37,1,101.249996910095,6|0,0:0|0:0,0:0:0:0:
286,23,52655,2,0,L|414:34,1,101.249996910095,2|0,0:0|0:0,0:0:0:0:
422,58,53100,2,0,L|498:55,1,67.4999979400635,2|0,0:0|0:0,0:0:0:0:
512,140,53544,2,0,P|512:181|505:233,1,67.4999979400635,10|0,0:0|0:0,0:0:0:0:
482,291,53989,5,2,0:0:0:0:
423,226,54211,2,0,P|383:212|347:208,1,67.4999979400635,2|0,0:0|0:0,0:0:0:0:
290,263,54655,2,0,P|248:259|211:265,1,67.4999979400635,2|0,0:0|0:0,0:0:0:0:
171,333,55100,1,2,0:0:0:0:
83,340,55322,2,0,P|49:334|18:322,1,67.4999979400635,10|0,0:0|0:0,0:0:0:0:
171,333,55767,6,0,P|243:348|299:385,2,134.999995880127,2|2|2,0:0|0:0|0:0,0:0:0:0:
83,340,56878,1,2,0:0:0:0:
121,261,57100,1,10,0:0:0:0:
159,182,57322,1,2,0:0:0:0:
209,254,57544,5,2,0:0:0:0:
71,189,57767,1,12,0:0:0:0:
197,103,57989,2,0,P|305:136|349:196,1,134.999995880127,6|0,0:0|0:0,0:0:0:0:
390,200,58655,2,0,L|483:194,2,67.4999979400635,2|0|0,0:0|0:0|0:0,0:0:0:0:
264,218,59322,6,0,P|270:296|288:345,1,112.5,6|0,0:0|0:0,0:0:0:0:
324,342,59767,2,0,L|448:331,1,112.5,10|0,0:0|0:0,0:0:0:0:
460,294,60211,2,0,P|468:256|468:198,1,75,2|0,0:0|0:0,0:0:0:0:
443,134,60655,1,10,0:0:0:0:
381,200,60878,1,2,0:0:0:0:
355,114,61100,5,2,0:0:0:0:
355,114,61544,2,0,P|301:117|225:133,1,112.5,10|0,0:0|0:0,0:0:0:0:
210,158,61989,2,0,L|123:151,1,75,2|0,0:0|0:0,0:0:0:0:
69,90,62433,1,10,0:0:0:0:
131,24,62655,1,2,0:0:0:0:
135,152,62878,5,6,0:0:0:0:
73,218,63100,2,0,P|57:256|54:301,1,75,2|8,0:0|0:0,0:0:0:0:
72,377,63544,1,2,0:0:0:0:
160,357,63767,2,0,P|239:349|319:359,1,150,2|8,0:0|0:0,0:0:0:0:
397,377,64433,1,2,0:0:0:0:
401,373,64544,1,2,0:0:0:0:
405,369,64655,5,2,0:0:0:0:
440,285,64878,2,0,P|448:251|444:184,1,75,2|8,0:0|0:0,0:0:0:0:
384,148,65322,2,0,P|376:114|380:47,2,75,2|0|0,0:0|0:0|0:0,0:0:0:0:
448,211,65989,1,10,0:0:0:0:
471,124,66211,1,2,0:0:0:0:
361,235,66433,5,6,0:0:0:0:
512,274,66655,1,10,0:0:0:0:
471,124,66878,1,10,0:0:0:0:
384,148,67100,1,2,0:0:0:0:
380,144,67211,1,2,0:0:0:0:
376,140,67322,2,0,L|304:144,3,37.5,2|2|0|0,0:0|0:0|0:0|0:0,0:0:0:0:
297,123,67767,2,0,L|225:127,3,37.5,2|2|2|2,0:0|0:0|0:0|0:0,0:0:0:0:
218,106,68211,5,8,0:0:0:0:
218,106,68655,6,0,P|222:50|174:19,2,104.999996795654,2|2|2,0:0|0:0|0:0,0:0:0:0:
218,106,69989,6,0,P|207:162|210:222,1,112.5,6|0,0:0|0:0,0:0:0:0:
218,261,70433,2,0,L|366:263,1,112.5,10|0,0:0|0:0,0:0:0:0:
375,264,70877,1,2,0:0:0:0:
436,329,71100,1,2,0:0:0:0:
512,281,71322,1,10,0:0:0:0:
512,281,71767,6,0,P|512:219|500:154,1,112.5,2|0,0:0|0:0,0:0:0:0:
479,131,72211,2,0,L|365:134,1,112.5,10|0,0:0|0:0,0:0:0:0:
326,153,72655,1,2,0:0:0:0:
240,125,72878,1,2,0:0:0:0:
307,65,73100,1,10,0:0:0:0:
307,65,73544,6,0,P|251:36|176:62,1,112.5,2|0,0:0|0:0,0:0:0:0:
164,65,73989,2,0,L|168:198,1,112.5,10|0,0:0|0:0,0:0:0:0:
170,222,74433,1,2,0:0:0:0:
254,192,74655,1,2,0:0:0:0:
338,222,74878,1,10,0:0:0:0:
342,218,75100,1,2,0:0:0:0:
352,65,75322,6,0,P|329:95|320:131,1,75,2|0,0:0|0:0,0:0:0:0:
342,218,75767,1,10,0:0:0:0:
431,233,75989,1,2,0:0:0:0:
373,302,76211,2,0,L|279:307,1,75,2|0,0:0|0:0,0:0:0:0:
217,267,76655,1,10,0:0:0:0:
213,271,76767,1,10,0:0:0:0:
209,275,76878,1,2,0:0:0:0:
55,357,77100,6,0,L|168:355,1,112.5,6|0,0:0|0:0,0:0:0:0:
134,325,77544,2,0,P|122:254|161:199,1,112.5,10|0,0:0|0:0,0:0:0:0:
175,192,77989,1,2,0:0:0:0:
152,105,78211,1,2,0:0:0:0:
62,104,78433,1,10,0:0:0:0:
62,104,78878,6,0,P|36:167|37:238,1,112.5,2|0,0:0|0:0,0:0:0:0:
52,251,79322,2,0,L|171:247,1,112.5,10|0,0:0|0:0,0:0:0:0:
209,244,79766,1,2,0:0:0:0:
279,188,79988,1,2,0:0:0:0:
363,222,80211,1,10,0:0:0:0:
363,222,80655,6,0,P|373:162|372:98,1,112.5,2|0,0:0|0:0,0:0:0:0:
353,69,81100,2,0,L|233:67,1,112.5,10|0,0:0|0:0,0:0:0:0:
198,82,81544,1,2,0:0:0:0:
123,31,81767,1,2,0:0:0:0:
48,82,81989,1,10,0:0:0:0:
52,86,82212,1,2,0:0:0:0:
198,82,82433,6,0,P|206:128|206:171,1,75,2|0,0:0|0:0,0:0:0:0:
140,217,82878,2,0,P|132:263|132:306,2,75,2|0|0,0:0|0:0|0:0,0:0:0:0:
198,82,83544,1,2,0:0:0:0:
285,200,83767,1,2,0:0:0:0:
140,217,83989,1,2,0:0:0:0:
284,109,84211,6,0,P|343:128|374:189,1,112.5,6|0,0:0|0:0,0:0:0:0:
374,213,84655,2,0,P|334:276|267:288,1,112.5,10|0,0:0|0:0,0:0:0:0:
256,285,85100,1,2,0:0:0:0:
197,217,85322,1,2,0:0:0:0:
285,200,85544,1,10,0:0:0:0:
285,200,85988,6,0,P|301:146|301:86,1,112.5,2|0,0:0|0:0,0:0:0:0:
275,53,86433,2,0,L|158:62,1,112.5,10|0,0:0|0:0,0:0:0:0:
127,89,86877,1,2,0:0:0:0:
37,83,87099,1,2,0:0:0:0:
88,8,87322,1,10,0:0:0:0:
88,8,87767,6,0,L|205:17,1,112.5,2|0,0:0|0:0,0:0:0:0:
229,51,88211,2,0,L|346:42,1,112.5,10|0,0:0|0:0,0:0:0:0:
386,39,88655,1,2,2:0:0:0:
447,104,88877,1,2,0:0:0:0:
404,183,89099,1,10,0:0:0:0:
400,187,89322,1,2,0:0:0:0:
237,182,89544,6,0,P|273:173|311:170,1,75,2|0,0:0|0:0,0:0:0:0:
400,187,89989,2,0,L|402:285,1,75,10|0,0:0|0:0,0:0:0:0:
401,351,90433,1,2,0:0:0:0:
312,257,90655,1,2,0:0:0:0:
225,281,90878,1,10,0:0:0:0:
138,305,91100,1,2,0:0:0:0:
221,168,91322,6,0,L|225:281,1,112.5,6|0,0:0|0:0,0:0:0:0:
258,310,91766,2,0,P|312:322|374:317,1,112.5,10|0,0:0|0:0,0:0:0:0:
411,305,92210,1,2,0:0:0:0:
385,218,92433,1,2,0:0:0:0:
411,131,92655,1,10,0:0:0:0:
411,131,93099,6,0,P|362:122|274:120,1,112.5,2|0,0:0|0:0,0:0:0:0:
267,151,93544,2,0,P|218:160|130:162,1,112.5,10|0,0:0|0:0,0:0:0:0:
113,147,93988,1,2,0:0:0:0:
33,188,94210,1,2,0:0:0:0:
48,276,94433,1,10,0:0:0:0:
48,276,94878,6,0,P|97:285|185:287,1,112.5,2|0,0:0|0:0,0:0:0:0:
192,256,95323,2,0,P|241:247|329:245,1,112.5,10|0,0:0|0:0,0:0:0:0:
346,255,95766,1,2,0:0:0:0:
382,172,95989,1,2,0:0:0:0:
346,89,96211,1,10,0:0:0:0:
342,85,96434,1,2,0:0:0:0:
188,122,96655,6,0,L|262:125,1,75,2|0,0:0|0:0,0:0:0:0:
308,203,97100,1,10,0:0:0:0:
304,207,97211,1,10,0:0:0:0:
300,211,97322,2,0,L|226:214,1,75,2|0,0:0|0:0,0:0:0:0:
85,145,97767,1,2,0:0:0:0:
95,301,97989,1,2,0:0:0:0:
225,214,98211,1,2,0:0:0:0:
135,220,98433,5,2,0:0:0:0:
256,192,98544,12,2,100211,0:0:0:0:
