osu file format v14

[General]
AudioFilename: audio.mp3
AudioLeadIn: 0
PreviewTime: 68655
Countdown: 0
SampleSet: Soft
StackLeniency: 0.7
Mode: 0
LetterboxInBreaks: 0
WidescreenStoryboard: 1

[Editor]
DistanceSpacing: 1
BeatDivisor: 4
GridSize: 4
TimelineZoom: 1.8

[Metadata]
Title:Shen De Sui Bo Zhu Liu
TitleUnicode:神的随波逐流
Artist:Ling Yuan yousa
ArtistUnicode:泠鸢yousa
Creator:Rizen
Version:Little's Advanced
Source:
Tags:神のまにまに Kami no Manimani At God's Mercy LCFC LowComboFC -_G_I_D_Z_- -GIDZ- Little CloudSplash16 Karen Pata-Mon
BeatmapID:1384357
BeatmapSetID:650303

[Difficulty]
HPDrainRate:4
CircleSize:3
OverallDifficulty:4
ApproachRate:5.5
SliderMultiplier:1.2
SliderTickRate:1

[Events]
//Background and Video events
0,0,"aa.jpg",0,0
//Break Periods
//Storyboard Layer 0 (Background)
//Storyboard Layer 1 (Fail)
//Storyboard Layer 2 (Pass)
//Storyboard Layer 3 (Foreground)
//Storyboard Sound Samples

[TimingPoints]
656,444.444444444444,4,2,1,60,1,0
7100,-100,4,2,1,70,0,0
7767,-100,4,2,1,80,0,0
23767,-100,4,2,1,60,0,0
37989,-100,4,2,1,70,0,0
52211,-100,4,2,1,60,0,0
69989,-100,4,2,1,80,0,1
98433,-100,4,2,1,60,0,0

[Colours]
Combo1 : 190,190,190
Combo2 : 255,128,0
Combo3 : 255,255,128
Combo4 : 255,128,192

[HitObjects]
16,88,6433,6,0,P|70:111|127:99,1,120
198,43,7100,1,0,0:0:0:0:
286,58,7322,1,0,0:0:0:0:
286,58,7767,6,0,L|376:73,1,90,4|0,0:0|0:0,0:0:0:0:
386,114,8211,2,0,L|297:98,1,90,8|0,0:0|0:0,0:0:0:0:
273,133,8655,1,0,0:0:0:0:
361,148,8877,1,0,0:0:0:0:
449,163,9100,1,8,0:0:0:0:
449,163,9544,6,0,P|461:205|450:248,1,90,0|0,0:0|0:0,0:0:0:0:
422,282,9989,2,0,P|379:294|336:283,1,90,8|0,0:0|0:0,0:0:0:0:
303,255,10433,1,0,0:0:0:0:
222,238,10655,1,0,0:0:0:0:
150,278,10878,1,8,0:0:0:0:
150,278,11322,6,0,L|135:368,1,90,0|0,0:0|0:0,0:0:0:0:
94,378,11766,2,0,L|110:289,1,90,8|0,0:0|0:0,0:0:0:0:
75,265,12210,1,0,0:0:0:0:
4,216,12433,1,0,0:0:0:0:
81,179,12655,1,8,0:0:0:0:
158,142,12878,1,0,0:0:0:0:
235,105,13100,6,0,L|245:45,2,60,0|0|8,0:0|0:0|0:0,0:0:0:0:
368,208,13989,2,0,L|378:267,2,60,0|0|8,0:0|0:0|0:0,0:0:0:0:
209,261,14878,6,0,P|197:303|208:346,1,90,4|0,0:0|0:0,0:0:0:0:
248,332,15322,2,0,P|260:290|249:247,1,90,8|0,0:0|0:0,0:0:0:0:
216,220,15767,1,0,0:0:0:0:
132,208,15989,1,0,0:0:0:0:
48,196,16211,1,8,0:0:0:0:
48,196,16655,6,0,L|136:181,1,90,0|0,0:0|0:0,0:0:0:0:
164,146,17100,2,0,L|75:131,1,90,8|0,0:0|0:0,0:0:0:0:
48,96,17545,1,0,0:0:0:0:
132,84,17767,1,0,0:0:0:0:
216,72,17989,1,8,0:0:0:0:
216,72,18433,6,0,P|258:84|301:73,1,90,0|0,0:0|0:0,0:0:0:0:
340,56,18878,2,0,P|382:44|425:56,1,90,8|0,0:0|0:0,0:0:0:0:
464,76,19322,1,0,0:0:0:0:
484,156,19544,1,0,0:0:0:0:
412,200,19767,1,8,0:0:0:0:
398,282,19989,1,0,0:0:0:0:
468,328,20211,6,0,L|527:337,2,60,4|0|8,0:0|0:0|0:0,0:0:0:0:
316,260,21100,2,0,L|257:269,2,60,0|0|8,0:0|0:0|0:0,0:0:0:0:
460,204,21989,6,0,P|472:146|449:91,1,120,4|8,0:0|0:0,0:0:0:0:
324,24,22878,1,0,0:0:0:0:
324,24,23767,6,0,L|205:45,1,120,4|8,0:0|0:0,0:0:0:0:
88,68,24655,1,0,0:0:0:0:
167,158,25100,1,8,0:0:0:0:
77,237,25544,6,0,P|64:294|87:349,1,120,2|8,0:0|0:0,0:0:0:0:
144,368,26211,2,0,P|202:359|262:367,1,120
320,376,26878,1,8,0:0:0:0:
428,324,27322,6,0,L|449:205,1,120,2|8,0:0|0:0,0:0:0:0:
468,88,28210,1,0,0:0:0:0:
356,130,28655,1,8,0:0:0:0:
263,54,29100,6,0,P|207:36|150:54,1,120,2|8,0:0|0:0,0:0:0:0:
100,88,29767,2,0,L|40:77,1,60,0|0,0:0|0:0,0:0:0:0:
24,196,30433,2,0,L|83:206,1,60,8|0,0:0|0:0,0:0:0:0:
140,220,30878,6,0,L|161:339,1,120,2|8,0:0|0:0,0:0:0:0:
272,380,31766,1,0,0:0:0:0:
364,305,32211,1,8,0:0:0:0:
304,200,32655,6,0,P|249:177|191:190,1,120,2|8,0:0|0:0,0:0:0:0:
140,220,33322,2,0,L|130:161,1,60,0|0,0:0|0:0,0:0:0:0:
112,44,33989,2,0,L|168:64,1,60,8|0,0:0|0:0,0:0:0:0:
224,84,34433,6,0,L|343:63,1,120,2|8,0:0|0:0,0:0:0:0:
408,164,35322,2,0,L|289:185,1,120,0|8,0:0|0:0,0:0:0:0:
172,208,36211,5,2,0:0:0:0:
250,298,36655,1,8,0:0:0:0:
133,320,37100,1,0,0:0:0:0:
55,229,37544,1,8,0:0:0:0:
172,208,37989,6,0,P|189:151|171:95,1,120,4|8,0:0|0:0,0:0:0:0:
80,20,38878,2,0,P|63:44|55:73,1,60,0|0,0:0|0:0,0:0:0:0:
14,117,39322,2,0,P|30:141|38:170,1,60,8|0,0:0|0:0,0:0:0:0:
55,229,39767,6,0,P|36:285|54:341,1,120,2|8,0:0|0:0,0:0:0:0:
108,368,40433,2,0,L|228:357,1,120,0|0,0:0|0:0,0:0:0:0:
288,352,41100,1,8,0:0:0:0:
392,292,41544,6,0,P|411:236|393:180,1,120,2|8,0:0|0:0,0:0:0:0:
288,120,42433,2,0,L|229:130,1,60,0|0,0:0|0:0,0:0:0:0:
180,164,42878,2,0,L|121:154,1,60,8|0,0:0|0:0,0:0:0:0:
64,172,43322,6,0,P|36:224|45:282,1,120,2|8,0:0|0:0,0:0:0:0:
88,324,43989,2,0,L|147:334,1,60,0|0,0:0|0:0,0:0:0:0:
248,268,44655,2,0,L|307:258,1,60,8|0,0:0|0:0,0:0:0:0:
368,248,45100,6,0,L|389:129,1,120,2|8,0:0|0:0,0:0:0:0:
320,32,45989,2,0,P|291:24|261:26,1,60,2|0,0:0|0:0,0:0:0:0:
208,52,46433,2,0,P|179:59|149:57,1,60,8|0,0:0|0:0,0:0:0:0:
88,60,46878,6,0,P|60:111|69:170,1,120,2|8,0:0|0:0,0:0:0:0:
108,216,47544,2,0,P|135:267|126:326,1,120,0|0,0:0|0:0,0:0:0:0:
88,372,48211,1,8,0:0:0:0:
88,372,48655,6,0,P|144:353|200:372,1,120,6|8,0:0|0:0,0:0:0:0:
316,344,49544,2,0,L|337:225,1,120,0|8,0:0|0:0,0:0:0:0:
360,108,50433,5,2,0:0:0:0:
247,147,50878,1,8,0:0:0:0:
156,68,51322,1,0,0:0:0:0:
42,107,51767,1,8,0:0:0:0:
64,224,52211,6,0,L|85:343,1,120,4|8,0:0|0:0,0:0:0:0:
204,364,53100,2,0,L|225:245,1,120,0|8,0:0|0:0,0:0:0:0:
344,224,53989,6,0,L|365:343,2,120,2|8|0,0:0|0:0|0:0,0:0:0:0:
284,120,55322,1,8,0:0:0:0:
284,120,55767,6,0,L|164:109,1,120,2|8,0:0|0:0,0:0:0:0:
56,160,56655,2,0,P|37:217|56:273,1,120,2|8,0:0|0:0,0:0:0:0:
108,300,57322,6,0,L|228:289,1,120,2|4,0:0|0:0,0:0:0:0:
288,284,57989,1,0,0:0:0:0:
400,324,58433,2,0,L|456:345,2,60,4|0|0,0:0|0:0|0:0,0:0:0:0:
288,284,59322,6,0,P|269:227|288:172,1,120,4|8,0:0|0:0,0:0:0:0:
384,96,60211,2,0,P|401:120|409:149,1,60,0|0,0:0|0:0,0:0:0:0:
452,192,60655,2,0,P|439:218|418:240,1,60,8|0,0:0|0:0,0:0:0:0:
360,256,61100,6,0,L|240:245,1,120,2|8,0:0|0:0,0:0:0:0:
124,268,61989,2,0,P|107:244|99:215,1,60,0|0,0:0|0:0,0:0:0:0:
56,172,62433,2,0,P|69:146|90:124,1,60,8|0,0:0|0:0,0:0:0:0:
148,104,62878,6,0,P|258:144|366:99,1,240,4|0,0:0|0:0,0:0:0:0:
484,116,64211,1,8,0:0:0:0:
472,236,64655,6,0,L|461:356,2,120,2|8|0,0:0|0:0|0:0,0:0:0:0:
484,116,65989,1,8,0:0:0:0:
256,192,66433,12,2,68211,0:0:0:0:
76,192,69989,6,0,L|91:280,1,90,4|0,0:0|0:0,0:0:0:0:
132,292,70433,2,0,L|116:203,1,90,8|0,0:0|0:0,0:0:0:0:
151,179,70878,1,0,0:0:0:0:
166,267,71100,1,0,0:0:0:0:
181,355,71322,1,8,0:0:0:0:
181,355,71767,6,0,P|223:366|266:354,1,90,2|0,0:0|0:0,0:0:0:0:
304,336,72211,2,0,P|346:324|389:336,1,90,8|0,0:0|0:0,0:0:0:0:
428,352,72655,1,0,0:0:0:0:
492,296,72878,1,0,0:0:0:0:
475,213,73100,1,8,0:0:0:0:
475,213,73544,6,0,L|491:125,1,90,2|0,0:0|0:0,0:0:0:0:
456,99,73988,2,0,L|440:188,1,90,8|0,0:0|0:0,0:0:0:0:
400,199,74433,1,0,0:0:0:0:
320,220,74655,1,0,0:0:0:0:
261,161,74878,1,8,0:0:0:0:
282,80,75100,1,0,0:0:0:0:
362,57,75322,6,0,L|422:67,2,60,2|0|8,0:0|0:0|0:0,0:0:0:0:
232,164,76211,2,0,L|172:174,2,60,0|0|8,0:0|0:0|0:0,0:0:0:0:
388,224,77100,6,0,P|400:266|389:309,1,90,4|0,0:0|0:0,0:0:0:0:
361,343,77545,2,0,P|318:355|275:344,1,90,8|0,0:0|0:0,0:0:0:0:
242,316,77989,1,0,0:0:0:0:
161,299,78211,1,0,0:0:0:0:
89,341,78433,1,8,0:0:0:0:
89,341,78877,6,0,P|78:298|90:256,1,90,2|0,0:0|0:0,0:0:0:0:
108,216,79322,2,0,P|118:173|106:131,1,90,8|0,0:0|0:0,0:0:0:0:
88,92,79767,1,0,0:0:0:0:
172,80,79989,1,0,0:0:0:0:
256,68,80211,1,8,0:0:0:0:
256,68,80655,6,0,L|344:83,1,90,2|0,0:0|0:0,0:0:0:0:
372,118,81100,2,0,L|283:133,1,90,8|0,0:0|0:0,0:0:0:0:
256,168,81544,1,0,0:0:0:0:
340,180,81767,1,0,0:0:0:0:
371,258,81989,1,8,0:0:0:0:
318,323,82211,1,0,0:0:0:0:
235,309,82433,6,0,L|175:299,1,60,2|0,0:0|0:0,0:0:0:0:
100,340,82878,2,0,L|78:283,1,60,8|0,0:0|0:0,0:0:0:0:
5,238,83322,2,0,L|43:191,1,60,0|0,0:0|0:0,0:0:0:0:
45,104,83767,2,0,L|105:114,1,60,8|0,0:0|0:0,0:0:0:0:
188,124,84211,6,0,P|221:95|235:53,1,90,4|0,0:0|0:0,0:0:0:0:
276,44,84655,2,0,L|291:132,1,90,8|0,0:0|0:0,0:0:0:0:
296,176,85100,1,0,0:0:0:0:
374,207,85322,1,0,0:0:0:0:
452,238,85544,1,8,0:0:0:0:
452,238,85989,6,0,L|437:326,1,90,2|0,0:0|0:0,0:0:0:0:
412,360,86433,2,0,P|370:372|327:361,1,90,8|0,0:0|0:0,0:0:0:0:
292,336,86878,1,0,0:0:0:0:
219,293,87100,1,0,0:0:0:0:
145,334,87322,1,8,0:0:0:0:
145,334,87767,6,0,L|57:319,1,90,2|0,0:0|0:0,0:0:0:0:
29,284,88212,2,0,L|118:269,1,90,8|0,0:0|0:0,0:0:0:0:
145,234,88656,1,0,0:0:0:0:
61,222,88878,1,0,0:0:0:0:
30,144,89100,1,8,0:0:0:0:
83,79,89322,1,0,0:0:0:0:
166,93,89544,6,0,L|226:103,1,60,2|0,0:0|0:0,0:0:0:0:
308,116,89989,2,0,L|368:106,1,60,8|0,0:0|0:0,0:0:0:0:
448,128,90433,2,0,P|470:182|458:240,1,120,0|8,0:0|0:0,0:0:0:0:
328,348,91322,6,0,P|286:336|243:347,1,90,4|0,0:0|0:0,0:0:0:0:
200,360,91767,2,0,P|158:372|115:361,1,90,8|0,0:0|0:0,0:0:0:0:
76,340,92211,1,0,0:0:0:0:
50,261,92433,1,0,0:0:0:0:
105,200,92655,1,8,0:0:0:0:
105,200,93100,6,0,P|138:171|152:129,1,90,2|0,0:0|0:0,0:0:0:0:
196,128,93544,2,0,P|202:172|229:206,1,90,8|0,0:0|0:0,0:0:0:0:
268,224,93989,1,0,0:0:0:0:
350,211,94211,1,0,0:0:0:0:
380,132,94433,1,8,0:0:0:0:
380,132,94878,6,0,L|363:42,1,90,2|0,0:0|0:0,0:0:0:0:
398,18,95322,2,0,L|413:107,1,90,8|0,0:0|0:0,0:0:0:0:
454,118,95766,1,0,0:0:0:0:
466,202,95989,1,0,0:0:0:0:
392,236,96211,1,8,0:0:0:0:
380,320,96434,1,0,0:0:0:0:
306,354,96655,6,0,P|276:356|247:348,1,60,2|0,0:0|0:0,0:0:0:0:
168,376,97100,2,0,P|150:351|144:322,1,60,8|0,0:0|0:0,0:0:0:0:
79,267,97544,2,0,P|91:239|113:219,1,60,2|0,0:0|0:0,0:0:0:0:
128,135,97989,2,0,P|157:132|186:140,1,60,8|0,0:0|0:0,0:0:0:0:
264,172,98433,6,0,P|321:185|376:162,2,120,0|0|0,0:0|0:0|0:0,0:0:0:0:
264,172,100211,5,0,0:0:0:0:
