osu file format v14

[General]
AudioFilename: audio.mp3
AudioLeadIn: 0
PreviewTime: 68655
Countdown: 0
SampleSet: Soft
StackLeniency: 0.2
Mode: 0
LetterboxInBreaks: 0
WidescreenStoryboard: 1

[Editor]
Bookmarks: 656,7767,23767,52211,69989,100211
DistanceSpacing: 0.2
BeatDivisor: 8
GridSize: 32
TimelineZoom: 1.8

[Metadata]
Title:Shen De Sui Bo Zhu Liu
TitleUnicode:神的随波逐流
Artist:Ling Yuan yousa
ArtistUnicode:泠鸢yousa
Creator:Rizen
Version:LCFC's Another
Source:
Tags:神のまにまに Kami no Manimani At God's Mercy LCFC LowComboFC -_G_I_D_Z_- -GIDZ- Little CloudSplash16 Karen Pata-Mon
BeatmapID:1382042
BeatmapSetID:650303

[Difficulty]
HPDrainRate:6
CircleSize:4
OverallDifficulty:8
ApproachRate:8.5
SliderMultiplier:2.6
SliderTickRate:1

[Events]
//Background and Video events
0,0,"aa.jpg",0,0
//Break Periods
//Storyboard Layer 0 (Background)
//Storyboard Layer 1 (Fail)
//Storyboard Layer 2 (Pass)
//Storyboard Layer 3 (Foreground)
//Storyboard Sound Samples

[TimingPoints]
656,444.444444444444,4,2,1,50,1,0
656,-166.666666666667,4,2,1,50,0,0
1100,-100,4,2,1,50,0,0
1433,-166.666666666667,4,2,1,50,0,0
1989,-100,4,2,1,50,0,0
2322,-166.666666666667,4,2,1,50,0,0
2878,-100,4,2,1,50,0,0
4100,-166.666666666667,4,2,1,50,0,0
4655,-100,4,2,1,50,0,0
5989,-166.666666666667,4,2,1,50,0,0
6767,-166.666666666667,4,2,1,5,0,0
6878,-125,4,2,1,50,0,0
7211,-125,4,2,1,5,0,0
7322,-100,4,2,1,50,0,0
7655,-100,4,2,1,5,0,0
7767,-100,4,2,1,50,0,0
23767,-166.666666666667,4,2,1,50,0,0
67322,-100,4,2,1,50,0,0
68655,-166.666666666667,4,2,1,50,0,0
69989,-100,4,2,1,50,0,1
98433,-100,4,2,1,50,0,0

[Colours]
Combo1 : 190,190,190
Combo2 : 255,128,0
Combo3 : 255,255,128
Combo4 : 255,128,192

[HitObjects]
442,334,656,5,0,0:0:0:0:
410,309,767,2,0,P|404:271|423:238,1,77.999997619629,0|0,0:0|0:0,0:0:0:0:
444,156,1100,6,0,P|406:206|344:203,1,130,0|0,0:0|0:0,0:0:0:0:
297,136,1433,6,0,L|304:107,2,19.4999994049072,0|0|0,0:0|0:0|0:0,0:0:0:0:
286,81,1655,2,0,L|199:96,1,77.999997619629,0|0,0:0|0:0,0:0:0:0:
124,81,1989,6,0,B|92:123|92:123|119:198,1,130,0|0,0:0|0:0,0:0:0:0:
192,246,2322,6,0,L|190:278,2,19.4999994049072,0|0|0,0:0|0:0|0:0,0:0:0:0:
190,300,2544,2,0,P|227:289|265:282,1,77.999997619629,0|0,0:0|0:0,0:0:0:0:
386,314,2878,6,0,P|333:276|270:262,1,130,0|0,0:0|0:0,0:0:0:0:
147,373,3211,1,0,0:0:0:0:
190,300,3322,1,0,0:0:0:0:
125,213,3433,2,0,B|55:197|81:261|-2:236,1,130,0|0,0:0|0:0,0:0:0:0:
190,147,3767,2,0,P|236:105|298:117,1,130,0|0,0:0|0:0,0:0:0:0:
372,149,4100,6,0,L|402:160,1,19.4999994049072,0|0,0:0|0:0,0:0:0:0:
366,167,4211,2,0,L|385:294,1,116.999996429443,0|0,0:0|0:0,0:0:0:0:
470,343,4655,6,0,P|433:313|386:314,1,97.5,0|0,0:0|0:0,0:0:0:0:
376,327,4878,1,0,0:0:0:0:
292,315,4989,2,0,P|276:282|281:244,1,65,0|0,0:0|0:0,0:0:0:0:
325,134,5211,5,0,0:0:0:0:
380,79,5321,1,0,0:0:0:0:
455,99,5433,1,0,0:0:0:0:
476,174,5543,1,0,0:0:0:0:
421,230,5655,1,0,0:0:0:0:
401,155,5767,5,0,0:0:0:0:
401,155,5878,1,0,0:0:0:0:
345,209,5989,5,0,0:0:0:0:
345,209,6433,6,0,P|329:264|361:311,1,116.999996429443,0|0,0:0|0:0,0:0:0:0:
373,296,6878,6,0,P|331:278|259:362,1,156
267,357,7322,6,0,P|177:370|132:290,1,195,2|0,0:0|0:0,0:0:0:0:
51,242,7767,6,0,P|113:245|157:199,1,130,4|0,0:0|0:0,0:0:0:0:
131,48,8100,1,0,0:0:0:0:
115,19,8211,6,0,P|80:71|98:132,1,130,8|0,0:0|0:0,0:0:0:0:
243,185,8544,1,0,0:0:0:0:
276,184,8655,6,0,P|267:153|243:132,1,65,0|0,0:0|0:0,0:0:0:0:
266,43,8878,2,0,P|235:34|204:44,1,65,0|0,0:0|0:0,0:0:0:0:
141,202,9100,5,8,0:0:0:0:
168,261,9211,1,0,0:0:0:0:
224,291,9322,1,0,0:0:0:0:
287,281,9433,1,0,0:0:0:0:
332,236,9544,6,0,B|408:223|373:285|457:273,1,130,0|0,0:0|0:0,0:0:0:0:
411,125,9878,1,0,0:0:0:0:
423,154,9989,6,0,B|396:225|360:165|332:236,1,130,8|0,0:0|0:0,0:0:0:0:
479,277,10322,1,0,0:0:0:0:
447,273,10433,6,0,P|466:298|468:330,1,65,0|0,0:0|0:0,0:0:0:0:
307,379,10655,2,0,P|287:353|285:321,1,65,0|0,0:0|0:0,0:0:0:0:
411,125,10878,5,8,0:0:0:0:
358,89,10989,1,0,0:0:0:0:
297,104,11100,1,0,0:0:0:0:
234,118,11211,1,0,0:0:0:0:
181,81,11322,6,0,P|119:74|78:121,1,130,0|0,0:0|0:0,0:0:0:0:
327,264,11655,1,0,0:0:0:0:
348,238,11767,6,0,P|306:190|244:198,1,130,8|0,0:0|0:0,0:0:0:0:
115,351,12100,1,0,0:0:0:0:
96,323,12211,6,0,P|99:291|118:265,1,65,0|0,0:0|0:0,0:0:0:0:
262,373,12433,2,0,P|235:354|223:324,1,65,0|0,0:0|0:0,0:0:0:0:
388,254,12655,2,0,P|358:267|326:263,1,65,8|0,0:0|0:0,0:0:0:0:
347,85,12878,2,0,P|343:116|324:142,1,65,0|0,0:0|0:0,0:0:0:0:
117,265,13100,6,0,B|193:278|158:216|242:228,1,130,0|0,0:0|0:0,0:0:0:0:
241,230,13396,1,0,0:0:0:0:
245,237,13470,1,0,0:0:0:0:
244,245,13544,6,0,P|247:276|266:302,1,65,8|0,0:0|0:0,0:0:0:0:
470,220,13767,2,0,P|466:188|447:162,1,65,0|0,0:0|0:0,0:0:0:0:
328,42,13989,6,0,B|278:101|349:102|297:168,1,130,0|0,0:0|0:0,0:0:0:0:
297,166,14285,1,0,0:0:0:0:
289,166,14359,1,0,0:0:0:0:
282,161,14433,6,0,P|253:148|221:151,1,65,8|0,0:0|0:0,0:0:0:0:
191,370,14656,2,0,P|220:382|252:379,1,65,0|0,0:0|0:0,0:0:0:0:
392,220,14878,6,0,P|342:260|315:319,1,130,4|0,0:0|0:0,0:0:0:0:
189,147,15211,1,0,0:0:0:0:
183,180,15322,6,0,P|192:243|229:296,1,130,8|0,0:0|0:0,0:0:0:0:
16,319,15655,1,0,0:0:0:0:
42,341,15767,6,0,P|69:357|101:364,1,65,0|0,0:0|0:0,0:0:0:0:
315,319,15989,2,0,P|283:326|255:342,1,65,0|0,0:0|0:0,0:0:0:0:
62,137,16211,5,8,0:0:0:0:
126,134,16322,1,0,0:0:0:0:
189,147,16433,1,0,0:0:0:0:
248,175,16544,1,0,0:0:0:0:
298,216,16655,6,0,B|331:179|331:179|316:99,1,130,0|0,0:0|0:0,0:0:0:0:
137,104,16989,1,0,0:0:0:0:
126,134,17100,6,0,B|93:97|93:97|107:17,1,130,8|0,0:0|0:0,0:0:0:0:
215,28,17433,1,0,0:0:0:0:
224,59,17544,6,0,P|251:75|283:82,1,65,0|0,0:0|0:0,0:0:0:0:
68,219,17767,2,0,P|36:225|8:242,1,65,0|0,0:0|0:0,0:0:0:0:
189,382,17989,5,8,0:0:0:0:
235,336,18100,1,0,0:0:0:0:
228,272,18211,1,0,0:0:0:0:
218,208,18322,1,0,0:0:0:0:
209,144,18433,6,0,P|270:165|323:201,1,130,0|0,0:0|0:0,0:0:0:0:
395,331,18767,1,0,0:0:0:0:
371,309,18878,6,0,P|358:245|363:180,1,130,8|0,0:0|0:0,0:0:0:0:
400,82,19211,1,0,0:0:0:0:
431,86,19322,6,0,P|409:109|383:128,1,65,0|0,0:0|0:0,0:0:0:0:
512,191,19544,2,0,P|480:200|448:203,1,65,0|0,0:0|0:0,0:0:0:0:
288,357,19767,6,0,P|278:325|275:293,1,65,8|0,0:0|0:0,0:0:0:0:
157,373,19989,2,0,P|164:341|177:311,1,65,0|0,0:0|0:0,0:0:0:0:
343,211,20211,6,0,L|220:167,1,130,4|0,0:0|0:0,0:0:0:0:
174,92,20544,1,0,0:0:0:0:
143,102,20655,1,8,0:0:0:0:
112,112,20767,2,0,P|79:166|100:226,1,130,0|0,0:0|0:0,0:0:0:0:
181,253,21100,5,0,0:0:0:0:
189,250,21174,1,0,0:0:0:0:
197,247,21248,1,0,0:0:0:0:
205,244,21322,2,0,B|218:292|218:292|194:333,1,97.5,0|0,0:0|0:0,0:0:0:0:
186,347,21544,5,8,0:0:0:0:
303,294,21655,2,0,P|366:300|406:350,1,130,0|0,0:0|0:0,0:0:0:0:
325,379,21989,5,4,0:0:0:0:
409,224,22211,1,0,0:0:0:0:
405,349,22433,1,8,0:0:0:0:
379,309,22544,1,0,0:0:0:0:
335,290,22655,1,0,0:0:0:0:
288,299,22766,1,0,0:0:0:0:
254,332,22877,5,0,0:0:0:0:
254,332,23767,6,0,P|210:295|154:303,1,116.999996429443,4|0,0:0|0:0,0:0:0:0:
109,366,24211,2,0,L|26:376,1,77.999997619629,8|0,0:0|0:0,0:0:0:0:
170,205,24655,1,0,0:0:0:0:
216,268,24878,1,0,0:0:0:0:
0,232,25100,1,8,0:0:0:0:
31,161,25323,1,0,0:0:0:0:
37,141,25433,2,0,L|17:138,1,19.4999994049072
43,121,25544,5,2,0:0:0:0:
16,25,25767,1,0,0:0:0:0:
148,185,25989,1,8,0:0:0:0:
235,16,26212,1,0,0:0:0:0:
245,31,26322,2,0,L|275:26,1,19.4999994049072
255,47,26433,2,0,P|300:63|386:74,1,116.999996429443,0|0,0:0|0:0,0:0:0:0:
438,38,26878,1,8,0:0:0:0:
506,183,27100,1,0,0:0:0:0:
322,177,27322,6,0,P|377:158|435:150,1,116.999996429443,2|0,0:0|0:0,0:0:0:0:
506,183,27767,2,0,L|496:266,1,77.999997619629,8|0,0:0|0:0,0:0:0:0:
486,337,28100,1,0,0:0:0:0:
486,337,28211,1,0,0:0:0:0:
425,286,28433,1,0,0:0:0:0:
175,287,28655,1,8,0:0:0:0:
249,259,28877,1,0,0:0:0:0:
373,42,29100,5,2,0:0:0:0:
361,120,29322,1,0,0:0:0:0:
193,97,29544,1,8,0:0:0:0:
254,146,29766,1,0,0:0:0:0:
175,287,29989,1,0,0:0:0:0:
141,266,30100,2,0,P|102:265|70:287,1,77.999997619629,0|0,0:0|0:0,0:0:0:0:
82,364,30433,1,8,0:0:0:0:
50,177,30655,1,0,0:0:0:0:
53,161,30767,2,0,L|18:172,1,19.4999994049072,0|0,0:0|0:0,0:0:0:0:
54,148,30878,6,0,P|50:89|34:33,1,116.999996429443,2|0,0:0|0:0,0:0:0:0:
108,12,31322,2,0,L|184:25,1,77.999997619629,8|0,0:0|0:0,0:0:0:0:
261,38,31655,1,0,0:0:0:0:
261,38,31767,1,0,0:0:0:0:
275,115,31989,1,0,0:0:0:0:
470,77,32211,1,8,0:0:0:0:
456,154,32433,1,0,0:0:0:0:
459,172,32544,2,0,L|426:180,1,19.4999994049072,0|0,0:0|0:0,0:0:0:0:
461,190,32655,5,2,0:0:0:0:
375,113,32878,1,0,0:0:0:0:
236,241,33100,1,8,0:0:0:0:
275,114,33322,2,0,P|269:76|257:39,1,77.999997619629,0|0,0:0|0:0,0:0:0:0:
171,3,33767,1,0,0:0:0:0:
39,47,33989,1,8,0:0:0:0:
118,66,34211,1,0,0:0:0:0:
207,211,34433,5,2,0:0:0:0:
128,230,34655,1,0,0:0:0:0:
197,85,34878,1,8,0:0:0:0:
81,151,35100,2,0,L|1:129,1,77.999997619629,0|0,0:0|0:0,0:0:0:0:
222,226,35544,1,0,0:0:0:0:
194,67,35767,1,8,0:0:0:0:
265,112,35989,1,0,0:0:0:0:
115,245,36211,5,6,0:0:0:0:
124,282,36322,1,0,0:0:0:0:
133,318,36433,2,0,P|171:327|206:313,1,77.999997619629,0|8,0:0|0:0,0:0:0:0:
325,209,36767,2,0,P|298:236|293:274,1,77.999997619629,0|0,0:0|0:0,0:0:0:0:
339,350,37100,1,0,0:0:0:0:
377,343,37211,1,0,0:0:0:0:
415,336,37322,1,0,0:0:0:0:
472,148,37544,1,8,0:0:0:0:
504,228,37767,1,0,0:0:0:0:
300,122,37989,6,0,P|293:66|336:31,1,116.999996429443,6|0,0:0|0:0,0:0:0:0:
408,62,38433,2,0,P|444:49|483:41,1,77.999997619629,8|0,0:0|0:0,0:0:0:0:
308,201,38878,1,0,0:0:0:0:
236,168,39100,1,0,0:0:0:0:
415,165,39322,1,8,0:0:0:0:
422,243,39544,1,0,0:0:0:0:
410,262,39655,2,0,L|437:269,1,19.4999994049072
398,281,39767,5,2,0:0:0:0:
313,308,39989,1,0,0:0:0:0:
132,189,40211,1,8,0:0:0:0:
209,230,40433,1,0,0:0:0:0:
217,214,40544,2,0,L|242:226,1,19.4999994049072
224,199,40655,2,0,B|254:149|212:141|239:86,1,116.999996429443,0|0,0:0|0:0,0:0:0:0:
316,54,41100,1,8,0:0:0:0:
247,4,41322,1,0,0:0:0:0:
384,104,41544,6,0,P|440:86|498:78,1,116.999996429443,2|0,0:0|0:0,0:0:0:0:
497,156,41989,2,0,P|486:193|480:232,1,77.999997619629,8|0,0:0|0:0,0:0:0:0:
493,308,42322,1,0,0:0:0:0:
493,308,42433,1,0,0:0:0:0:
423,357,42655,1,0,0:0:0:0:
327,207,42878,1,8,0:0:0:0:
290,284,43100,1,0,0:0:0:0:
132,202,43322,5,2,0:0:0:0:
139,287,43544,1,0,0:0:0:0:
125,117,43767,2,0,P|128:78|141:41,1,77.999997619629,8|0,0:0|0:0,0:0:0:0:
217,23,44100,1,0,0:0:0:0:
249,43,44211,1,2,0:0:0:0:
287,40,44322,2,0,L|364:29,1,77.999997619629,0|0,0:0|0:0,0:0:0:0:
440,12,44655,1,8,0:0:0:0:
483,90,44878,1,0,0:0:0:0:
484,108,44989,2,0,L|512:99,1,19.4999994049072
485,123,45100,6,0,P|429:108|371:108,1,116.999996429443,2|0,0:0|0:0,0:0:0:0:
327,172,45544,2,0,P|349:203|363:240,1,77.999997619629,8|0,0:0|0:0,0:0:0:0:
335,313,45878,1,0,0:0:0:0:
335,313,45989,1,0,0:0:0:0:
403,354,46211,1,0,0:0:0:0:
245,158,46433,1,8,0:0:0:0:
175,196,46655,1,0,0:0:0:0:
168,213,46767,2,0,L|141:200,1,19.4999994049072
162,231,46878,5,2,0:0:0:0:
144,304,47100,1,0,0:0:0:0:
3,122,47322,1,8,0:0:0:0:
31,195,47544,2,0,P|65:177|103:169,1,77.999997619629,0|0,0:0|0:0,0:0:0:0:
264,188,47989,1,0,0:0:0:0:
182,212,48211,1,8,0:0:0:0:
246,46,48433,1,0,0:0:0:0:
265,52,48544,2,0,L|274:16,1,19.4999994049072
286,58,48655,6,0,P|313:108|297:163,1,116.999996429443,6|0,0:0|0:0,0:0:0:0:
221,181,49100,1,8,0:0:0:0:
221,287,49322,1,0,0:0:0:0:
211,302,49433,2,0,L|234:309,1,19.4999994049072
201,313,49544,2,0,P|155:347|98:357,1,116.999996429443,0|0,0:0|0:0,0:0:0:0:
32,314,49989,2,0,L|17:237,1,77.999997619629,8|0,0:0|0:0,0:0:0:0:
145,37,50433,5,2,0:0:0:0:
123,114,50655,1,0,0:0:0:0:
322,163,50878,1,10,0:0:0:0:
315,124,50989,1,0,0:0:0:0:
280,105,51100,1,0,0:0:0:0:
174,191,51322,1,2,0:0:0:0:
149,220,51433,2,0,L|137:297,1,77.999997619629,0|0,0:0|0:0,0:0:0:0:
8,258,51767,1,8,0:0:0:0:
33,287,51878,2,0,L|44:364,1,77.999997619629,0|0,0:0|0:0,0:0:0:0:
154,318,52211,6,0,P|192:323|228:338,1,77.999997619629,0|0,0:0|0:0,0:0:0:0:
378,209,52655,2,0,P|342:224|304:230,1,77.999997619629,8|0,0:0|0:0,0:0:0:0:
234,192,52989,1,0,0:0:0:0:
234,192,53100,1,0,0:0:0:0:
205,104,53322,1,0,0:0:0:0:
360,56,53544,1,8,0:0:0:0:
425,117,53767,6,0,P|460:131|499:138,1,77.999997619629,0|2,0:0|0:0,0:0:0:0:
349,177,54211,2,0,P|387:172|423:158,1,77.999997619629,0|8,0:0|0:0,0:0:0:0:
190,153,54655,2,0,P|159:129|134:99,1,77.999997619629,0|0,0:0|0:0,0:0:0:0:
176,248,55099,2,0,P|161:212|154:173,1,77.999997619629,0|8,0:0|0:0,0:0:0:0:
184,33,55544,1,0,0:0:0:0:
190,153,55767,6,0,P|132:201|59:181,2,155.999995239258,2|8|0,0:0|0:0|0:0,0:0:0:0:
116,122,56878,1,2,0:0:0:0:
150,276,57100,1,8,0:0:0:0:
225,239,57322,6,0,L|306:260,1,77.999997619629,2|2,0:0|0:0,0:0:0:0:
492,306,57767,1,4,0:0:0:0:
386,167,57989,1,0,0:0:0:0:
382,261,58211,1,4,0:0:0:0:
379,355,58433,1,4,0:0:0:0:
492,306,58655,1,0,0:0:0:0:
306,310,58878,1,0,0:0:0:0:
503,225,59100,1,0,0:0:0:0:
233,265,59322,6,0,P|195:260|159:246,1,77.999997619629,4|0,0:0|0:0,0:0:0:0:
411,130,59767,2,0,P|449:135|485:149,1,77.999997619629,8|0,0:0|0:0,0:0:0:0:
503,225,60100,1,0,0:0:0:0:
503,225,60211,1,0,0:0:0:0:
423,309,60433,1,0,0:0:0:0:
395,120,60655,1,8,0:0:0:0:
367,232,60877,1,0,0:0:0:0:
339,260,60989,1,0,0:0:0:0:
300,266,61100,6,0,P|263:251|225:246,1,77.999997619629,2|0,0:0|0:0,0:0:0:0:
54,147,61544,2,0,P|92:141|128:127,1,77.999997619629,8|0,0:0|0:0,0:0:0:0:
179,67,61878,1,0,0:0:0:0:
179,67,61989,1,0,0:0:0:0:
74,21,62211,1,0,0:0:0:0:
200,193,62433,1,8,0:0:0:0:
292,125,62655,1,0,0:0:0:0:
312,91,62767,1,0,0:0:0:0:
305,52,62878,5,4,0:0:0:0:
74,40,63100,2,0,P|110:25|148:19,1,77.999997619629,0|8,0:0|0:0,0:0:0:0:
186,203,63544,2,0,P|222:217|260:223,1,77.999997619629,0|0,0:0|0:0,0:0:0:0:
400,138,63989,1,0,0:0:0:0:
347,276,64211,1,8,0:0:0:0:
421,242,64433,1,0,0:0:0:0:
459,235,64544,1,0,0:0:0:0:
497,228,64655,5,2,0:0:0:0:
511,309,64878,2,0,L|434:323,1,77.999997619629,0|8,0:0|0:0,0:0:0:0:
342,256,65322,1,0,0:0:0:0:
407,162,65544,2,0,L|483:147,1,77.999997619629,0|0,0:0|0:0,0:0:0:0:
318,265,65989,2,0,P|265:239|208:228,1,116.999996429443,8|0,0:0|0:0,0:0:0:0:
190,236,66433,5,4,0:0:0:0:
301,358,66655,1,0,0:0:0:0:
262,140,66878,1,8,0:0:0:0:
117,290,67100,2,0,L|93:283,2,25.999999206543,0|0|0,0:0|0:0|0:0,0:0:0:0:
73,291,67322,5,0,0:0:0:0:
66,199,67433,2,0,L|76:135,1,65,0|0,0:0|0:0,0:0:0:0:
278,50,67655,5,0,0:0:0:0:
200,128,67767,1,8,0:0:0:0:
285,28,67878,5,0,0:0:0:0:
316,177,67989,1,0,0:0:0:0:
270,12,68100,5,0,0:0:0:0:
426,117,68211,1,2,0:0:0:0:
426,117,68655,6,0,P|473:175|460:249,2,155.999995239258,0|0|0,0:0|0:0|0:0,0:0:0:0:
447,40,69989,6,0,P|410:90|349:82,1,130,4|0,0:0|0:0,0:0:0:0:
184,123,70322,1,0,0:0:0:0:
177,91,70433,2,0,P|238:83|274:133,1,130,8|0,0:0|0:0,0:0:0:0:
254,286,70767,1,0,0:0:0:0:
235,312,70878,6,0,P|220:283|223:251,1,65,0|0,0:0|0:0,0:0:0:0:
418,220,71100,2,0,P|432:248|429:280,1,65,0|0,0:0|0:0,0:0:0:0:
144,184,71322,5,8,0:0:0:0:
200,152,71433,1,0,0:0:0:0:
264,158,71544,1,0,0:0:0:0:
312,200,71655,1,0,0:0:0:0:
328,262,71767,6,0,B|315:338|377:303|365:387,1,130,2|0,0:0|0:0,0:0:0:0:
420,188,72100,1,0,0:0:0:0:
418,220,72211,2,0,B|490:193|429:157|507:125,1,130,10|0,0:0|0:0,0:0:0:0:
402,9,72544,1,0,0:0:0:0:
378,31,72655,6,0,P|375:62|390:91,1,65,2|0,0:0|0:0,0:0:0:0:
248,84,72878,2,0,P|261:113|288:130,1,65,0|0,0:0|0:0,0:0:0:0:
418,220,73100,5,8,0:0:0:0:
356,206,73211,1,0,0:0:0:0:
306,245,73322,1,0,0:0:0:0:
256,283,73433,1,0,0:0:0:0:
193,269,73544,6,0,P|135:243|71:232,1,130,2|0,0:0|0:0,0:0:0:0:
111,85,73878,1,0,0:0:0:0:
115,52,73989,2,0,P|62:89|21:139,1,130,8|0,0:0|0:0,0:0:0:0:
95,281,74322,1,0,0:0:0:0:
83,311,74433,6,0,P|65:278|59:239,1,65,0|0,0:0|0:0,0:0:0:0:
197,112,74655,2,0,P|190:143|174:172,1,65,0|0,0:0|0:0,0:0:0:0:
338,172,74878,2,0,P|320:139|314:100,1,65,8|0,0:0|0:0,0:0:0:0:
452,251,75100,2,0,P|445:282|429:311,1,65,0|0,0:0|0:0,0:0:0:0:
256,376,75322,6,0,L|256:246,1,130,2|0,0:0|0:0,0:0:0:0:
256,168,75655,1,0,0:0:0:0:
256,136,75767,2,0,L|187:149,1,65,8|0,0:0|0:0,0:0:0:0:
290,21,75989,2,0,L|353:8,1,65,0|0,0:0|0:0,0:0:0:0:
366,238,76211,6,0,L|341:95,1,130,2|0,0:0|0:0,0:0:0:0:
340,92,76507,2,0,L|291:102,2,43.3333333333333,0|0|10,0:0|0:0|0:0,0:0:0:0:
422,140,76767,1,0,0:0:0:0:
485,126,76878,2,0,L|497:62,1,65,2|0,0:0|0:0,0:0:0:0:
249,109,77100,6,0,B|217:143|217:143|230:225,1,130,4|0,0:0|0:0,0:0:0:0:
404,329,77433,1,0,0:0:0:0:
384,354,77544,2,0,B|352:320|352:320|365:237,1,130,8|0,0:0|0:0,0:0:0:0:
485,126,77878,1,0,0:0:0:0:
504,151,77989,6,0,P|470:157|436:174,1,65,0|0,0:0|0:0,0:0:0:0:
290,21,78211,2,0,P|319:34|351:39,1,65,0|0,0:0|0:0,0:0:0:0:
495,240,78433,5,8,0:0:0:0:
447,285,78544,1,0,0:0:0:0:
385,268,78655,1,0,0:0:0:0:
322,250,78766,1,0,0:0:0:0:
260,232,78878,6,0,B|208:245|208:245|190:269|190:269|145:282,1,130,2|0,0:0|0:0,0:0:0:0:
49,129,79211,1,0,0:0:0:0:
20,144,79322,2,0,B|72:157|72:157|90:181|90:181|134:194,1,130,8|0,0:0|0:0,0:0:0:0:
226,64,79655,1,0,0:0:0:0:
208,91,79767,6,0,L|144:106,1,65,2|0,0:0|0:0,0:0:0:0:
322,250,79989,2,0,L|259:231,1,65,0|0,0:0|0:0,0:0:0:0:
304,71,80211,5,8,0:0:0:0:
368,61,80322,1,0,0:0:0:0:
419,100,80433,1,0,0:0:0:0:
483,90,80544,1,0,0:0:0:0:
512,36,80655,6,0,B|466:81|466:81|478:145,1,130,2|0,0:0|0:0,0:0:0:0:
322,250,80989,1,0,0:0:0:0:
337,278,81100,2,0,B|383:233|383:233|370:168,1,130,8|0,0:0|0:0,0:0:0:0:
196,62,81433,1,0,0:0:0:0:
208,91,81544,6,0,P|238:102|270:104,1,65,0|0,0:0|0:0,0:0:0:0:
131,198,81767,2,0,P|98:200|68:211,1,65,0|0,0:0|0:0,0:0:0:0:
305,74,81989,2,0,P|335:63|368:61,1,65,8|0,0:0|0:0,0:0:0:0:
62,257,82211,2,0,P|29:254|0:243,1,65,0|0,0:0|0:0,0:0:0:0:
232,186,82433,5,2,0:0:0:0:
273,355,82655,1,2,0:0:0:0:
131,198,82878,1,10,0:0:0:0:
286,265,83100,1,2,0:0:0:0:
318,263,83211,1,0,0:0:0:0:
345,245,83322,1,2,0:0:0:0:
373,106,83544,6,0,P|348:127|331:154,1,65,2|0,0:0|0:0,0:0:0:0:
218,287,83767,2,0,P|248:297|280:298,1,65,10|2,0:0|0:0,0:0:0:0:
452,330,83989,2,0,P|446:298|430:269,1,65,2|0,0:0|0:0,0:0:0:0:
345,245,84211,6,0,P|317:302|325:365,1,130,4|0,0:0|0:0,0:0:0:0:
424,343,84544,1,0,0:0:0:0:
452,330,84655,2,0,P|480:272|472:209,1,130,8|0,0:0|0:0,0:0:0:0:
373,106,84989,1,0,0:0:0:0:
356,133,85100,6,0,P|339:104|336:72,1,65,0|0,0:0|0:0,0:0:0:0:
490,26,85322,2,0,P|506:54|509:86,1,65,0|0,0:0|0:0,0:0:0:0:
472,209,85544,5,8,0:0:0:0:
432,261,85655,1,0,0:0:0:0:
383,303,85766,1,0,0:0:0:0:
327,333,85877,1,0,0:0:0:0:
263,346,85989,6,0,L|131:326,1,130,2|0,0:0|0:0,0:0:0:0:
81,187,86322,1,0,0:0:0:0:
59,211,86433,2,0,L|187:230,1,130,8|0,0:0|0:0,0:0:0:0:
270,90,86767,1,0,0:0:0:0:
292,114,86878,6,0,L|227:123,1,65,2|0,0:0|0:0,0:0:0:0:
268,260,87100,2,0,L|332:250,1,65,0|0,0:0|0:0,0:0:0:0:
463,69,87322,5,8,0:0:0:0:
452,133,87433,1,0,0:0:0:0:
442,197,87544,1,0,0:0:0:0:
432,261,87655,1,0,0:0:0:0:
421,325,87767,6,0,P|415:260|390:200,1,130,2|0,0:0|0:0,0:0:0:0:
181,317,88100,1,0,0:0:0:0:
176,349,88211,2,0,P|228:311|268:260,1,130,8|0,0:0|0:0,0:0:0:0:
32,148,88544,1,0,0:0:0:0:
5,166,88655,6,0,P|33:181|63:192,1,65,0|0,0:0|0:0,0:0:0:0:
285,136,88878,2,0,P|260:156|232:173,1,65,0|0,0:0|0:0,0:0:0:0:
1,314,89100,2,0,P|33:313|65:307,1,65,8|0,0:0|0:0,0:0:0:0:
245,100,89322,2,0,P|234:130|218:158,1,65,0|0,0:0|0:0,0:0:0:0:
152,223,89544,6,0,P|212:206|260:247,1,130,2|0,0:0|0:0,0:0:0:0:
164,338,89878,1,0,0:0:0:0:
153,369,89989,2,0,P|214:379|258:335,1,130,8|0,0:0|0:0,0:0:0:0:
179,98,90322,1,0,0:0:0:0:
161,76,90433,6,0,P|137:97|126:127,1,65,2|0,0:0|0:0,0:0:0:0:
20,86,90655,2,0,P|18:118|32:148,1,65,0|0,0:0|0:0,0:0:0:0:
164,338,90878,2,0,P|188:316|199:286,1,65,10|0,0:0|0:0,0:0:0:0:
305,327,91100,2,0,P|307:294|293:265,1,65,2|0,0:0|0:0,0:0:0:0:
95,200,91322,6,0,B|116:230|116:230|207:246,1,130,4|0,0:0|0:0,0:0:0:0:
351,131,91655,1,0,0:0:0:0:
383,135,91767,2,0,B|362:165|362:165|270:181,1,130,8|0,0:0|0:0,0:0:0:0:
126,106,92100,1,0,0:0:0:0:
155,92,92211,6,0,L|221:104,1,65,0|0,0:0|0:0,0:0:0:0:
301,47,92433,2,0,L|364:35,1,65,0|0,0:0|0:0,0:0:0:0:
504,180,92655,5,8,0:0:0:0:
446,145,92766,1,0,0:0:0:0:
383,135,92877,1,0,0:0:0:0:
318,124,92988,1,0,0:0:0:0:
254,114,93100,6,0,P|288:168|307:230,1,130,2|0,0:0|0:0,0:0:0:0:
121,307,93433,1,0,0:0:0:0:
137,335,93544,2,0,P|171:280|190:218,1,130,8|0,0:0|0:0,0:0:0:0:
86,56,93878,1,0,0:0:0:0:
73,85,93989,6,0,P|77:116|93:145,1,65,2|0,0:0|0:0,0:0:0:0:
190,26,94211,2,0,P|174:54|169:86,1,65,0|0,0:0|0:0,0:0:0:0:
255,266,94433,5,8,0:0:0:0:
317,283,94544,1,0,0:0:0:0:
381,276,94655,1,0,0:0:0:0:
437,245,94766,1,0,0:0:0:0:
477,194,94878,6,0,B|454:155|454:155|479:68,1,130,2|0,0:0|0:0,0:0:0:0:
286,109,95211,1,0,0:0:0:0:
299,138,95322,2,0,B|322:98|322:98|297:11,1,130,8|0,0:0|0:0,0:0:0:0:
478,44,95655,1,0,0:0:0:0:
448,58,95767,6,0,P|410:49|376:30,1,65,0|0,0:0|0:0,0:0:0:0:
155,63,95989,2,0,P|184:49|216:42,1,65,0|0,0:0|0:0,0:0:0:0:
512,73,96211,2,0,P|474:82|440:101,1,65,8|0,0:0|0:0,0:0:0:0:
91,78,96433,2,0,P|120:91|152:98,1,65,0|0,0:0|0:0,0:0:0:0:
308,101,96655,5,2,0:0:0:0:
178,240,96878,1,2,0:0:0:0:
364,284,97100,1,2,0:0:0:0:
286,200,97322,1,2,0:0:0:0:
279,231,97433,1,0,0:0:0:0:
272,262,97544,6,0,L|255:334,1,65,2|0,0:0|0:0,0:0:0:0:
208,143,97767,2,0,P|184:121|153:111,1,65,2|0,0:0|0:0,0:0:0:0:
32,273,97989,2,0,P|62:263|86:241,1,65,2|2,0:0|0:0,0:0:0:0:
7,56,98211,2,0,P|0:87|7:118,1,65,2|0,0:0|0:0,0:0:0:0:
86,159,98433,6,0,L|128:149,2,43.3333333333333,2|2|2,0:0|0:0|0:0,0:0:0:0:
178,240,98655,2,0,L|220:249,2,43.3333333333333,2|2|2,0:0|0:0|0:0,0:0:0:0:
208,143,98878,6,0,L|250:133,2,43.3333333333333,2|2|2,0:0|0:0|0:0,0:0:0:0:
300,224,99100,2,0,L|342:233,2,43.3333333333333,2|2|2,0:0|0:0|0:0,0:0:0:0:
330,127,99322,5,0,0:0:0:0:
423,25,99544,5,2,0:0:0:0:
511,48,99767,1,2,0:0:0:0:
448,112,99989,1,2,0:0:0:0:
461,61,100211,5,8,0:0:0:0:
