osu file format v14

[General]
AudioFilename: audio.mp3
AudioLeadIn: 0
PreviewTime: 68655
Countdown: 0
SampleSet: Soft
StackLeniency: 0.7
Mode: 0
LetterboxInBreaks: 0
WidescreenStoryboard: 1

[Editor]
Bookmarks: 100211
DistanceSpacing: 1.1
BeatDivisor: 4
GridSize: 32
TimelineZoom: 1.8

[Metadata]
Title:Shen De Sui Bo Zhu Liu
TitleUnicode:神的随波逐流
Artist:Ling Yuan yousa
ArtistUnicode:泠鸢yousa
Creator:Rizen
Version:GIDZ's Light Insane
Source:
Tags:神のまにまに Kami no Manimani At God's Mercy LCFC LowComboFC -_G_I_D_Z_- -GIDZ- Little CloudSplash16 Karen Pata-Mon
BeatmapID:1382591
BeatmapSetID:650303

[Difficulty]
HPDrainRate:6
CircleSize:4
OverallDifficulty:6.8
ApproachRate:8.6
SliderMultiplier:1.6
SliderTickRate:1

[Events]
//Background and Video events
0,0,"aa.jpg",0,0
//Break Periods
//Storyboard Layer 0 (Background)
//Storyboard Layer 1 (Fail)
//Storyboard Layer 2 (Pass)
//Storyboard Layer 3 (Foreground)
//Storyboard Sound Samples

[TimingPoints]
656,444.444444444444,4,2,99,50,1,0
6433,-142.857142857143,4,2,99,50,0,0
7767,-100,4,2,99,50,0,0
23767,-142.857142857143,4,2,99,40,0,0
37989,-100,4,2,99,60,0,0
52211,-100,4,2,99,50,0,0
59322,-100,4,2,99,60,0,0
68655,-200,4,2,99,30,0,0
68989,-200,4,2,99,5,0,0
69100,-133.333333333333,4,2,99,30,0,0
69433,-133.333333333333,4,2,99,5,0,0
69544,-105.263157894737,4,2,99,30,0,0
69878,-105.263157894737,4,2,99,5,0,0
69989,-86.9565217391304,4,2,99,80,0,1
98433,-100,4,2,99,60,0,0

[Colours]
Combo1 : 190,190,190
Combo2 : 255,128,0
Combo3 : 255,255,128
Combo4 : 255,128,192

[HitObjects]
152,277,6433,6,0,P|90:277|36:240,1,111.999996582031
134,366,7100,1,0,0:0:0:0:
134,366,7322,1,0,0:0:0:0:
257,191,7767,6,0,P|313:174|375:190,1,120,4|0,0:0|0:0,0:0:0:0:
410,216,8211,2,0,P|431:181|435:135,1,80,8|0,0:0|0:0,0:0:0:0:
430,110,8544,1,2,0:0:0:0:
407,86,8655,1,2,0:0:0:0:
498,21,8878,1,0,0:0:0:0:
498,21,9100,1,8,0:0:0:0:
331,104,9322,2,0,P|309:106|284:98,1,40,2|0,0:0|0:0,0:0:0:0:
250,77,9544,6,0,P|192:55|126:70,1,120
87,67,9989,2,0,P|61:102|63:151,1,80,8|0,0:0|0:0,0:0:0:0:
70,168,10322,1,2,0:0:0:0:
93,191,10433,1,2,0:0:0:0:
19,292,10655,1,0,0:0:0:0:
19,292,10878,1,8,0:0:0:0:
169,204,11100,2,0,P|193:197|225:202,1,40,2|0,0:0|0:0,0:0:0:0:
254,209,11322,6,0,P|316:220|385:204,1,120
419,203,11767,2,0,P|439:168|440:108,1,80,8|0,0:0|0:0,0:0:0:0:
436,98,12100,1,2,0:0:0:0:
417,72,12211,1,2,0:0:0:0:
508,189,12433,1,2,0:0:0:0:
368,297,12655,1,8,0:0:0:0:
368,137,12878,1,2,0:0:0:0:
367,313,13100,5,0,0:0:0:0:
472,187,13322,2,0,L|499:187,3,26.6666666666667,2|2|2|10,0:0|0:0|0:0|0:0,0:0:0:0:
438,372,13767,1,0,0:0:0:0:
311,241,13989,1,2,0:0:0:0:
186,375,14211,2,0,L|159:375,3,26.6666666666667,2|2|2|10,0:0|0:0|0:0|0:0,0:0:0:0:
438,372,14655,1,2,0:0:0:0:
167,292,14878,6,0,B|145:242|145:242|147:158,1,120,4|0,0:0|0:0,0:0:0:0:
183,145,15322,2,0,P|196:107|186:58,1,80,8|0,0:0|0:0,0:0:0:0:
171,42,15655,1,2,0:0:0:0:
142,26,15767,1,2,0:0:0:0:
54,125,15989,1,0,0:0:0:0:
54,125,16211,1,8,0:0:0:0:
246,22,16433,2,0,P|276:19|299:26,1,40,2|0,0:0|0:0,0:0:0:0:
331,35,16655,6,0,P|394:55|470:37,1,120
489,25,17100,2,0,P|500:65|499:105,1,80,8|0,0:0|0:0,0:0:0:0:
492,135,17433,1,2,0:0:0:0:
473,161,17544,1,2,0:0:0:0:
341,121,17767,1,0,0:0:0:0:
341,121,17989,1,8,0:0:0:0:
492,239,18211,2,0,P|468:240|441:235,1,40,2|0,0:0|0:0,0:0:0:0:
408,217,18433,6,0,P|344:204|270:225,1,120
260,252,18878,2,0,P|217:263|177:256,1,80,8|0,0:0|0:0,0:0:0:0:
155,240,19211,1,2,0:0:0:0:
139,212,19322,1,2,0:0:0:0:
103,301,19544,1,0,0:0:0:0:
216,189,19767,1,8,0:0:0:0:
213,348,19989,1,0,0:0:0:0:
71,167,20211,5,4,0:0:0:0:
286,109,20433,1,8,0:3:0:0:
286,109,20544,1,8,0:3:0:0:
286,109,20655,2,0,P|245:92|192:94,1,80,8|0,0:3|0:0,0:0:0:0:
49,168,21100,2,0,P|29:171|9:166,3,26.6666666666667,8|8|8|8,0:0|0:0|0:0|0:0,0:0:0:0:
31,74,21544,2,0,L|31:34,1,40,8|0,0:0|0:0,0:0:0:0:
114,19,21767,2,0,L|114:59,1,40,8|8,0:3|0:3,0:0:0:0:
119,237,21989,6,0,B|160:249|160:249|205:236,1,80,4|8,0:0|0:0,0:0:0:0:
270,177,22433,1,8,0:0:0:0:
290,201,22544,1,8,0:0:0:0:
296,232,22655,1,8,0:3:0:0:
293,264,22767,1,8,0:3:0:0:
276,291,22878,1,8,0:0:0:0:
475,62,23767,6,0,P|418:52|357:53,1,111.999996582031,4|8,0:0|0:0,0:0:0:0:
218,97,24655,2,0,P|187:100|155:95,1,55.9999982910157,2|0,0:0|0:0,0:0:0:0:
350,130,25100,2,0,P|353:157|350:185,1,55.9999982910157,8|0,0:0|0:0,0:0:0:0:
257,253,25544,5,2,0:0:0:0:
268,271,25767,1,2,0:0:0:0:
356,338,25989,5,8,0:0:0:0:
348,358,26211,2,0,P|292:349|237:364,1,111.999996582031,2|0,0:0|0:0,0:0:0:0:
154,334,26878,5,8,0:0:0:0:
136,324,27100,1,0,0:0:0:0:
62,251,27322,2,0,P|115:223|172:226,1,111.999996582031,2|8,0:0|0:0,0:0:0:0:
292,270,28100,1,2,0:0:0:0:
292,270,28211,2,0,P|295:238|292:204,1,55.9999982910157,2|0,0:0|0:0,0:0:0:0:
378,91,28655,2,0,P|346:88|312:91,1,55.9999982910157,8|0,0:0|0:0,0:0:0:0:
236,116,29100,5,2,0:0:0:0:
219,103,29322,1,2,0:0:0:0:
180,197,29544,1,10,0:0:0:0:
293,214,29767,1,2,0:0:0:0:
413,165,29989,1,2,0:0:0:0:
413,165,30100,2,0,P|420:201|423:252,1,83.9999974365235,8|8,0:0|0:0,0:0:0:0:
387,330,30655,1,0,0:0:0:0:
147,327,30878,6,0,P|202:314|258:324,1,111.999996582031,4|8,0:0|0:0,0:0:0:0:
302,197,31655,1,2,0:0:0:0:
302,197,31766,2,0,P|309:165|308:130,1,55.9999982910157,2|0,0:0|0:0,0:0:0:0:
247,76,32211,5,10,0:0:0:0:
228,86,32433,1,2,0:0:0:0:
120,124,32655,5,2,0:0:0:0:
149,145,32877,1,2,0:0:0:0:
189,235,33100,1,10,0:0:0:0:
122,358,33322,1,2,0:0:0:0:
27,271,33544,1,0,0:0:0:0:
210,232,33767,1,0,0:0:0:0:
369,358,33989,5,8,0:0:0:0:
369,358,34211,2,0,L|368:280,1,55.9999982910157,0|4,0:0|0:0,0:0:0:0:
258,341,34655,5,0,0:0:0:0:
479,248,34878,1,8,0:0:0:0:
479,248,35100,2,0,L|401:249,1,55.9999982910157
490,343,35544,5,0,0:0:0:0:
489,167,35767,2,0,L|489:89,1,55.9999982910157,10|0,0:0|0:0,0:0:0:0:
380,169,36211,5,0,0:0:0:0:
488,82,36433,1,8,0:0:0:0:
481,212,36655,1,8,0:0:0:0:
481,235,36767,1,0,0:0:0:0:
481,258,36878,1,8,0:0:0:0:
380,169,37100,1,0,0:0:0:0:
379,146,37211,1,0,0:0:0:0:
380,123,37322,1,0,0:0:0:0:
213,238,37544,1,8,0:3:0:0:
297,100,37767,1,8,0:3:0:0:
281,290,37989,6,0,P|205:322|140:280,1,160,4|8,0:0|0:0,0:0:0:0:
65,184,38655,1,0,0:0:0:0:
65,184,38878,2,0,P|101:166|140:159,1,80
256,211,39322,1,8,0:0:0:0:
361,139,39544,1,0,0:0:0:0:
458,273,39767,6,0,P|476:234|473:180,1,80
361,139,40211,1,8,0:0:0:0:
329,262,40433,2,0,L|161:263,1,160
77,353,41100,1,8,0:0:0:0:
20,238,41322,1,0,0:0:0:0:
20,238,41544,6,0,P|10:191|20:154,1,80
89,54,41989,1,8,0:0:0:0:
170,227,42322,1,0,0:0:0:0:
170,227,42433,2,0,L|170:310,1,80
286,362,42878,1,8,0:0:0:0:
398,300,43100,1,0,0:0:0:0:
320,128,43322,6,0,P|307:168|312:218,1,80
398,300,43767,1,8,0:0:0:0:
498,220,43989,2,0,B|508:170|508:170|481:51,1,160
404,164,44655,1,8,0:0:0:0:
339,52,44878,1,0,0:0:0:0:
78,125,45100,6,0,L|240:141,1,160,4|8,0:0|0:0,0:0:0:0:
87,261,45878,1,0,0:0:0:0:
87,261,45989,2,0,P|71:304|75:355,1,80
196,323,46433,1,8,0:0:0:0:
150,203,46655,1,0,0:0:0:0:
337,130,46878,6,0,P|345:171|338:213,1,80
304,331,47322,1,8,0:0:0:0:
257,211,47544,2,0,L|439:210,1,160
451,86,48211,1,8,0:0:0:0:
509,199,48433,1,0,0:0:0:0:
303,57,48655,6,0,B|249:49|249:49|132:67,1,160,4|8,0:0|0:0,0:0:0:0:
203,179,49322,1,0,0:0:0:0:
203,179,49433,1,0,0:0:0:0:
203,179,49544,2,0,P|209:220|205:264,1,80
116,350,49989,1,8,0:0:0:0:
14,272,50211,1,0,0:0:0:0:
261,328,50433,6,0,L|329:313,1,40,2|0,0:0|0:0,0:0:0:0:
369,297,50655,1,8,0:0:0:0:
287,197,50878,1,8,0:0:0:0:
280,166,50989,1,8,0:0:0:0:
291,136,51100,1,8,0:3:0:0:
411,178,51322,6,8,L|443:178,3,26.6666666666667
493,62,51767,2,0,L|494:16,1,40,8|8,0:0|0:0,0:0:0:0:
421,21,51989,1,8,0:3:0:0:
291,136,52211,6,0,L|291:221,1,80,4|0,0:0|0:0,0:0:0:0:
238,314,52655,2,0,P|204:290|185:243,1,80,2|0,0:0|0:0,0:0:0:0:
185,224,52989,1,0,0:0:0:0:
184,192,53100,2,0,L|184:98,1,80
74,190,53544,1,8,0:0:0:0:
184,85,53767,1,0,0:0:0:0:
291,136,53989,6,0,P|330:144|373:136,1,80
450,214,54433,2,0,P|442:253|450:296,1,80,2|0,0:0|0:0,0:0:0:0:
364,367,54878,2,0,P|325:359|282:367,1,80
143,270,55322,1,8,0:0:0:0:
176,376,55544,1,8,0:3:0:0:
210,218,55767,6,0,P|132:185|68:226,1,160,2|0,0:0|0:0,0:0:0:0:
34,325,56433,1,0,0:0:0:0:
143,350,56655,2,0,L|143:268,1,80
296,169,57100,1,8,0:0:0:0:
275,278,57322,1,4,0:0:0:0:
457,70,57544,5,4,0:0:0:0:
296,169,57767,1,4,0:0:0:0:
444,287,57989,2,8,L|482:309,2,40,8|8|8,0:3|0:3|0:3,0:3:0:0:
252,344,58433,2,8,L|235:401,2,40,8|8|8,0:3|0:3|0:3,0:3:0:0:
345,292,58878,1,4,0:3:0:0:
353,261,58989,1,4,0:3:0:0:
353,229,59100,1,4,0:3:0:0:
343,198,59211,1,4,0:3:0:0:
329,169,59322,6,0,P|312:135|310:85,1,80,6|0,0:0|0:0,0:0:0:0:
212,36,59767,2,0,P|178:53|128:55,1,80,8|0,0:0|0:0,0:0:0:0:
107,44,60100,1,0,0:0:0:0:
76,38,60211,2,0,L|81:118,1,80
130,218,60655,1,8,0:0:0:0:
18,202,60878,1,0,0:0:0:0:
147,218,61100,6,0,L|227:214,1,80,2|0,0:0|0:0,0:0:0:0:
328,168,61544,2,0,L|408:164,1,80,8|0,0:0|0:0,0:0:0:0:
440,162,61878,1,0,0:0:0:0:
472,166,61989,2,0,P|486:204|486:246,1,80
389,299,62433,1,8,0:0:0:0:
483,359,62655,1,0,0:0:0:0:
226,214,62878,6,0,L|211:316,1,80,6|0,0:0|0:0,0:0:0:0:
376,127,63322,2,0,L|387:206,1,80,8|0,0:0|0:0,0:0:0:0:
150,74,63767,2,0,L|135:176,1,80
313,28,64211,1,8,0:0:0:0:
204,227,64433,1,0,0:0:0:0:
204,227,64544,1,0,0:0:0:0:
204,227,64655,6,0,P|163:240|111:235,1,80
24,190,65100,1,8,0:0:0:0:
2,329,65322,2,0,B|54:346|54:346|174:334,1,160
261,288,65989,1,8,0:0:0:0:
366,322,66211,1,0,0:0:0:0:
256,192,66433,12,8,68211,0:0:0:0:
383,106,68655,6,0,L|380:176,1,60,2|0,0:0|0:0,0:0:0:0:
398,101,69100,6,0,L|404:202,1,90.0000034332277,2|0,0:0|0:0,0:0:0:0:
412,96,69544,6,0,L|428:225,1,113.999996955872,2|0,0:0|0:0,0:0:0:0:
404,67,69989,6,0,B|357:52|357:52|299:66,1,92.0000017547608,6|0,0:0|0:0,0:0:0:0:
275,92,70322,1,0,0:0:0:0:
224,96,70433,2,0,L|114:86,1,92.0000017547608,8|0,0:0|0:0,0:0:0:0:
81,82,70767,1,0,0:0:0:0:
30,78,70878,1,0,0:0:0:0:
177,20,71100,1,2,0:0:0:0:
113,169,71322,1,8,0:0:0:0:
113,169,71433,1,0,0:0:0:0:
113,169,71544,1,0,0:0:0:0:
199,310,71767,6,0,B|244:289|244:289|293:300,1,92.0000017547608,2|0,0:0|0:0,0:0:0:0:
331,319,72100,1,0,0:0:0:0:
373,345,72211,2,0,L|401:255,1,92.0000017547608,8|0,0:0|0:0,0:0:0:0:
415,208,72544,1,0,0:0:0:0:
432,160,72655,1,0,0:0:0:0:
285,224,72878,1,2,0:0:0:0:
452,327,73100,1,8,0:0:0:0:
452,327,73211,1,0,0:0:0:0:
452,327,73322,1,0,0:0:0:0:
167,265,73544,6,0,B|154:220|154:220|166:173,1,92.0000017547608,2|0,0:0|0:0,0:0:0:0:
190,132,73878,1,0,0:0:0:0:
229,100,73989,2,0,L|234:3,1,92.0000017547608,8|0,0:0|0:0,0:0:0:0:
284,8,74322,1,0,0:0:0:0:
332,21,74433,1,0,0:0:0:0:
154,59,74655,1,2,0:0:0:0:
338,144,74878,1,8,0:0:0:0:
117,237,75100,1,0,0:0:0:0:
354,331,75322,6,0,P|398:316|428:278,1,92.0000017547608,2|0,0:0|0:0,0:0:0:0:
441,233,75655,1,0,0:0:0:0:
445,182,75767,2,0,L|448:72,1,92.0000017547608,8|0,0:0|0:0,0:0:0:0:
357,22,76100,1,0,0:0:0:0:
353,73,76212,2,0,L|350:183,1,92.0000017547608,2|0,0:0|0:0,0:0:0:0:
199,292,76655,1,8,0:3:0:0:
148,284,76767,1,8,0:0:0:0:
101,264,76878,1,4,0:3:0:0:
61,231,76989,1,4,0:3:0:0:
28,192,77100,6,0,B|59:159|59:159|106:145,1,92.0000017547608,6|0,0:0|0:0,0:0:0:0:
152,160,77433,1,0,0:0:0:0:
199,177,77544,2,0,L|297:177,1,92.0000017547608,8|0,0:0|0:0,0:0:0:0:
342,177,77878,1,0,0:0:0:0:
392,177,77989,1,0,0:0:0:0:
259,272,78211,1,2,0:0:0:0:
317,99,78433,1,8,0:0:0:0:
317,99,78544,1,0,0:0:0:0:
317,99,78655,1,0,0:0:0:0:
211,343,78878,6,0,B|163:353|163:353|115:343,1,92.0000017547608,2|0,0:0|0:0,0:0:0:0:
75,322,79211,1,0,0:0:0:0:
42,283,79322,2,0,L|41:190,1,92.0000017547608,8|0,0:0|0:0,0:0:0:0:
40,140,79655,1,0,0:0:0:0:
42,89,79767,1,0,0:0:0:0:
159,192,79989,1,2,0:0:0:0:
249,43,80211,1,8,0:0:0:0:
249,43,80322,1,0,0:0:0:0:
249,43,80433,1,0,0:0:0:0:
487,139,80655,6,0,B|442:156|442:156|412:193,1,92.0000017547608,2|0,0:0|0:0,0:0:0:0:
396,238,80989,1,0,0:0:0:0:
392,288,81100,2,0,L|393:390,1,92.0000017547608,8|0,0:0|0:0,0:0:0:0:
280,371,81433,1,0,0:0:0:0:
276,321,81544,2,0,L|277:219,1,92.0000017547608,2|0,0:0|0:0,0:0:0:0:
351,135,81989,1,8,0:0:0:0:
351,135,82100,1,0,0:0:0:0:
351,135,82211,1,0,0:0:0:0:
158,65,82433,6,0,L|102:57,2,46.0000008773804,2|0|0,0:0|0:0|0:0,0:0:0:0:
106,169,82878,1,8,0:0:0:0:
277,66,83100,2,0,L|269:10,2,46.0000008773804,2|0|0,0:0|0:0|0:0,0:0:0:0:
221,168,83544,1,8,0:0:0:0:
386,64,83767,2,0,P|412:72|432:82,1,46.0000008773804,8|0,0:0|0:0,0:0:0:0:
491,135,83989,1,8,0:3:0:0:
393,323,84211,6,0,B|350:342|350:342|300:335,1,92.0000017547608,6|0,0:0|0:0,0:0:0:0:
259,315,84544,1,0,0:0:0:0:
208,308,84655,2,0,L|97:316,1,92.0000017547608,8|0,0:0|0:0,0:0:0:0:
65,320,84989,1,0,0:0:0:0:
14,325,85100,1,0,0:0:0:0:
117,193,85322,1,2,0:0:0:0:
265,325,85544,1,8,0:0:0:0:
265,325,85655,1,0,0:0:0:0:
265,325,85767,1,0,0:0:0:0:
466,134,85989,6,0,B|423:121|423:121|375:128,1,92.0000017547608,2|0,0:0|0:0,0:0:0:0:
328,142,86322,1,0,0:0:0:0:
279,154,86433,2,0,L|161:156,1,92.0000017547608,8|0,0:0|0:0,0:0:0:0:
136,157,86767,1,0,0:0:0:0:
85,158,86878,1,0,0:0:0:0:
220,250,87100,1,2,0:0:0:0:
276,71,87322,1,8,0:0:0:0:
276,71,87433,1,0,0:0:0:0:
276,71,87544,1,0,0:0:0:0:
117,307,87767,6,0,B|153:335|153:335|215:342,1,92.0000017547608,2|0,0:0|0:0,0:0:0:0:
248,329,88100,1,0,0:0:0:0:
295,311,88211,2,0,L|410:311,1,92.0000017547608,8|0,0:0|0:0,0:0:0:0:
437,312,88544,1,0,0:0:0:0:
487,310,88655,1,0,0:0:0:0:
343,197,88878,1,2,0:0:0:0:
503,322,89100,1,8,0:0:0:0:
506,97,89322,1,0,0:0:0:0:
314,205,89544,6,0,B|264:213|264:213|215:203,1,92.0000017547608,2|0,0:0|0:0,0:0:0:0:
176,185,89878,1,0,0:0:0:0:
157,138,89989,2,0,L|158:36,1,92.0000017547608,8|0,0:0|0:0,0:0:0:0:
49,25,90322,1,0,0:0:0:0:
30,72,90433,2,0,L|31:174,1,92.0000017547608,2|0,0:0|0:0,0:0:0:0:
158,317,90878,1,8,0:0:0:0:
206,332,90989,1,8,0:3:0:0:
256,332,91100,1,4,0:3:0:0:
304,318,91211,1,4,0:3:0:0:
349,295,91322,6,0,B|380:256|380:256|394:202,1,92.0000017547608,6|0,0:0|0:0,0:0:0:0:
384,165,91655,1,0,0:0:0:0:
381,114,91767,2,0,L|381:14,1,92.0000017547608,8|0,0:0|0:0,0:0:0:0:
431,23,92100,1,0,0:0:0:0:
481,30,92211,1,0,0:0:0:0:
305,97,92433,1,2,0:0:0:0:
484,182,92655,1,8,0:0:0:0:
484,182,92767,1,0,0:0:0:0:
484,182,92878,1,0,0:0:0:0:
237,50,93100,6,0,B|189:38|189:38|143:49,1,92.0000017547608,2|0,0:0|0:0,0:0:0:0:
103,72,93433,1,0,0:0:0:0:
74,113,93544,2,0,L|73:210,1,92.0000017547608,8|0,0:0|0:0,0:0:0:0:
72,255,93878,1,0,0:0:0:0:
73,305,93989,1,0,0:0:0:0:
191,187,94211,1,2,0:0:0:0:
0,163,94433,1,8,0:0:0:0:
0,163,94544,1,0,0:0:0:0:
0,163,94655,1,0,0:0:0:0:
313,292,94878,6,0,B|324:246|324:246|314:197,1,92.0000017547608,2|0,0:0|0:0,0:0:0:0:
289,158,95211,1,0,0:0:0:0:
283,107,95322,2,0,L|285:8,1,92.0000017547608,8|0,0:0|0:0,0:0:0:0:
234,19,95655,1,0,0:0:0:0:
183,28,95767,1,0,0:0:0:0:
365,89,95989,1,2,0:0:0:0:
191,187,96211,1,8,0:0:0:0:
382,80,96433,1,0,0:0:0:0:
97,69,96655,6,0,P|83:117|87:169,1,92.0000017547608,2|8,0:0|0:0,0:0:0:0:
309,188,97100,1,8,0:0:0:0:
309,188,97211,1,8,0:0:0:0:
309,188,97322,2,0,L|208:188,1,92.0000017547608,8|4,0:3|0:0,0:0:0:0:
134,288,97767,1,0,0:0:0:0:
333,323,97989,1,8,0:3:0:0:
381,309,98100,1,8,0:3:0:0:
419,276,98211,1,4,0:3:0:0:
443,231,98322,1,4,0:3:0:0:
442,180,98433,6,0,L|441:134,3,40,4|8|8|8,0:3|0:0|0:0|0:0,0:0:0:0:
467,104,98878,2,8,L|466:58,3,40
481,22,99322,1,8,0:0:0:0:
253,193,100211,5,4,0:0:0:0:
