osu file format v14

[General]
AudioFilename: audio.mp3
AudioLeadIn: 0
PreviewTime: 68655
Countdown: 0
SampleSet: None
StackLeniency: 0.4
Mode: 0
LetterboxInBreaks: 0
WidescreenStoryboard: 1

[Editor]
DistanceSpacing: 1
BeatDivisor: 2
GridSize: 16
TimelineZoom: 1.8

[Metadata]
Title:Shen De Sui Bo Zhu Liu
TitleUnicode:神的随波逐流
Artist:Ling Yuan yousa
ArtistUnicode:泠鸢yousa
Creator:Rizen
Version:Normal
Source:
Tags:神のまにまに Kami no Manimani At God's Mercy LCFC LowComboFC -_G_I_D_Z_- -GIDZ- Little CloudSplash16 Karen Pata-Mon
BeatmapID:1390214
BeatmapSetID:650303

[Difficulty]
HPDrainRate:3
CircleSize:3
OverallDifficulty:3
ApproachRate:4
SliderMultiplier:1
SliderTickRate:1

[Events]
//Background and Video events
0,0,"aa.jpg",0,0
//Break Periods
//Storyboard Layer 0 (Background)
//Storyboard Layer 1 (Fail)
//Storyboard Layer 2 (Pass)
//Storyboard Layer 3 (Foreground)
//Storyboard Sound Samples

[TimingPoints]
656,444.444444444444,4,2,1,60,1,0
7100,-100,4,2,1,70,0,0
7767,-100,4,2,1,80,0,0
23767,-100,4,2,1,60,0,0
37989,-100,4,2,1,70,0,0
52211,-100,4,2,1,60,0,0
69989,-100,4,2,1,80,0,1
98433,-100,4,2,1,60,0,0

[Colours]
Combo1 : 190,190,190
Combo2 : 255,128,0
Combo3 : 255,255,128
Combo4 : 255,128,192

[HitObjects]
105,132,6433,6,0,B|152:149|152:149|201:143,2,100,0|0|2,0:0|0:0|0:0,0:0:0:0:
168,54,7767,6,0,B|217:48|217:48|264:65,1,100,4|8,0:0|0:0,0:0:0:0:
356,103,8655,2,0,L|405:96,2,50,0|0|8,0:0|0:0|0:0,0:0:0:0:
278,166,9544,2,0,B|261:213|261:213|267:262,1,100,0|8,0:0|0:0,0:0:0:0:
189,325,10433,2,0,L|140:318,2,50,0|0|8,0:0|0:0|0:0,0:0:0:0:
282,360,11322,6,0,B|331:366|331:366|378:350,1,100,0|8,0:0|0:0,0:0:0:0:
466,300,12211,2,0,L|512:283,2,50,0|0|8,0:0|0:0|0:0,0:0:0:0:
422,274,12878,1,0,0:0:0:0:
379,245,13100,2,0,B|348:198|363:150,1,100,0|8,0:0|0:0,0:0:0:0:
460,124,13989,2,0,B|475:76|444:28,1,100,0|8,0:0|0:0,0:0:0:0:
345,14,14878,6,0,B|295:10|295:10|249:28,1,100,4|8,0:0|0:0,0:0:0:0:
228,126,15767,2,0,L|233:175,2,50,0|0|8,0:0|0:0|0:0,0:0:0:0:
156,55,16655,2,0,B|110:37|110:37|60:41,1,100,0|8,0:0|0:0,0:0:0:0:
49,140,17544,2,0,L|0:145,2,50,0|0|8,0:0|0:0|0:0,0:0:0:0:
140,180,18433,6,0,B|144:230|144:230|126:276,1,100,0|8,0:0|0:0,0:0:0:0:
54,346,19322,2,0,L|5:341,2,50,0|0|8,0:0|0:0|0:0,0:0:0:0:
97,371,19989,1,0,0:0:0:0:
146,376,20211,2,0,B|195:366|195:366|244:375,1,100,4|8,0:0|0:0,0:0:0:0:
330,324,21100,2,0,L|325:274,1,50,0|0,0:0|0:0,0:0:0:0:
353,232,21544,1,8,0:0:0:0:
368,136,21989,6,0,B|318:162|271:138|271:138|221:152|221:152|175:139,1,200,4|0,0:0|0:0,0:0:0:0:
131,334,23767,6,0,P|137:284|122:237,1,100,4|8,0:0|0:0,0:0:0:0:
74,149,24655,2,0,P|58:101|65:52,1,100,0|8,0:0|0:0,0:0:0:0:
156,13,25544,2,0,L|255:3,1,100,2|8,0:0|0:0,0:0:0:0:
295,32,26211,2,0,P|311:104|287:174,1,150,0|8,0:0|0:0,0:0:0:0:
196,131,27322,6,0,P|191:180|206:228,1,100,2|8,0:0|0:0,0:0:0:0:
297,268,28211,2,0,P|311:315|306:365,1,100,0|8,0:0|0:0,0:0:0:0:
402,339,29100,2,0,P|396:289|410:241,1,100,2|8,0:0|0:0,0:0:0:0:
437,199,29767,2,0,P|454:127|421:61,1,150,0|8,0:0|0:0,0:0:0:0:
358,139,30878,6,0,P|310:152|262:141,1,100,2|8,0:0|0:0,0:0:0:0:
202,60,31767,2,0,P|154:50|106:62,1,100,0|8,0:0|0:0,0:0:0:0:
48,144,32655,2,0,L|52:244,1,100,2|8,0:0|0:0,0:0:0:0:
54,294,33322,1,0,0:0:0:0:
149,323,33767,2,0,L|148:373,2,50,0|8|0,0:0|0:0|0:0,0:0:0:0:
185,289,34433,6,0,P|234:287|278:265,1,100,2|8,0:0|0:0,0:0:0:0:
335,183,35322,2,0,P|285:181|241:159,1,100,0|8,0:0|0:0,0:0:0:0:
235,109,35989,1,0,0:0:0:0:
266,70,36211,2,0,P|315:71|359:93,1,100,6|8,0:0|0:0,0:0:0:0:
451,54,37100,2,0,P|459:102|445:150,1,100,0|8,0:0|0:0,0:0:0:0:
411,187,37767,1,0,0:0:0:0:
382,228,37989,6,0,L|390:327,1,100,6|8,0:0|0:0,0:0:0:0:
290,315,38878,2,0,L|285:265,2,50,0|0|8,0:0|0:0|0:0,0:0:0:0:
190,302,39767,2,0,L|185:252,2,50,2|0|8,0:0|0:0|0:0,0:0:0:0:
153,335,40433,2,0,P|103:340|54:329,1,100,0|0,0:0|0:0,0:0:0:0:
17,297,41100,1,8,0:0:0:0:
61,207,41544,6,0,L|57:107,1,100,2|8,0:0|0:0,0:0:0:0:
126,34,42433,1,0,0:0:0:0:
174,48,42656,2,0,L|176:97,2,50,0|8|0,0:0|0:0|0:0,0:0:0:0:
220,65,43322,2,0,P|269:72|317:60,1,100,2|8,0:0|0:0,0:0:0:0:
342,16,43989,2,0,P|396:66|402:139,1,150,0|8,0:0|0:0,0:0:0:0:
457,225,45100,6,0,P|410:241|361:233,1,100,2|8,0:0|0:0,0:0:0:0:
297,156,45989,2,0,L|294:106,2,50,0|0|8,0:0|0:0|0:0,0:0:0:0:
208,203,46878,2,0,L|205:153,2,50,2|0|8,0:0|0:0|0:0,0:0:0:0:
176,242,47544,2,0,P|127:249|80:233,1,100,0|0,0:0|0:0,0:0:0:0:
43,267,48211,2,0,L|45:316,1,50,8|0,0:0|0:0,0:0:0:0:
81,351,48655,6,0,P|127:334|176:342,1,100,6|8,0:0|0:0,0:0:0:0:
274,322,49544,2,0,L|348:328,2,75,0|0|0,0:0|0:0|0:0,0:0:0:0:
249,278,50433,5,2,0:0:0:0:
302,193,50878,1,10,0:0:0:0:
235,118,51322,1,2,0:0:0:0:
141,154,51767,1,8,0:0:0:0:
155,253,52211,6,0,P|199:275|248:277,1,100,0|8,0:0|0:0,0:0:0:0:
302,193,53100,2,0,P|346:170|396:169,1,100,0|8,0:0|0:0,0:0:0:0:
479,223,53989,2,0,L|469:322,2,100,2|8|0,0:0|0:0|0:0,0:0:0:0:
396,169,55322,1,8,0:0:0:0:
302,193,55767,6,0,L|292:93,1,100,2|8,0:0|0:0,0:0:0:0:
207,40,56655,2,0,P|157:34|109:48,1,100,0|8,0:0|0:0,0:0:0:0:
86,92,57322,2,0,L|76:191,1,100,2|4,0:0|0:0,0:0:0:0:
72,241,57989,1,0,0:0:0:0:
138,315,58433,1,4,0:0:0:0:
184,334,58656,2,0,L|188:383,2,50,0|0|0,0:0|0:0|0:0,0:0:0:0:
229,354,59322,6,0,P|278:359|325:344,1,100,4|8,0:0|0:0,0:0:0:0:
414,296,60211,2,0,L|463:301,2,50,0|0|8,0:0|0:0|0:0,0:0:0:0:
378,260,60878,1,0,0:0:0:0:
342,225,61100,2,0,P|326:177|331:128,1,100,2|8,0:0|0:0,0:0:0:0:
394,50,61989,2,0,L|443:55,2,50,0|0|8,0:0|0:0|0:0,0:0:0:0:
347,31,62656,1,0,0:0:0:0:
300,12,62878,6,0,P|250:7|203:22,1,100,4|8,0:0|0:0,0:0:0:0:
160,112,63767,2,0,P|112:96|63:101,1,100,0|8,0:0|0:0,0:0:0:0:
15,189,64655,2,0,L|4:288,2,100,2|8|0,0:0|0:0|0:0,0:0:0:0:
63,101,65989,1,8,0:0:0:0:
256,192,66433,12,2,68211,0:0:0:0:
27,65,69989,6,0,P|74:52|124:55,1,100,4|8,0:0|0:0,0:0:0:0:
218,90,70878,2,0,L|267:84,2,50,0|0|8,0:0|0:0|0:0,0:0:0:0:
141,154,71767,2,0,P|137:203|150:251,1,100,2|10,0:0|0:0,0:0:0:0:
218,324,72655,2,0,L|223:373,2,50,2|0|8,0:0|0:0|0:0,0:0:0:0:
304,273,73544,6,0,L|403:285,1,100,2|8,0:0|0:0,0:0:0:0:
463,204,74433,2,0,L|512:210,2,50,0|0|8,0:0|0:0|0:0,0:0:0:0:
444,157,75100,1,0,0:0:0:0:
425,110,75322,2,0,L|375:104,1,50,2|0,0:0|0:0,0:0:0:0:
325,97,75767,2,0,L|275:91,1,50,8|0,0:0|0:0,0:0:0:0:
238,58,76211,2,0,P|191:73|141:71,1,100,2|10,0:0|0:0,0:0:0:0:
97,161,77100,6,0,P|146:159|194:174,1,100,4|8,0:0|0:0,0:0:0:0:
256,252,77989,2,0,L|249:301,2,50,0|0|8,0:0|0:0|0:0,0:0:0:0:
296,160,78878,2,0,P|343:144|393:146,1,100,2|8,0:0|0:0,0:0:0:0:
456,224,79767,2,0,L|462:273,2,50,2|0|8,0:0|0:0|0:0,0:0:0:0:
358,244,80655,6,0,L|349:343,1,100,2|8,0:0|0:0,0:0:0:0:
254,311,81544,2,0,L|257:261,2,50,0|0|8,0:0|0:0|0:0,0:0:0:0:
210,336,82211,1,0,0:0:0:0:
166,360,82433,1,2,0:0:0:0:
67,344,82878,1,2,0:0:0:0:
6,264,83322,2,0,L|21:165,1,100,2|10,0:0|0:0,0:0:0:0:
30,115,83989,1,2,0:0:0:0:
40,66,84211,6,0,P|89:62|137:75,1,100,4|8,0:0|0:0,0:0:0:0:
216,137,85100,2,0,L|265:131,2,50,0|0|8,0:0|0:0|0:0,0:0:0:0:
201,236,85989,2,0,P|249:222|298:226,1,100,2|8,0:0|0:0,0:0:0:0:
371,294,86878,2,0,L|365:343,2,50,2|0|8,0:0|0:0|0:0,0:0:0:0:
394,196,87766,6,0,L|382:97,1,100,2|8,0:0|0:0,0:0:0:0:
463,38,88655,2,0,L|512:44,2,50,0|0|8,0:0|0:0|0:0,0:0:0:0:
470,87,89322,1,0,0:0:0:0:
477,136,89544,2,0,L|482:185,1,50,2|0,0:0|0:0,0:0:0:0:
476,235,89989,2,0,L|470:284,1,50,8|0,0:0|0:0,0:0:0:0:
485,332,90433,2,0,P|437:316|387:319,1,100,2|10,0:0|0:0,0:0:0:0:
301,268,91322,6,0,P|251:265|203:280,1,100,4|8,0:0|0:0,0:0:0:0:
119,335,92211,2,0,L|112:384,2,50,0|0|8,0:0|0:0|0:0,0:0:0:0:
26,295,93100,2,0,P|24:245|40:198,1,100,2|8,0:0|0:0,0:0:0:0:
119,137,93989,2,0,L|168:131,2,50,2|0|8,0:0|0:0|0:0,0:0:0:0:
81,44,94877,6,0,L|180:32,1,100,2|8,0:0|0:0,0:0:0:0:
278,49,95766,2,0,L|328:52,2,50,0|0|8,0:0|0:0|0:0,0:0:0:0:
257,94,96433,1,0,0:0:0:0:
234,138,96655,2,0,P|227:162|227:186,1,50,2|2,0:0|0:0,0:0:0:0:
247,232,97100,2,0,P|253:256|253:280,1,50,2|2,0:0|0:0,0:0:0:0:
227,324,97544,2,0,L|326:321,1,100,2|2,0:0|0:0,0:0:0:0:
424,344,98433,6,0,P|426:295|467:270,2,100,2|10|12,0:0|0:0|0:0,0:0:0:0:
256,234,100211,1,8,0:0:0:0:
