osu file format v14

[General]
AudioFilename: audio.mp3
AudioLeadIn: 0
PreviewTime: 68655
Countdown: 0
SampleSet: Soft
StackLeniency: 0.7
Mode: 0
LetterboxInBreaks: 0
WidescreenStoryboard: 0

[Editor]
Bookmarks: 100211
DistanceSpacing: 1
BeatDivisor: 4
GridSize: 32
TimelineZoom: 2.2

[Metadata]
Title:Shen De Sui Bo Zhu Liu
TitleUnicode:神的随波逐流
Artist:Ling Yuan yousa
ArtistUnicode:泠鸢yousa
Creator:Rizen
Version:Insane
Source:
Tags:神のまにまに Kami no Manimani At God's Mercy LCFC LowComboFC -_G_I_D_Z_- -GIDZ- Little CloudSplash16 Karen Pata-Mon
BeatmapID:1378061
BeatmapSetID:650303

[Difficulty]
HPDrainRate:6
CircleSize:4
OverallDifficulty:8
ApproachRate:9
SliderMultiplier:2
SliderTickRate:1

[Events]
//Background and Video events
0,0,"aa.jpg",0,0
//Break Periods
//Storyboard Layer 0 (Background)
//Storyboard Layer 1 (Fail)
//Storyboard Layer 2 (Pass)
//Storyboard Layer 3 (Foreground)
//Storyboard Sound Samples

[TimingPoints]
656,444.444444444444,4,2,1,50,1,0
6433,-200,4,2,1,50,0,0
6767,-200,4,2,1,5,0,0
6878,-133.333333333333,4,2,1,60,0,0
7322,-100,4,2,1,70,0,0
7655,-100,4,2,1,5,0,0
7767,-83.3333333333333,4,2,1,80,0,0
23767,-133.333333333333,4,2,1,60,0,0
37989,-100,4,2,1,70,0,0
52211,-100,4,2,1,60,0,0
69989,-83.3333333333333,4,2,1,80,0,1
98433,-83.3333333333333,4,2,1,60,0,0

[Colours]
Combo1 : 190,190,190
Combo2 : 255,128,0
Combo3 : 255,255,128
Combo4 : 255,128,192

[HitObjects]
113,178,6433,6,0,B|120:215|120:215|114:251,1,75
113,178,6878,6,0,P|78:168|50:143,1,75.0000028610231,0|2,0:0|0:0,0:0:0:0:
223,26,7322,6,0,P|234:98|191:156,1,150,2|0,0:0|0:0,0:0:0:0:
236,96,7767,6,0,P|287:65|346:62,1,119.999996337891,4|0,0:0|0:0,0:0:0:0:
318,170,8100,1,0,0:0:0:0:
318,170,8211,2,0,P|375:184|419:224,1,119.999996337891,8|0,0:0|0:0,0:0:0:0:
326,280,8544,1,0,0:0:0:0:
326,280,8655,2,0,L|329:339,1,59.9999981689454,0|0,0:0|0:0,0:0:0:0:
194,231,8878,2,0,L|253:227,1,59.9999981689454
197,346,9100,2,0,P|140:332|96:292,1,119.999996337891,8|0,0:0|0:0,0:0:0:0:
100,171,9544,6,0,L|95:291,1,119.999996337891
160,90,9878,1,0,0:0:0:0:
160,90,9989,2,0,B|107:72|107:72|43:82,1,119.999996337891,8|0,0:0|0:0,0:0:0:0:
257,124,10322,1,0,0:0:0:0:
257,124,10433,2,0,L|259:64,1,59.9999981689454
197,200,10655,2,0,L|200:260,1,59.9999981689454
376,135,10878,2,0,L|256:123,1,119.999996337891,8|0,0:0|0:0,0:0:0:0:
393,233,11322,6,0,L|513:221,1,119.999996337891
338,308,11655,1,0,0:0:0:0:
338,308,11767,2,0,P|306:259|304:200,1,119.999996337891,8|0,0:0|0:0,0:0:0:0:
435,129,12100,1,0,0:0:0:0:
435,129,12211,2,0,L|375:135,1,59.9999981689454
223,108,12433,2,0,L|283:102,1,59.9999981689454
138,77,12655,2,0,L|176:30,1,59.9999981689454,8|0,0:0|0:0,0:0:0:0:
56,115,12878,2,0,L|50:54,1,59.9999981689454
142,187,13100,6,0,B|146:218|146:218|142:247,1,59.9999981689454
39,324,13322,2,0,L|-1:330,2,39.9999987792969
53,343,13544,2,0,B|133:331|133:331|170:343,1,119.999996337891,8|0,0:0|0:0,0:0:0:0:
370,187,13989,6,0,B|366:218|366:218|370:247,1,59.9999981689454
473,323,14211,2,0,L|513:329,2,39.9999987792969
459,343,14433,2,0,B|379:331|379:331|342:343,1,119.999996337891,8|0,0:0|0:0,0:0:0:0:
276,87,14878,6,0,P|250:140|255:200,1,119.999996337891,4|0,0:0|0:0,0:0:0:0:
342,43,15211,1,0,0:0:0:0:
342,43,15322,2,0,L|222:32,1,119.999996337891,8|0,0:0|0:0,0:0:0:0:
96,89,15655,1,0,0:0:0:0:
96,89,15766,2,0,L|155:83,1,59.9999981689454
88,219,15989,2,0,L|53:169,1,59.9999981689454
185,205,16211,2,0,P|178:263|140:309,1,119.999996337891,8|0,0:0|0:0,0:0:0:0:
23,305,16655,6,0,B|109:320|109:320|139:309,1,119.999996337891
301,209,16989,1,0,0:0:0:0:
301,209,17100,2,0,B|215:194|215:194|185:205,1,119.999996337891,8|0,0:0|0:0,0:0:0:0:
224,343,17433,1,0,0:0:0:0:
224,343,17544,2,0,L|219:283,1,59.9999981689454
306,149,17767,2,0,L|301:208,1,59.9999981689454
255,73,17989,2,0,B|314:66|314:66|371:85,1,119.999996337891,8|0,0:0|0:0,0:0:0:0:
417,188,18433,6,0,P|377:143|371:85,1,119.999996337891
451,262,18767,1,0,0:0:0:0:
451,262,18878,2,0,P|454:201|491:156,1,119.999996337891,8|0,0:0|0:0,0:0:0:0:
480,341,19211,1,0,0:0:0:0:
480,341,19322,2,0,L|420:336,1,59.9999981689454
302,270,19544,2,0,L|361:265,1,59.9999981689454
261,350,19767,2,0,L|201:345,1,59.9999981689454,8|0,0:0|0:0,0:0:0:0:
83,279,19989,2,0,L|142:274,1,59.9999981689454
306,180,20211,6,0,P|277:179|250:166,1,59.9999981689454,4|0,0:0|0:0,0:0:0:0:
154,18,20433,1,0,0:0:0:0:
176,93,20544,1,0,0:0:0:0:
148,170,20655,1,8,0:0:0:0:
148,170,20767,2,0,L|28:161,1,119.999996337891
63,264,21100,6,0,L|23:267,2,39.9999987792969
83,279,21322,2,0,L|142:274,1,59.9999981689454
270,247,21544,1,8,0:0:0:0:
317,312,21655,1,0,0:0:0:0:
393,338,21767,2,0,L|452:333,1,59.9999981689454
512,211,21989,6,0,L|452:206,1,59.9999981689454,4|0,0:0|0:0,0:0:0:0:
414,91,22211,2,0,P|443:86|473:87,1,59.9999981689454,8|0,0:0|0:0,0:0:0:0:
349,171,22433,2,0,P|320:176|290:175,1,59.9999981689454,8|0,0:0|0:0,0:0:0:0:
200,221,22655,2,0,P|172:208|143:201,1,59.9999981689454
42,218,22878,5,0,0:0:0:0:
218,367,23100,5,0,0:0:0:0:
209,294,23322,1,0,0:0:0:0:
200,221,23544,1,0,0:0:0:0:
334,285,23767,6,0,P|370:291|407:284,1,75.0000028610231,4|0,0:0|0:0,0:0:0:0:
291,141,24211,2,0,L|284:215,1,75.0000028610231,8|0,0:0|0:0,0:0:0:0:
230,79,24655,1,0,0:0:0:0:
147,69,24878,1,0,0:0:0:0:
32,172,25100,1,8,0:0:0:0:
115,162,25322,1,0,0:0:0:0:
90,315,25544,6,0,L|83:241,1,75.0000028610231,2|0,0:0|0:0,0:0:0:0:
207,171,25989,1,8,0:0:0:0:
335,281,26211,2,0,B|259:269|259:269|227:286|188:279,1,150.000005722046
104,126,26878,1,8,0:0:0:0:
82,240,27100,1,0,0:0:0:0:
281,182,27322,6,0,L|206:170,1,75.0000028610231,2|0,0:0|0:0,0:0:0:0:
430,133,27767,2,0,L|355:144,1,75.0000028610231,8|0,0:0|0:0,0:0:0:0:
281,182,28100,1,0,0:0:0:0:
281,182,28211,2,0,P|304:210|338:224,1,75.0000028610231
503,95,28655,2,0,P|480:67|446:53,1,75.0000028610231,8|0,0:0|0:0,0:0:0:0:
285,92,29100,5,2,0:0:0:0:
365,73,29322,1,0,0:0:0:0:
510,152,29544,1,8,0:0:0:0:
430,133,29766,1,0,0:0:0:0:
339,224,29989,1,0,0:0:0:0:
339,224,30100,2,0,L|336:186,1,37.5000014305115
200,266,30433,2,0,P|235:277|272:275,1,75.0000028610231,8|0,0:0|0:0,0:0:0:0:
268,137,30878,6,0,P|230:134|195:146,1,75.0000028610231,2|0,0:0|0:0,0:0:0:0:
52,91,31322,2,0,P|89:88|124:100,1,75.0000028610231,8|0,0:0|0:0,0:0:0:0:
195,146,31655,1,0,0:0:0:0:
195,146,31767,2,0,P|208:111|207:73,1,75.0000028610231
80,168,32211,2,0,P|67:203|68:241,1,75.0000028610231,8|0,0:0|0:0,0:0:0:0:
227,266,32655,5,2,0:0:0:0:
155,219,32878,1,0,0:0:0:0:
241,94,33100,1,8,0:0:0:0:
236,177,33323,1,0,0:0:0:0:
305,306,33544,1,0,0:0:0:0:
304,306,33767,2,0,P|314:269|309:232,1,75.0000028610231,0|8,0:0|0:0,0:0:0:0:
236,177,34211,1,0,0:0:0:0:
80,213,34433,5,2,0:0:0:0:
80,213,34656,2,0,L|155:219,1,75.0000028610231,0|8,0:0|0:0,0:0:0:0:
236,177,35100,1,0,0:0:0:0:
167,48,35322,1,0,0:0:0:0:
167,47,35545,2,0,P|157:83|162:120,1,75.0000028610231,0|8,0:0|0:0,0:0:0:0:
236,177,35989,1,0,0:0:0:0:
392,143,36211,5,6,0:0:0:0:
353,140,36322,1,0,0:0:0:0:
318,138,36433,1,0,0:0:0:0:
420,255,36655,1,8,0:0:0:0:
420,255,36767,2,0,L|416:217,1,37.5000014305115
392,143,36989,1,0,0:0:0:0:
375,69,37100,1,0,0:0:0:0:
375,69,37211,2,0,L|393:70,2,18.7500007152558
167,47,37544,5,8,0:0:0:0:
123,58,37655,1,0,0:0:0:0:
90,89,37767,1,0,0:0:0:0:
70,129,37878,1,0,0:0:0:0:
71,174,37989,6,0,L|58:74,1,100,6|0,0:0|0:0,0:0:0:0:
267,150,38433,2,0,P|218:160|170:149,1,100,8|0,0:0|0:0,0:0:0:0:
3,252,38878,1,0,0:0:0:0:
109,238,39100,1,0,0:0:0:0:
240,356,39322,1,8,0:0:0:0:
134,342,39544,1,0,0:0:0:0:
292,260,39767,6,0,P|330:293|348:339,1,100,2|0,0:0|0:0,0:0:0:0:
512,235,40211,1,8,0:0:0:0:
403,220,40433,1,0,0:0:0:0:
407,264,40544,1,0,0:0:0:0:
427,304,40655,1,0,0:0:0:0:
467,160,40878,1,0,0:0:0:0:
292,260,41100,2,0,L|192:249,1,100,8|0,0:0|0:0,0:0:0:0:
41,169,41544,6,0,L|141:158,1,100,2|0,0:0|0:0,0:0:0:0:
203,348,41989,2,0,L|192:248,1,100,8|0,0:0|0:0,0:0:0:0:
239,175,42322,1,0,0:0:0:0:
239,175,42433,2,0,P|287:162|336:172,1,100
309,358,42878,1,8,0:0:0:0:
292,260,43100,1,0,0:0:0:0:
473,218,43322,5,2,0:0:0:0:
456,316,43544,1,0,0:0:0:0:
335,171,43767,1,8,0:0:0:0:
192,249,43989,1,0,0:0:0:0:
170,209,44100,1,0,0:0:0:0:
168,164,44211,1,2,0:0:0:0:
151,122,44322,1,0,0:0:0:0:
112,98,44433,1,0,0:0:0:0:
252,191,44655,1,8,0:0:0:0:
87,177,44878,1,0,0:0:0:0:
278,108,45100,6,0,P|328:100|378:101,1,100,2|0,0:0|0:0,0:0:0:0:
252,191,45544,2,0,L|259:92,1,100,8|0,0:0|0:0,0:0:0:0:
199,40,45878,1,0,0:0:0:0:
199,40,45989,2,0,L|100:47,1,100
40,212,46433,1,8,0:0:0:0:
130,152,46655,1,0,0:0:0:0:
0,41,46878,5,2,0:0:0:0:
40,212,47100,1,0,0:0:0:0:
99,47,47322,1,8,0:0:0:0:
142,232,47544,1,0,0:0:0:0:
142,232,47655,1,0,0:0:0:0:
142,232,47767,1,0,0:0:0:0:
224,169,47989,1,0,0:0:0:0:
40,212,48211,1,8,0:0:0:0:
172,358,48433,2,0,L|221:353,1,50
296,316,48655,6,0,P|202:342|118:293,1,200,6|8,0:0|0:0,0:0:0:0:
224,169,49322,1,0,0:0:0:0:
356,249,49544,2,0,L|256:239,1,100
224,169,49878,1,0,0:0:0:0:
224,169,49989,2,0,L|323:159,1,100,8|0,0:0|0:0,0:0:0:0:
429,195,50433,5,2,0:0:0:0:
428,16,50655,1,0,0:0:0:0:
323,158,50878,1,10,0:0:0:0:
323,158,50989,1,0,0:0:0:0:
323,158,51100,1,0,0:0:0:0:
488,103,51322,1,2,0:0:0:0:
488,103,51433,2,0,L|512:104,2,25,0|0|2,0:0|0:0|0:0,0:0:0:0:
321,49,51767,1,8,0:0:0:0:
276,55,51878,1,0,0:0:0:0:
231,61,51989,1,0,0:0:0:0:
144,193,52211,6,0,L|152:93,1,100
215,238,52655,2,0,L|223:138,1,100,8|0,0:0|0:0,0:0:0:0:
152,93,52989,1,0,0:0:0:0:
152,93,53100,2,0,P|102:86|55:99,1,100
223,138,53544,1,8,0:0:0:0:
124,303,53767,6,0,L|114:203,1,100,0|2,0:0|0:0,0:0:0:0:
205,337,54211,2,0,L|214:237,1,100,0|8,0:0|0:0,0:0:0:0:
382,105,54655,2,0,P|389:154|373:201,1,100
215,238,55100,2,0,L|223:138,1,100,0|8,0:0|0:0,0:0:0:0:
317,283,55544,1,0,0:0:0:0:
468,211,55767,6,0,P|421:194|372:201,1,100,2|0,0:0|0:0,0:0:0:0:
215,238,56211,2,0,P|165:244|119:227,1,100,8|0,0:0|0:0,0:0:0:0:
222,138,56655,1,0,0:0:0:0:
372,200,56878,1,2,0:0:0:0:
215,238,57100,1,8,0:0:0:0:
323,112,57322,1,2,0:0:0:0:
317,283,57544,5,2,0:0:0:0:
146,297,57767,2,0,L|96:292,1,50,4|0,0:0|0:0,0:0:0:0:
28,257,57989,1,0,0:0:0:0:
2,219,58100,1,0,0:0:0:0:
0,174,58211,1,0,0:0:0:0:
13,130,58322,1,0,0:0:0:0:
45,98,58433,1,4,0:0:0:0:
157,201,58655,1,0,0:0:0:0:
157,201,58767,1,0,0:0:0:0:
157,201,58878,2,0,L|206:195,1,50
317,283,59100,2,0,L|267:277,1,50
378,224,59322,6,0,P|398:268|392:318,1,100,4|0,0:0|0:0,0:0:0:0:
206,194,59767,2,0,P|186:150|192:100,1,100,8|0,0:0|0:0,0:0:0:0:
262,56,60100,1,0,0:0:0:0:
262,56,60211,2,0,L|311:50,1,50
192,99,60433,2,0,L|142:104,1,50
271,137,60655,2,0,P|291:181|285:231,1,100,8|0,0:0|0:0,0:0:0:0:
218,279,60989,1,0,0:0:0:0:
134,272,61100,6,0,L|34:265,1,100,2|0,0:0|0:0,0:0:0:0:
273,336,61544,2,0,L|174:343,1,100,8|0,0:0|0:0,0:0:0:0:
134,272,61878,1,0,0:0:0:0:
133,271,61989,2,0,P|128:247|128:222,1,50
250,211,62211,2,0,P|231:228|210:240,1,50
137,139,62433,2,0,P|160:145|182:159,1,50,8|0,0:0|0:0,0:0:0:0:
59,175,62655,1,0,0:0:0:0:
49,130,62767,1,0,0:0:0:0:
68,89,62878,6,0,L|167:84,1,100,4|0,0:0|0:0,0:0:0:0:
302,44,63322,1,8,0:0:0:0:
387,160,63544,1,0,0:0:0:0:
403,118,63655,1,0,0:0:0:0:
396,73,63767,1,0,0:0:0:0:
271,187,63989,1,0,0:0:0:0:
403,118,64211,1,8,0:0:0:0:
249,110,64433,1,0,0:0:0:0:
211,135,64544,1,0,0:0:0:0:
193,176,64655,6,0,L|201:275,1,100,2|0,0:0|0:0,0:0:0:0:
55,323,65100,2,0,L|63:223,1,100,8|0,0:0|0:0,0:0:0:0:
140,341,65544,1,0,0:0:0:0:
179,363,65655,1,0,0:0:0:0:
224,363,65767,1,0,0:0:0:0:
262,339,65878,1,0,0:0:0:0:
284,300,65989,1,8,0:0:0:0:
193,176,66211,1,0,0:0:0:0:
197,225,66322,1,0,0:0:0:0:
201,275,66433,5,4,0:0:0:0:
67,222,66655,1,0,0:0:0:0:
277,193,66878,1,8,0:0:0:0:
62,99,67100,5,0,0:0:0:0:
75,55,67211,1,0,0:0:0:0:
121,53,67322,1,0,0:0:0:0:
136,94,67433,1,0,0:0:0:0:
103,124,67544,1,0,0:0:0:0:
50,92,67655,5,0,0:0:0:0:
81,40,67766,1,8,0:0:0:0:
139,54,67877,1,0,0:0:0:0:
142,111,67988,1,0,0:0:0:0:
91,137,68099,1,0,0:0:0:0:
99,85,68211,5,2,0:0:0:0:
254,151,68655,5,0,0:0:0:0:
254,135,69100,1,0,0:0:0:0:
254,115,69544,1,0,0:0:0:0:
335,282,69989,6,0,L|345:162,1,119.999996337891,4|0,0:0|0:0,0:0:0:0:
223,327,70322,1,0,0:0:0:0:
224,328,70433,2,0,L|213:208,1,119.999996337891,8|0,0:0|0:0,0:0:0:0:
108,117,70767,1,0,0:0:0:0:
108,117,70878,2,0,L|48:122,1,59.9999981689454
84,284,71100,2,0,L|89:225,1,59.9999981689454
24,367,71322,2,0,B|83:378|83:378|141:366,1,119.999996337891,8|0,0:0|0:0,0:0:0:0:
341,326,71655,1,0,0:0:0:0:
341,326,71767,6,0,B|287:307|224:327,1,119.999996337891,2|0,0:0|0:0,0:0:0:0:
393,229,72100,1,0,0:0:0:0:
393,229,72211,2,0,B|363:175|309:146,1,119.999996337891,10|0,0:0|0:0,0:0:0:0:
502,223,72544,1,0,0:0:0:0:
502,223,72655,2,0,P|511:195|513:165,1,59.9999981689454,2|0,0:0|0:0,0:0:0:0:
433,37,72878,2,0,P|444:64|463:87,1,59.9999981689454
338,28,73100,2,0,P|278:32|224:57,1,119.999996337891,8|0,0:0|0:0,0:0:0:0:
99,187,73433,1,0,0:0:0:0:
99,187,73544,6,0,B|181:200|181:200|216:191,1,119.999996337891,2|0,0:0|0:0,0:0:0:0:
358,281,73878,1,0,0:0:0:0:
358,281,73989,2,0,B|276:294|276:294|240:285,1,119.999996337891,8|0,0:0|0:0,0:0:0:0:
76,295,74322,1,0,0:0:0:0:
76,295,74433,2,0,L|83:354,1,59.9999981689454
99,187,74655,2,0,L|106:127,1,59.9999981689454
242,76,74878,2,0,L|182:68,1,59.9999981689454,8|0,0:0|0:0,0:0:0:0:
390,31,75100,2,0,L|330:38,1,59.9999981689454
479,186,75322,6,0,P|469:157|469:127,1,59.9999981689454,2|0,0:0|0:0,0:0:0:0:
458,287,75544,2,0,P|468:316|467:346,1,59.9999981689454
311,317,75767,2,0,L|371:328,1,59.9999981689454,8|0,0:0|0:0,0:0:0:0:
241,183,75989,1,0,0:0:0:0:
204,291,76100,1,0,0:0:0:0:
42,334,76211,6,0,P|32:305|30:275,1,59.9999981689454,2|0,0:0|0:0,0:0:0:0:
93,133,76433,2,0,L|87:192,1,59.9999981689454
99,46,76655,1,10,0:0:0:0:
185,71,76767,1,0,0:0:0:0:
235,136,76878,1,2,0:0:0:0:
241,183,76989,1,0,0:0:0:0:
204,291,77100,6,0,P|208:231|242:183,1,119.999996337891,4|0,0:0|0:0,0:0:0:0:
338,279,77433,1,0,0:0:0:0:
338,279,77544,2,0,P|383:240|441:229,1,119.999996337891,8|0,0:0|0:0,0:0:0:0:
302,187,77878,1,0,0:0:0:0:
302,187,77989,2,0,L|242:182,1,59.9999981689454
93,133,78211,2,0,L|152:128,1,59.9999981689454
15,75,78433,2,0,B|0:132|0:132|16:190,1,119.999996337891,8|0,0:0|0:0,0:0:0:0:
104,342,78767,1,0,0:0:0:0:
104,342,78878,6,0,P|117:284|101:227,1,119.999996337891,2|0,0:0|0:0,0:0:0:0:
265,268,79211,1,0,0:0:0:0:
265,268,79322,2,0,P|233:217|181:188,1,119.999996337891,8|0,0:0|0:0,0:0:0:0:
41,233,79655,1,0,0:0:0:0:
41,233,79767,2,0,L|100:226,1,59.9999981689454,2|0,0:0|0:0,0:0:0:0:
161,105,79989,2,0,L|101:98,1,59.9999981689454
181,187,80211,2,0,P|230:157|247:100,1,119.999996337891,8|0,0:0|0:0,0:0:0:0:
331,175,80544,1,0,0:0:0:0:
331,175,80655,6,0,B|313:232|313:232|329:290,1,119.999996337891,2|0,0:0|0:0,0:0:0:0:
487,152,80989,1,0,0:0:0:0:
487,152,81100,2,0,B|433:179|433:179|404:232,1,119.999996337891,8|0,0:0|0:0,0:0:0:0:
506,330,81433,1,0,0:0:0:0:
506,330,81544,2,0,L|490:272,1,59.9999981689454
386,379,81767,2,0,L|415:326,1,59.9999981689454
271,305,81989,2,0,L|328:289,1,59.9999981689454,8|0,0:0|0:0,0:0:0:0:
270,161,82211,2,0,L|322:190,1,59.9999981689454
377,86,82433,5,2,0:0:0:0:
271,42,82544,1,0,0:0:0:0:
183,82,82655,1,2,0:0:0:0:
149,152,82767,1,0,0:0:0:0:
155,208,82878,5,10,0:0:0:0:
174,247,82989,1,0,0:0:0:0:
199,262,83100,1,2,0:0:0:0:
212,266,83211,1,0,0:0:0:0:
231,190,83322,5,2,0:0:0:0:
191,191,83433,1,0,0:0:0:0:
154,208,83544,2,0,P|136:231|128:260,1,59.9999981689454,2|0,0:0|0:0,0:0:0:0:
196,375,83767,5,10,0:0:0:0:
249,368,83878,1,2,0:0:0:0:
295,340,83989,2,0,P|313:316|321:287,1,59.9999981689454,2|0,0:0|0:0,0:0:0:0:
308,171,84211,6,0,P|306:231|323:289,1,119.999996337891,4|0,0:0|0:0,0:0:0:0:
388,139,84544,1,0,0:0:0:0:
388,139,84655,2,0,P|429:182|481:211,1,119.999996337891,8|0,0:0|0:0,0:0:0:0:
454,50,84989,1,0,0:0:0:0:
454,50,85100,2,0,L|394:53,1,59.9999981689454
190,107,85322,2,0,L|250:111,1,59.9999981689454
110,262,85544,2,0,P|94:204|109:147,1,119.999996337891,8|0,0:0|0:0,0:0:0:0:
195,295,85878,1,0,0:0:0:0:
195,295,85989,6,0,B|152:337|152:337|95:353,1,119.999996337891,2|0,0:0|0:0,0:0:0:0:
183,203,86322,1,0,0:0:0:0:
183,203,86433,2,0,B|241:218|241:218|283:259,1,119.999996337891,8|0,0:0|0:0,0:0:0:0:
110,262,86767,1,0,0:0:0:0:
110,262,86878,2,0,B|93:204,1,59.9999981689454,2|0,0:0|0:0,0:0:0:0:
154,71,87100,2,0,B|137:129,1,59.9999981689454
10,48,87322,2,0,L|129:40,1,119.999996337891,8|0,0:0|0:0,0:0:0:0:
320,68,87655,1,0,0:0:0:0:
319,68,87767,6,0,P|264:90|206:79,1,119.999996337891,2|0,0:0|0:0,0:0:0:0:
221,241,88100,1,0,0:0:0:0:
221,240,88212,2,0,P|228:181|267:136,1,119.999996337891,8|0,0:0|0:0,0:0:0:0:
428,248,88544,1,0,0:0:0:0:
428,247,88656,2,0,P|420:276|402:301,1,59.9999981689454
386,147,88878,2,0,P|415:139|445:142,1,59.9999981689454
326,229,89100,2,0,P|304:207|292:179,1,59.9999981689454,8|0,0:0|0:0,0:0:0:0:
436,262,89322,2,0,P|428:291|410:316,1,59.9999981689454
176,344,89544,6,0,L|176:284,1,59.9999981689454,2|0,0:0|0:0,0:0:0:0:
113,117,89767,2,0,L|113:177,1,59.9999981689454
292,180,89989,2,0,P|263:171|233:170,1,59.9999981689454,8|0,0:0|0:0,0:0:0:0:
87,88,90211,1,0,0:0:0:0:
167,11,90322,1,0,0:0:0:0:
324,47,90433,6,0,P|353:48|383:44,1,59.9999981689454,2|0,0:0|0:0,0:0:0:0:
425,154,90655,2,0,P|395:155|365:151,1,59.9999981689454
512,109,90878,1,10,0:0:0:0:
512,199,90989,1,0,0:0:0:0:
454,248,91100,1,2,0:0:0:0:
417,257,91211,1,0,0:0:0:0:
305,237,91322,6,0,P|364:231|417:257,1,119.999996337891,4|0,0:0|0:0,0:0:0:0:
203,191,91655,1,0,0:0:0:0:
203,191,91767,2,0,P|241:145|297:125,1,119.999996337891,8|0,0:0|0:0,0:0:0:0:
91,234,92100,1,0,0:0:0:0:
90,233,92211,2,0,P|82:204|84:174,1,59.9999981689454
203,288,92433,2,0,P|210:316|208:346,1,59.9999981689454
0,335,92655,2,0,L|119:326,1,119.999996337891,8|0,0:0|0:0,0:0:0:0:
295,373,92989,1,0,0:0:0:0:
295,373,93100,6,0,B|312:294|312:294|304:255,1,119.999996337891,2|0,0:0|0:0,0:0:0:0:
446,331,93433,1,0,0:0:0:0:
446,331,93544,2,0,B|429:252|429:252|436:213,1,119.999996337891,8|0,0:0|0:0,0:0:0:0:
282,158,93878,1,0,0:0:0:0:
282,158,93989,2,0,L|222:161,1,59.9999981689454,2|0,0:0|0:0,0:0:0:0:
395,117,94211,2,0,L|454:120,1,59.9999981689454
255,62,94433,2,0,L|135:68,1,119.999996337891,8|0,0:0|0:0,0:0:0:0:
12,25,94767,1,0,0:0:0:0:
12,25,94878,6,0,P|41:76|34:134,1,119.999996337891,2|0,0:0|0:0,0:0:0:0:
150,153,95211,1,0,0:0:0:0:
150,153,95322,2,0,P|134:209|87:246,1,119.999996337891,8|0,0:0|0:0,0:0:0:0:
207,279,95655,1,0,0:0:0:0:
207,279,95767,2,0,L|266:274,1,59.9999981689454
257,137,95989,2,0,L|231:191,1,59.9999981689454
359,252,96211,2,0,L|324:202,1,59.9999981689454,8|0,0:0|0:0,0:0:0:0:
193,301,96433,2,0,L|252:296,1,59.9999981689454
120,355,96655,5,2,0:0:0:0:
41,330,96767,1,0,0:0:0:0:
7,258,96878,1,2,0:0:0:0:
13,200,96989,1,0,0:0:0:0:
39,166,97100,5,10,0:0:0:0:
71,150,97211,1,0,0:0:0:0:
98,149,97322,1,2,0:0:0:0:
115,157,97433,1,0,0:0:0:0:
191,184,97544,5,6,0:0:0:0:
195,169,97655,1,0,0:0:0:0:
199,154,97767,2,0,L|212:95,1,59.9999981689454,2|0,0:0|0:0,0:0:0:0:
348,130,97989,2,0,L|334:71,1,59.9999981689454,2|2,0:0|0:0,0:0:0:0:
272,254,98211,2,0,L|285:195,1,59.9999981689454,2|0,0:0|0:0,0:0:0:0:
332,322,98433,6,0,L|371:315,5,39.9999987792969,2|2|2|2|2|2,0:0|0:0|0:0|0:0|0:0|0:0,0:0:0:0:
401,289,98878,2,0,L|440:295,5,39.9999987792969,10|2|2|2|2|2,0:0|0:0|0:0|0:0|0:0|0:0,0:0:0:0:
473,277,99322,1,12,0:0:0:0:
358,158,99544,5,2,0:0:0:0:
343,232,99767,1,2,0:0:0:0:
286,182,99989,1,2,0:0:0:0:
414,210,100211,1,8,0:0:0:0:
