osu file format v14

[General]
AudioFilename: audio.mp3
AudioLeadIn: 0
PreviewTime: 68433
Countdown: 0
SampleSet: Normal
StackLeniency: 0.7
Mode: 1
LetterboxInBreaks: 0
WidescreenStoryboard: 1

[Editor]
Bookmarks: 7767,23767,37989,52211,69989,84211
DistanceSpacing: 1
BeatDivisor: 4
GridSize: 32
TimelineZoom: 2

[Metadata]
Title:Kami no Manimina
TitleUnicode:Kami no Manimina
Artist:Ling Yuan yousa
ArtistUnicode:泠鸢yousa
Creator:Kisses
Version:Muzukashii
Source:
Tags:Chinese vers is better than JP vers 中文
BeatmapID:1399295
BeatmapSetID:660597

[Difficulty]
HPDrainRate:5
CircleSize:2
OverallDifficulty:5
ApproachRate:8
SliderMultiplier:1.6
SliderTickRate:1

[Events]
//Background and Video events
0,0,"840372.jpg",0,30
//Break Periods
//Storyboard Layer 0 (Background)
//Storyboard Layer 1 (Fail)
//Storyboard Layer 2 (Pass)
//Storyboard Layer 3 (Foreground)
//Storyboard Sound Samples

[TimingPoints]
656,444.444444444444,4,1,0,70,1,0
4655,-100,4,1,0,70,0,0
6433,-100,4,1,0,40,0,0
7767,-83.3333333333333,4,1,0,70,0,1
22878,-83.3333333333333,4,1,0,70,0,0
23767,-100,4,1,0,70,0,0
68655,-100,4,1,0,40,0,0
69989,-83.3333333333333,4,1,0,70,0,1
100211,-83.3333333333333,4,1,0,70,0,0

[HitObjects]
168,225,656,5,0,0:0:0:0:
168,225,767,1,8,0:0:0:0:
256,204,1100,1,8,0:0:0:0:
305,237,1544,1,0,0:0:0:0:
256,204,1655,1,8,0:0:0:0:
256,204,1989,1,8,0:0:0:0:
234,215,2433,1,0,0:0:0:0:
234,215,2544,1,8,0:0:0:0:
195,237,2878,1,8,0:0:0:0:
185,246,3211,1,0,0:0:0:0:
185,246,3322,1,8,0:0:0:0:
185,246,3433,1,0,0:0:0:0:
185,246,3767,1,8,0:0:0:0:
106,214,4211,1,4,0:0:0:0:
168,197,4655,1,8,0:0:0:0:
188,218,4878,1,8,0:0:0:0:
235,242,4989,1,0,0:0:0:0:
276,242,5211,1,0,0:0:0:0:
276,242,5322,1,0,0:0:0:0:
271,249,5544,1,8,0:0:0:0:
271,249,5655,1,0,0:0:0:0:
271,249,5767,1,0,0:0:0:0:
283,246,5989,1,8,0:0:0:0:
128,192,7767,5,12,0:0:0:0:
192,288,8100,1,8,0:0:0:0:
192,288,8211,1,0,0:0:0:0:
256,256,8544,1,0,0:0:0:0:
224,256,8655,1,8,0:0:0:0:
224,256,8878,1,0,0:0:0:0:
224,256,9100,1,8,0:0:0:0:
224,256,9544,1,8,0:0:0:0:
224,256,9878,1,8,0:0:0:0:
224,256,9989,1,0,0:0:0:0:
224,256,10322,1,0,0:0:0:0:
224,256,10433,1,8,0:0:0:0:
224,256,10655,1,0,0:0:0:0:
224,256,10878,1,8,0:0:0:0:
64,192,11322,1,8,0:0:0:0:
160,192,11655,1,8,0:0:0:0:
160,192,11767,1,0,0:0:0:0:
160,224,12100,1,0,0:0:0:0:
160,224,12211,1,8,0:0:0:0:
160,224,12433,1,0,0:0:0:0:
192,224,12655,1,8,0:0:0:0:
288,192,13100,1,8,0:0:0:0:
288,192,13322,1,0,0:0:0:0:
288,192,13433,1,0,0:0:0:0:
288,192,13544,1,0,0:0:0:0:
192,224,13767,1,0,0:0:0:0:
160,192,13989,1,8,0:0:0:0:
160,192,14878,5,12,0:0:0:0:
128,256,15211,1,8,0:0:0:0:
128,256,15322,1,0,0:0:0:0:
96,256,15655,1,0,0:0:0:0:
96,256,15767,1,8,0:0:0:0:
128,256,15989,1,0,0:0:0:0:
128,256,16211,1,8,0:0:0:0:
128,288,16655,1,8,0:0:0:0:
128,288,16989,1,8,0:0:0:0:
128,288,17100,1,0,0:0:0:0:
128,288,17433,1,0,0:0:0:0:
128,288,17544,1,8,0:0:0:0:
128,288,17767,1,0,0:0:0:0:
128,288,17989,1,8,0:0:0:0:
128,224,18433,1,8,0:0:0:0:
128,224,18767,1,8,0:0:0:0:
128,224,18878,1,0,0:0:0:0:
128,224,19211,1,0,0:0:0:0:
128,224,19322,1,0,0:0:0:0:
128,224,19544,1,8,0:0:0:0:
128,224,19767,1,0,0:0:0:0:
96,224,19989,1,8,0:0:0:0:
192,160,20211,1,4,0:0:0:0:
192,288,20655,1,8,0:0:0:0:
160,224,21100,1,0,0:0:0:0:
160,224,21211,1,0,0:0:0:0:
160,224,21322,1,0,0:0:0:0:
128,224,21544,1,8,0:0:0:0:
160,224,21989,1,12,0:0:0:0:
64,160,22211,1,0,0:0:0:0:
288,224,22433,1,8,0:0:0:0:
288,224,22544,1,0,0:0:0:0:
160,160,22878,1,4,0:0:0:0:
140,205,23767,5,4,0:0:0:0:
278,260,24211,1,8,0:0:0:0:
278,260,24655,1,0,0:0:0:0:
290,224,24878,1,0,0:0:0:0:
304,218,25100,1,8,0:0:0:0:
279,189,25544,1,0,0:0:0:0:
277,193,25767,1,0,0:0:0:0:
279,189,25989,1,8,0:0:0:0:
279,189,26211,1,8,0:0:0:0:
241,191,27100,1,8,0:0:0:0:
241,191,27322,1,0,0:0:0:0:
241,191,27767,1,8,0:0:0:0:
150,193,28211,1,0,0:0:0:0:
204,188,28433,1,0,0:0:0:0:
150,193,28655,1,8,0:0:0:0:
150,193,29100,1,0,0:0:0:0:
150,193,29322,1,0,0:0:0:0:
150,193,29544,1,8,0:0:0:0:
150,193,29767,1,0,0:0:0:0:
72,168,30433,1,8,0:0:0:0:
237,174,30878,1,12,0:0:0:0:
237,174,31322,1,8,0:0:0:0:
243,231,31767,1,0,0:0:0:0:
239,239,31989,1,0,0:0:0:0:
239,239,32211,1,8,0:0:0:0:
239,239,32655,1,8,0:0:0:0:
239,239,32878,1,0,0:0:0:0:
239,239,33100,1,8,0:0:0:0:
239,239,33322,1,0,0:0:0:0:
79,248,33767,1,0,0:0:0:0:
79,248,33989,1,0,0:0:0:0:
79,248,34211,1,8,0:0:0:0:
134,186,34655,1,8,0:0:0:0:
134,186,34878,1,0,0:0:0:0:
134,186,35100,1,8,0:0:0:0:
149,141,35544,1,0,0:0:0:0:
149,141,35767,1,8,0:0:0:0:
48,165,36211,1,0,0:0:0:0:
48,165,36433,1,8,0:0:0:0:
157,80,36655,1,0,0:0:0:0:
157,80,36878,1,0,0:0:0:0:
116,237,37544,1,0,0:0:0:0:
116,237,37655,1,0,0:0:0:0:
116,237,37767,1,0,0:0:0:0:
277,179,37989,1,12,0:0:0:0:
208,211,38433,1,8,0:0:0:0:
208,211,38878,1,0,0:0:0:0:
92,209,39100,1,0,0:0:0:0:
208,211,39322,1,8,0:0:0:0:
208,211,39544,1,0,0:0:0:0:
139,228,39767,1,0,0:0:0:0:
135,244,40211,1,8,0:0:0:0:
135,244,40433,1,0,0:0:0:0:
135,244,40878,1,0,0:0:0:0:
135,244,41100,1,8,0:0:0:0:
137,180,41322,1,0,0:0:0:0:
155,202,41544,1,0,0:0:0:0:
155,202,41989,1,8,0:0:0:0:
155,202,42433,1,0,0:0:0:0:
155,202,42655,1,0,0:0:0:0:
155,202,42878,1,8,0:0:0:0:
170,249,43322,1,0,0:0:0:0:
170,249,43544,1,0,0:0:0:0:
170,249,43767,1,8,0:0:0:0:
170,249,43989,1,0,0:0:0:0:
147,206,44433,1,0,0:0:0:0:
147,206,44655,1,8,0:0:0:0:
147,206,44878,1,0,0:0:0:0:
146,217,45100,1,8,0:0:0:0:
215,243,45544,1,8,0:0:0:0:
215,243,45989,1,0,0:0:0:0:
215,243,46211,1,0,0:0:0:0:
215,243,46433,1,8,0:0:0:0:
215,243,46655,1,0,0:0:0:0:
215,243,46878,1,0,0:0:0:0:
215,243,47100,1,8,0:0:0:0:
215,243,47322,1,8,0:0:0:0:
215,243,47544,1,0,0:0:0:0:
123,198,47989,1,0,0:0:0:0:
123,198,48211,1,8,0:0:0:0:
123,198,48433,1,8,0:0:0:0:
205,195,48655,1,4,0:0:0:0:
107,178,49322,1,0,0:0:0:0:
131,216,49544,1,8,0:0:0:0:
178,184,49878,1,0,0:0:0:0:
198,194,50211,1,8,0:0:0:0:
175,241,50433,1,8,0:0:0:0:
175,241,50878,1,8,0:0:0:0:
175,241,50989,1,0,0:0:0:0:
119,195,51322,1,8,0:0:0:0:
119,195,51767,1,0,0:0:0:0:
119,195,51878,1,8,0:0:0:0:
254,137,52211,5,12,0:0:0:0:
196,282,53100,1,0,0:0:0:0:
155,235,53544,1,0,0:0:0:0:
179,280,53767,1,8,0:0:0:0:
200,272,54211,1,8,0:0:0:0:
200,272,54655,1,0,0:0:0:0:
200,272,55100,1,8,0:0:0:0:
200,272,55322,1,0,0:0:0:0:
200,272,55544,1,8,0:0:0:0:
194,280,55767,1,0,0:0:0:0:
194,280,56211,1,8,0:0:0:0:
141,270,56878,1,0,0:0:0:0:
141,270,57100,1,8,0:0:0:0:
141,270,57322,1,0,0:0:0:0:
141,270,57767,1,8,0:0:0:0:
141,270,57989,1,12,0:0:0:0:
141,270,58211,1,0,0:0:0:0:
141,270,58322,1,0,0:0:0:0:
141,270,58433,1,0,0:0:0:0:
256,160,58655,1,8,0:0:0:0:
141,270,58878,1,8,0:0:0:0:
160,128,59100,1,0,0:0:0:0:
123,273,59322,1,12,0:0:0:0:
69,222,59767,1,0,0:0:0:0:
37,232,60100,1,0,0:0:0:0:
146,143,60211,1,8,0:0:0:0:
139,176,60433,1,0,0:0:0:0:
139,176,60655,1,8,0:0:0:0:
137,201,60878,1,0,0:0:0:0:
139,176,61100,1,0,0:0:0:0:
139,176,61544,1,8,0:0:0:0:
102,158,61878,1,8,0:0:0:0:
127,179,61989,1,8,0:0:0:0:
127,182,62211,1,0,0:0:0:0:
127,182,62433,1,8,0:0:0:0:
108,190,62655,1,8,0:0:0:0:
98,140,63100,1,8,0:0:0:0:
77,178,63544,1,0,0:0:0:0:
77,178,64433,1,8,0:0:0:0:
77,178,64655,1,8,0:0:0:0:
77,178,64878,1,0,0:0:0:0:
165,188,65100,1,8,0:0:0:0:
165,188,65544,1,0,0:0:0:0:
165,188,65989,1,8,0:0:0:0:
165,188,66433,1,12,0:0:0:0:
165,188,66655,1,8,0:0:0:0:
165,188,66878,1,0,0:0:0:0:
83,178,67322,1,0,0:0:0:0:
83,178,67433,1,0,0:0:0:0:
83,178,67544,1,0,0:0:0:0:
83,178,67767,1,8,0:0:0:0:
83,178,67989,1,0,0:0:0:0:
83,178,68211,1,4,0:0:0:0:
294,217,69989,5,12,0:0:0:0:
115,170,70322,1,8,0:0:0:0:
121,170,70433,1,0,0:0:0:0:
177,123,70878,1,8,0:0:0:0:
198,136,71100,1,0,0:0:0:0:
198,136,71322,1,8,0:0:0:0:
151,196,71767,1,8,0:0:0:0:
379,224,72100,1,8,0:0:0:0:
234,195,72211,1,0,0:0:0:0:
234,195,72655,1,0,0:0:0:0:
234,195,72878,1,8,0:0:0:0:
234,195,73100,1,0,0:0:0:0:
189,118,73544,1,8,0:0:0:0:
189,118,73878,1,0,0:0:0:0:
189,118,73989,1,8,0:0:0:0:
150,159,74322,1,0,0:0:0:0:
150,159,74433,1,8,0:0:0:0:
150,159,74655,1,0,0:0:0:0:
150,159,74878,1,8,0:0:0:0:
150,159,75100,1,0,0:0:0:0:
150,159,75322,1,8,0:0:0:0:
192,192,75544,1,8,0:0:0:0:
149,170,75767,1,0,0:0:0:0:
149,170,75989,1,0,0:0:0:0:
202,166,76211,1,8,0:0:0:0:
119,160,76655,1,0,0:0:0:0:
119,160,76767,1,0,0:0:0:0:
119,160,76878,1,0,0:0:0:0:
119,160,77100,1,12,0:0:0:0:
205,123,77433,1,8,0:0:0:0:
205,123,77544,1,0,0:0:0:0:
126,201,77989,1,8,0:0:0:0:
126,201,78211,1,0,0:0:0:0:
126,201,78433,1,8,0:0:0:0:
205,204,78878,1,0,0:0:0:0:
223,204,79211,1,0,0:0:0:0:
223,204,79322,1,0,0:0:0:0:
224,202,79767,1,8,0:0:0:0:
223,204,79989,1,0,0:0:0:0:
223,204,80211,1,8,0:0:0:0:
192,192,80655,1,8,0:0:0:0:
192,192,80989,1,0,0:0:0:0:
192,192,81100,1,8,0:0:0:0:
245,174,81433,1,0,0:0:0:0:
192,192,81544,1,0,0:0:0:0:
192,192,81767,1,8,0:0:0:0:
192,192,81989,1,0,0:0:0:0:
192,192,82211,1,8,0:0:0:0:
192,224,82433,1,0,0:0:0:0:
192,224,82878,1,8,0:0:0:0:
96,224,83322,1,0,0:0:0:0:
96,192,83544,1,8,0:0:0:0:
128,224,83767,1,0,0:0:0:0:
128,224,83878,1,0,0:0:0:0:
128,224,83989,1,0,0:0:0:0:
96,224,84211,5,12,0:0:0:0:
256,192,84544,1,8,0:0:0:0:
256,192,84655,1,0,0:0:0:0:
299,218,84989,1,0,0:0:0:0:
256,192,85100,1,8,0:0:0:0:
256,192,85322,1,0,0:0:0:0:
256,192,85544,1,8,0:0:0:0:
256,192,85989,1,0,0:0:0:0:
256,192,86322,1,8,0:0:0:0:
256,192,86433,1,0,0:0:0:0:
316,269,86767,1,0,0:0:0:0:
192,256,86878,1,0,0:0:0:0:
192,256,87100,1,8,0:0:0:0:
192,256,87322,1,0,0:0:0:0:
224,160,87767,1,8,0:0:0:0:
96,160,88100,1,8,0:0:0:0:
96,160,88211,1,0,0:0:0:0:
166,171,88544,1,8,0:0:0:0:
192,192,88655,1,0,0:0:0:0:
192,192,88878,1,8,0:0:0:0:
192,192,89100,1,0,0:0:0:0:
192,192,89322,1,8,0:0:0:0:
192,160,89544,1,0,0:0:0:0:
238,91,89767,1,0,0:0:0:0:
160,160,89989,1,8,0:0:0:0:
160,160,90211,1,8,0:0:0:0:
160,160,90433,1,0,0:0:0:0:
160,224,90878,1,0,0:0:0:0:
160,224,90989,1,0,0:0:0:0:
160,224,91100,1,0,0:0:0:0:
224,224,91322,1,12,0:0:0:0:
224,224,91655,1,8,0:0:0:0:
224,224,91767,1,0,0:0:0:0:
176,148,92100,1,0,0:0:0:0:
224,256,92211,1,8,0:0:0:0:
224,256,92433,1,0,0:0:0:0:
224,256,92655,1,8,0:0:0:0:
192,256,93100,1,8,0:0:0:0:
192,256,93433,1,0,0:0:0:0:
192,256,93544,1,8,0:0:0:0:
219,213,93878,1,8,0:0:0:0:
96,160,93989,1,8,0:0:0:0:
96,160,94211,1,0,0:0:0:0:
96,160,94433,1,8,0:0:0:0:
192,256,94878,1,8,0:0:0:0:
64,224,95211,1,8,0:0:0:0:
64,224,95322,1,0,0:0:0:0:
391,267,95655,1,8,0:0:0:0:
160,224,95767,1,0,0:0:0:0:
160,224,95989,1,8,0:0:0:0:
160,224,96211,1,0,0:0:0:0:
160,224,96433,1,8,0:0:0:0:
256,256,96655,1,4,0:0:0:0:
192,192,97100,1,8,0:0:0:0:
192,192,97211,1,8,0:0:0:0:
80,214,97544,1,4,0:0:0:0:
186,158,97989,1,0,0:0:0:0:
186,158,98100,1,0,0:0:0:0:
116,226,98433,1,8,0:0:0:0:
116,226,98544,1,8,0:0:0:0:
116,226,98655,1,8,0:0:0:0:
171,202,98878,1,8,0:0:0:0:
171,202,98989,1,0,0:0:0:0:
171,202,99322,1,12,0:0:0:0:
116,217,100211,1,4,0:0:0:0:
