osu file format v14

[General]
AudioFilename: audio.mp3
AudioLeadIn: 0
PreviewTime: 68433
Countdown: 0
SampleSet: Normal
StackLeniency: 0.7
Mode: 1
LetterboxInBreaks: 0
WidescreenStoryboard: 0

[Editor]
Bookmarks: 7767,23767,37989,52211,69989,84211
DistanceSpacing: 1
BeatDivisor: 4
GridSize: 32
TimelineZoom: 2

[Metadata]
Title:Kami no Manimina
TitleUnicode:Kami no Manimina
Artist:Ling Yuan yousa
ArtistUnicode:泠鸢yousa
Creator:Kisses
Version:Kisses
Source:
Tags:Chinese vers is better than JP vers 中文
BeatmapID:1398752
BeatmapSetID:660597

[Difficulty]
HPDrainRate:5
CircleSize:2
OverallDifficulty:5
ApproachRate:8
SliderMultiplier:1.6
SliderTickRate:1

[Events]
//Background and Video events
0,0,"840372.jpg",0,30
//Break Periods
//Storyboard Layer 0 (Background)
//Storyboard Layer 1 (Fail)
//Storyboard Layer 2 (Pass)
//Storyboard Layer 3 (Foreground)
//Storyboard Sound Samples

[TimingPoints]
656,444.444444444444,4,1,0,70,1,0
4655,-100,4,1,0,70,0,0
7767,-83.3333333333333,4,1,0,70,0,1
22878,-83.3333333333333,4,1,0,70,0,0
23767,-100,4,1,0,70,0,0
52655,-125,4,1,0,70,0,0
59322,-100,4,1,0,70,0,0
62878,-111.111111111111,4,1,0,70,0,0
66433,-100,4,1,0,70,0,0
68655,-100,4,1,0,40,0,0
69989,-83.3333333333333,4,1,0,70,0,1
100211,-83.3333333333333,4,1,0,70,0,0

[HitObjects]
204,222,656,5,0,0:0:0:0:
294,250,767,1,8,0:0:0:0:
274,164,1100,1,8,0:0:0:0:
321,267,1322,1,8,0:0:0:0:
321,267,1433,1,8,0:0:0:0:
321,267,1544,1,0,0:0:0:0:
321,267,1655,1,8,0:0:0:0:
405,258,1989,1,8,0:0:0:0:
227,271,2211,1,8,0:0:0:0:
227,271,2322,1,8,0:0:0:0:
227,271,2433,1,0,0:0:0:0:
227,271,2544,1,8,0:0:0:0:
203,205,2878,1,8,0:0:0:0:
294,218,3100,1,0,0:0:0:0:
294,218,3211,1,8,0:0:0:0:
345,222,3322,1,0,0:0:0:0:
345,222,3433,1,8,0:0:0:0:
345,222,3767,1,8,0:0:0:0:
409,115,3989,1,0,0:0:0:0:
405,124,4100,1,0,0:0:0:0:
211,165,4211,1,8,0:0:0:0:
297,208,4655,1,8,0:0:0:0:
252,255,4878,1,8,0:0:0:0:
252,255,4989,1,8,0:0:0:0:
299,320,5100,1,0,0:0:0:0:
257,289,5211,1,8,0:0:0:0:
257,289,5322,1,8,0:0:0:0:
257,289,5433,1,8,0:0:0:0:
257,289,5544,1,0,0:0:0:0:
257,289,5655,1,8,0:0:0:0:
257,289,5767,1,0,0:0:0:0:
257,289,5878,1,0,0:0:0:0:
257,289,5989,1,8,0:0:0:0:
192,191,7100,1,8,0:0:0:0:
192,191,7322,1,8,0:0:0:0:
296,182,7767,5,12,0:0:0:0:
231,244,7989,1,0,0:0:0:0:
231,244,8100,1,0,0:0:0:0:
231,244,8211,1,8,0:0:0:0:
212,161,8433,1,8,0:0:0:0:
212,161,8544,1,8,0:0:0:0:
231,244,8655,1,0,0:0:0:0:
231,244,8878,1,8,0:0:0:0:
231,244,9100,1,8,0:0:0:0:
341,289,9322,1,8,0:0:0:0:
341,289,9433,1,0,0:0:0:0:
216,202,9544,1,0,0:0:0:0:
216,202,9767,1,0,0:0:0:0:
287,173,9989,1,8,0:0:0:0:
205,202,10100,1,0,0:0:0:0:
241,188,10211,1,0,0:0:0:0:
241,188,10322,1,0,0:0:0:0:
234,197,10433,1,8,0:0:0:0:
242,253,10655,1,8,0:0:0:0:
242,253,10878,1,8,0:0:0:0:
208,211,11100,1,0,0:0:0:0:
208,211,11322,1,8,0:0:0:0:
208,211,11544,1,0,0:0:0:0:
208,211,11655,1,0,0:0:0:0:
208,211,11767,1,8,0:0:0:0:
148,224,11989,1,8,0:0:0:0:
148,224,12100,1,0,0:0:0:0:
148,224,12211,1,0,0:0:0:0:
208,211,12433,1,8,0:0:0:0:
208,211,12655,1,8,0:0:0:0:
208,211,12878,1,0,0:0:0:0:
208,211,13100,1,8,0:0:0:0:
208,211,13322,1,8,0:0:0:0:
208,211,13396,1,8,0:0:0:0:
163,118,13470,1,8,0:0:0:0:
208,211,13544,1,0,0:0:0:0:
208,211,13767,1,0,0:0:0:0:
208,211,13989,1,8,0:0:0:0:
192,192,14211,1,0,0:0:0:0:
192,192,14285,1,0,0:0:0:0:
192,192,14359,1,0,0:0:0:0:
192,192,14433,1,8,0:0:0:0:
192,128,14655,1,0,0:0:0:0:
186,228,14878,1,12,0:0:0:0:
231,244,15100,1,0,0:0:0:0:
231,244,15211,1,0,0:0:0:0:
231,244,15322,1,8,0:0:0:0:
212,161,15544,1,8,0:0:0:0:
212,161,15655,1,8,0:0:0:0:
231,244,15767,1,0,0:0:0:0:
231,244,15989,1,8,0:0:0:0:
231,244,16211,1,8,0:0:0:0:
341,289,16433,1,8,0:0:0:0:
341,289,16544,1,0,0:0:0:0:
216,202,16655,1,0,0:0:0:0:
192,256,16878,1,0,0:0:0:0:
192,256,17100,1,8,0:0:0:0:
192,256,17211,1,0,0:0:0:0:
192,256,17322,1,0,0:0:0:0:
256,256,17433,1,0,0:0:0:0:
256,256,17544,1,8,0:0:0:0:
224,256,17767,1,8,0:0:0:0:
224,256,17989,1,8,0:0:0:0:
192,256,18211,1,0,0:0:0:0:
256,256,18433,1,8,0:0:0:0:
192,256,18655,1,8,0:0:0:0:
192,256,18767,1,0,0:0:0:0:
192,256,18878,1,8,0:0:0:0:
192,256,19100,1,8,0:0:0:0:
192,256,19211,1,0,0:0:0:0:
192,256,19322,1,0,0:0:0:0:
192,256,19544,1,8,0:0:0:0:
192,256,19767,1,8,0:0:0:0:
192,256,19989,1,0,0:0:0:0:
192,224,20211,1,12,0:0:0:0:
96,192,20433,1,8,0:0:0:0:
96,192,20544,1,8,0:0:0:0:
96,192,20655,1,0,0:0:0:0:
224,192,20878,1,8,0:0:0:0:
320,224,21100,1,8,0:0:0:0:
320,224,21174,1,8,0:0:0:0:
320,256,21248,1,8,0:0:0:0:
96,160,21322,1,8,0:0:0:0:
288,160,21544,1,8,0:0:0:0:
288,160,21655,1,0,0:0:0:0:
192,192,21989,1,12,0:0:0:0:
192,224,22211,1,8,0:0:0:0:
192,256,22322,1,0,0:0:0:0:
192,256,22433,1,8,0:0:0:0:
192,256,22544,1,0,0:0:0:0:
352,320,22655,1,0,0:0:0:0:
352,320,22767,1,0,0:0:0:0:
352,320,22878,1,8,0:0:0:0:
228,253,23767,5,12,0:0:0:0:
278,279,24100,1,0,0:0:0:0:
278,279,24211,1,8,0:0:0:0:
241,166,24544,1,8,0:0:0:0:
282,200,24655,1,0,0:0:0:0:
282,200,24878,1,0,0:0:0:0:
282,200,25100,1,8,0:0:0:0:
282,200,25322,1,0,0:0:0:0:
282,200,25544,1,0,0:0:0:0:
282,200,25767,1,0,0:0:0:0:
282,200,25989,1,8,0:0:0:0:
282,200,26211,1,8,0:0:0:0:
197,184,26433,1,0,0:0:0:0:
228,220,26655,1,0,0:0:0:0:
228,220,26767,1,0,0:0:0:0:
245,234,26878,1,8,0:0:0:0:
228,220,27100,1,8,0:0:0:0:
228,220,27322,1,0,0:0:0:0:
223,199,27655,1,8,0:0:0:0:
199,200,27767,1,0,0:0:0:0:
199,200,28100,1,8,0:0:0:0:
199,200,28211,1,0,0:0:0:0:
198,201,28433,1,0,0:0:0:0:
199,200,28655,1,8,0:0:0:0:
199,200,28878,1,8,0:0:0:0:
165,207,29100,1,0,0:0:0:0:
163,146,29322,1,0,0:0:0:0:
197,165,29544,1,8,0:0:0:0:
197,165,29767,1,0,0:0:0:0:
314,249,29989,1,0,0:0:0:0:
314,249,30100,1,8,0:0:0:0:
314,249,30211,1,0,0:0:0:0:
314,249,30433,1,8,0:0:0:0:
314,249,30655,1,0,0:0:0:0:
314,249,30878,1,8,0:0:0:0:
314,249,31211,1,8,0:0:0:0:
314,249,31322,1,8,0:0:0:0:
183,191,31655,1,0,0:0:0:0:
183,191,31767,1,8,0:0:0:0:
192,256,31989,1,0,0:0:0:0:
192,256,32211,1,8,0:0:0:0:
192,256,32433,1,0,0:0:0:0:
192,256,32544,1,8,0:0:0:0:
192,256,32655,1,0,0:0:0:0:
192,256,32878,1,0,0:0:0:0:
192,256,33100,1,8,0:0:0:0:
192,256,33322,1,0,0:0:0:0:
239,257,33767,1,0,0:0:0:0:
327,290,33989,1,0,0:0:0:0:
335,285,34211,1,8,0:0:0:0:
153,146,34655,1,8,0:0:0:0:
357,195,34878,1,0,0:0:0:0:
357,195,35100,1,8,0:0:0:0:
174,180,35544,1,8,0:0:0:0:
245,190,35767,1,0,0:0:0:0:
192,159,35989,1,8,0:0:0:0:
192,159,36100,1,0,0:0:0:0:
192,159,36211,1,0,0:0:0:0:
186,215,36433,1,0,0:0:0:0:
308,239,36655,1,8,0:0:0:0:
279,176,36767,1,8,0:0:0:0:
247,239,37100,1,0,0:0:0:0:
247,239,37174,1,0,0:0:0:0:
247,239,37248,1,8,0:0:0:0:
224,128,37322,1,8,0:0:0:0:
170,221,37544,1,8,0:0:0:0:
189,211,37655,1,0,0:0:0:0:
201,300,37989,5,12,0:0:0:0:
272,313,38322,1,0,0:0:0:0:
272,313,38433,1,8,0:0:0:0:
309,255,38767,1,8,0:0:0:0:
309,255,38878,1,0,0:0:0:0:
201,253,39100,1,0,0:0:0:0:
201,253,39322,1,8,0:0:0:0:
201,253,39544,1,0,0:0:0:0:
201,253,39767,1,0,0:0:0:0:
201,253,39989,1,0,0:0:0:0:
201,253,40211,1,8,0:0:0:0:
201,253,40433,1,0,0:0:0:0:
201,253,40655,1,8,0:0:0:0:
201,253,40767,1,0,0:0:0:0:
201,253,40878,1,0,0:0:0:0:
201,253,40989,1,0,0:0:0:0:
201,253,41100,1,8,0:0:0:0:
201,253,41322,1,0,0:0:0:0:
201,253,41544,1,8,0:0:0:0:
305,270,41878,1,0,0:0:0:0:
305,270,41989,1,8,0:0:0:0:
301,275,42322,1,8,0:0:0:0:
301,275,42433,1,8,0:0:0:0:
295,280,42655,1,8,0:0:0:0:
295,280,42878,1,8,0:0:0:0:
295,280,43100,1,0,0:0:0:0:
295,280,43322,1,8,0:0:0:0:
107,198,43544,1,0,0:0:0:0:
373,258,43767,1,8,0:0:0:0:
317,276,43989,1,0,0:0:0:0:
265,237,44100,1,8,0:0:0:0:
265,237,44211,1,0,0:0:0:0:
265,237,44322,1,8,0:0:0:0:
382,300,44655,1,8,0:0:0:0:
382,300,44878,1,0,0:0:0:0:
382,300,45100,1,12,0:0:0:0:
224,224,45433,1,0,0:0:0:0:
224,224,45544,1,8,0:0:0:0:
224,224,45878,1,0,0:0:0:0:
224,224,45989,1,8,0:0:0:0:
256,224,46211,1,0,0:0:0:0:
320,224,46433,1,8,0:0:0:0:
288,224,46655,1,8,0:0:0:0:
288,224,46878,1,0,0:0:0:0:
288,224,47100,1,0,0:0:0:0:
224,160,47322,1,8,0:0:0:0:
160,224,47544,1,0,0:0:0:0:
256,224,47655,1,0,0:0:0:0:
256,224,47767,1,8,0:0:0:0:
256,224,47878,1,0,0:0:0:0:
256,160,47989,1,8,0:0:0:0:
256,160,48211,1,8,0:0:0:0:
320,224,48433,1,0,0:0:0:0:
256,192,48655,1,12,0:0:0:0:
150,161,49100,1,8,0:0:0:0:
195,284,49322,1,0,0:0:0:0:
254,284,49544,1,8,0:0:0:0:
254,284,49655,1,8,0:0:0:0:
254,284,49767,1,8,0:0:0:0:
254,284,49989,1,8,0:0:0:0:
183,267,50211,1,0,0:0:0:0:
183,267,50433,1,4,0:0:0:0:
139,188,50655,1,8,0:0:0:0:
208,205,50878,1,8,0:0:0:0:
208,205,50989,1,0,0:0:0:0:
222,247,51100,1,0,0:0:0:0:
257,276,51322,1,0,0:0:0:0:
55,173,51396,1,0,0:0:0:0:
170,190,51470,1,8,0:0:0:0:
257,276,51544,1,8,0:0:0:0:
257,276,51767,1,8,0:0:0:0:
257,276,51878,1,8,0:0:0:0:
317,238,52211,5,12,0:0:0:0:
192,224,52655,1,0,0:0:0:0:
256,256,52989,1,0,0:0:0:0:
288,224,53100,1,8,0:0:0:0:
128,160,53322,1,8,0:0:0:0:
224,224,53544,1,0,0:0:0:0:
192,160,53767,1,8,0:0:0:0:
128,128,53989,1,0,0:0:0:0:
224,256,54433,1,8,0:0:0:0:
160,160,54878,1,0,0:0:0:0:
160,160,54989,1,0,0:0:0:0:
160,160,55100,1,0,0:0:0:0:
160,160,55322,1,8,0:0:0:0:
224,224,55544,1,0,0:0:0:0:
256,224,55767,1,4,0:0:0:0:
224,224,56211,1,8,0:0:0:0:
128,192,56655,1,0,0:0:0:0:
160,224,56878,1,8,0:0:0:0:
160,224,57100,1,0,0:0:0:0:
160,224,57322,1,12,0:0:0:0:
224,224,57544,1,0,0:0:0:0:
224,224,57655,1,0,0:0:0:0:
224,224,57767,1,0,0:0:0:0:
224,224,57989,1,8,0:0:0:0:
192,266,58100,1,0,0:0:0:0:
128,160,58433,1,8,0:0:0:0:
128,160,58544,1,8,0:0:0:0:
128,160,58655,1,0,0:0:0:0:
128,160,58767,1,0,0:0:0:0:
128,160,58878,1,8,0:0:0:0:
224,192,59100,1,0,0:0:0:0:
320,160,59322,1,12,0:0:0:0:
288,288,59655,1,0,0:0:0:0:
256,256,59767,1,8,0:0:0:0:
320,256,60100,1,8,0:0:0:0:
320,256,60211,1,0,0:0:0:0:
160,160,60433,1,0,0:0:0:0:
160,160,60655,1,8,0:0:0:0:
160,192,60878,1,0,0:0:0:0:
192,288,61100,1,0,0:0:0:0:
224,224,61433,1,0,0:0:0:0:
224,224,61544,1,8,0:0:0:0:
224,224,61878,1,8,0:0:0:0:
224,224,61989,1,8,0:0:0:0:
224,224,62211,1,0,0:0:0:0:
224,224,62433,1,8,0:0:0:0:
224,224,62655,1,0,0:0:0:0:
224,224,62878,1,12,0:0:0:0:
192,256,63322,1,8,0:0:0:0:
64,192,63767,1,0,0:0:0:0:
96,224,63989,1,0,0:0:0:0:
96,224,64100,1,0,0:0:0:0:
224,224,64211,1,8,0:0:0:0:
224,128,64433,1,8,0:0:0:0:
224,160,64544,1,0,0:0:0:0:
224,160,64655,1,8,0:0:0:0:
32,192,64878,1,0,0:0:0:0:
192,288,65100,1,8,0:0:0:0:
192,288,65544,1,8,0:0:0:0:
256,288,65989,1,8,0:0:0:0:
288,256,66211,1,0,0:0:0:0:
224,224,66433,1,12,0:0:0:0:
320,160,66655,1,8,0:0:0:0:
288,160,66878,1,0,0:0:0:0:
224,128,67100,1,0,0:0:0:0:
224,128,67211,1,0,0:0:0:0:
224,128,67322,1,8,0:0:0:0:
224,224,67433,1,8,0:0:0:0:
224,224,67544,1,0,0:0:0:0:
128,128,67655,1,8,0:0:0:0:
256,160,67767,1,0,0:0:0:0:
160,160,67989,1,0,0:0:0:0:
160,192,68063,1,0,0:0:0:0:
160,128,68137,1,0,0:0:0:0:
288,160,68211,1,8,0:0:0:0:
192,192,68655,1,8,0:0:0:0:
192,224,69100,1,0,0:0:0:0:
192,224,69544,1,8,0:0:0:0:
224,192,69989,5,12,0:0:0:0:
320,160,70322,1,0,0:0:0:0:
320,192,70433,1,8,0:0:0:0:
352,128,70767,1,8,0:0:0:0:
320,128,70878,1,8,0:0:0:0:
320,128,71100,1,0,0:0:0:0:
320,128,71322,1,8,0:0:0:0:
224,128,71544,1,0,0:0:0:0:
224,160,71655,1,0,0:0:0:0:
224,160,71767,1,8,0:0:0:0:
224,160,71989,1,0,0:0:0:0:
224,160,72211,1,8,0:0:0:0:
224,160,72322,1,8,0:0:0:0:
224,160,72433,1,0,0:0:0:0:
224,160,72544,1,0,0:0:0:0:
224,160,72655,1,8,0:0:0:0:
320,160,72878,1,0,0:0:0:0:
320,160,73100,1,8,0:0:0:0:
152,147,73322,1,0,0:0:0:0:
150,156,73544,1,12,0:0:0:0:
283,271,73878,1,8,0:0:0:0:
283,271,73989,1,0,0:0:0:0:
174,257,74322,1,0,0:0:0:0:
174,257,74433,1,8,0:0:0:0:
174,257,74655,1,0,0:0:0:0:
174,257,74878,1,8,0:0:0:0:
174,257,75100,1,0,0:0:0:0:
174,257,75322,1,8,0:0:0:0:
174,257,75544,1,8,0:0:0:0:
239,283,75767,1,0,0:0:0:0:
239,283,75878,1,8,0:0:0:0:
239,283,75989,1,0,0:0:0:0:
259,242,76211,1,8,0:0:0:0:
160,160,76285,1,0,0:0:0:0:
160,160,76359,1,0,0:0:0:0:
160,160,76433,1,8,0:0:0:0:
160,160,76655,1,8,0:0:0:0:
160,160,76730,1,8,0:0:0:0:
160,160,76804,1,0,0:0:0:0:
160,160,76878,1,0,0:0:0:0:
192,240,77100,1,12,0:0:0:0:
137,274,77433,1,0,0:0:0:0:
144,281,77544,1,8,0:0:0:0:
199,283,77878,1,8,0:0:0:0:
199,283,77989,1,8,0:0:0:0:
218,288,78211,1,0,0:0:0:0:
218,289,78433,1,8,0:0:0:0:
79,220,78655,1,0,0:0:0:0:
228,235,78878,1,8,0:0:0:0:
228,235,79100,1,8,0:0:0:0:
186,224,79322,1,0,0:0:0:0:
186,224,79433,1,0,0:0:0:0:
186,224,79544,1,8,0:0:0:0:
199,257,79655,1,8,0:0:0:0:
186,224,79767,1,0,0:0:0:0:
186,224,79989,1,8,0:0:0:0:
186,224,80211,1,8,0:0:0:0:
259,279,80322,1,0,0:0:0:0:
259,279,80433,1,0,0:0:0:0:
279,258,80655,1,8,0:0:0:0:
168,141,80989,1,8,0:0:0:0:
234,262,81100,1,8,0:0:0:0:
234,262,81433,1,0,0:0:0:0:
234,262,81544,1,8,0:0:0:0:
229,279,81767,1,8,0:0:0:0:
229,279,81989,1,0,0:0:0:0:
229,279,82211,1,8,0:0:0:0:
203,287,82433,1,4,0:0:0:0:
203,287,82655,1,0,0:0:0:0:
203,287,82878,1,8,0:0:0:0:
177,266,82989,1,0,0:0:0:0:
178,143,83100,1,8,0:0:0:0:
177,266,83211,1,8,0:0:0:0:
135,204,83322,1,0,0:0:0:0:
162,181,83433,1,0,0:0:0:0:
228,198,83544,1,8,0:0:0:0:
228,198,83655,1,0,0:0:0:0:
228,198,83767,1,8,0:0:0:0:
250,150,83878,1,0,0:0:0:0:
220,206,83989,1,0,0:0:0:0:
224,192,84211,5,12,0:0:0:0:
320,160,84544,1,8,0:0:0:0:
320,192,84655,1,0,0:0:0:0:
352,128,84989,1,0,0:0:0:0:
320,128,85100,1,8,0:0:0:0:
320,128,85322,1,0,0:0:0:0:
320,128,85544,1,8,0:0:0:0:
224,128,85767,1,0,0:0:0:0:
224,160,85878,1,0,0:0:0:0:
224,160,85989,1,8,0:0:0:0:
224,160,86211,1,0,0:0:0:0:
224,160,86433,1,8,0:0:0:0:
224,160,86544,1,8,0:0:0:0:
224,160,86655,1,0,0:0:0:0:
224,160,86767,1,0,0:0:0:0:
224,160,86878,1,8,0:0:0:0:
320,160,87100,1,0,0:0:0:0:
320,160,87322,1,8,0:0:0:0:
281,256,87433,1,0,0:0:0:0:
152,147,87544,1,0,0:0:0:0:
171,265,87655,1,0,0:0:0:0:
150,156,87767,1,8,0:0:0:0:
219,197,88100,1,8,0:0:0:0:
221,200,88211,1,0,0:0:0:0:
206,222,88544,1,0,0:0:0:0:
206,222,88655,1,0,0:0:0:0:
172,250,88878,1,0,0:0:0:0:
175,246,89100,1,8,0:0:0:0:
175,246,89322,1,0,0:0:0:0:
199,227,89544,1,8,0:0:0:0:
199,227,89767,1,8,0:0:0:0:
199,227,89989,1,8,0:0:0:0:
160,128,90100,1,0,0:0:0:0:
199,227,90211,1,8,0:0:0:0:
121,178,90433,1,0,0:0:0:0:
160,128,90507,1,0,0:0:0:0:
288,160,90581,1,8,0:0:0:0:
288,160,90655,1,8,0:0:0:0:
256,160,90878,1,8,0:0:0:0:
288,160,90952,1,0,0:0:0:0:
288,160,91026,1,0,0:0:0:0:
288,160,91100,1,0,0:0:0:0:
224,211,91322,1,12,0:0:0:0:
155,213,91655,1,8,0:0:0:0:
155,213,91767,1,0,0:0:0:0:
184,224,92100,1,8,0:0:0:0:
177,231,92211,1,8,0:0:0:0:
152,256,92433,1,0,0:0:0:0:
152,256,92655,1,8,0:0:0:0:
152,256,92878,1,0,0:0:0:0:
152,256,92989,1,0,0:0:0:0:
152,256,93100,1,8,0:0:0:0:
219,267,93322,1,8,0:0:0:0:
135,238,93544,1,0,0:0:0:0:
137,244,93655,1,0,0:0:0:0:
137,244,93767,1,0,0:0:0:0:
219,254,93878,1,0,0:0:0:0:
202,258,93989,1,8,0:0:0:0:
206,264,94211,1,0,0:0:0:0:
205,266,94433,1,8,0:0:0:0:
130,180,94655,1,0,0:0:0:0:
246,201,94878,1,8,0:0:0:0:
279,180,95211,1,8,0:0:0:0:
309,249,95322,1,0,0:0:0:0:
303,255,95655,1,8,0:0:0:0:
303,255,95767,1,0,0:0:0:0:
196,255,95989,1,8,0:0:0:0:
196,255,96211,1,0,0:0:0:0:
288,269,96433,1,8,0:0:0:0:
196,255,96655,1,12,0:0:0:0:
165,213,96878,1,0,0:0:0:0:
197,224,97100,1,8,0:0:0:0:
197,224,97211,1,8,0:0:0:0:
115,159,97322,1,0,0:0:0:0:
197,224,97544,1,4,0:0:0:0:
221,282,97767,1,8,0:0:0:0:
221,282,97841,1,0,0:0:0:0:
134,120,97915,1,0,0:0:0:0:
221,282,97989,1,8,0:0:0:0:
175,176,98211,1,0,0:0:0:0:
240,233,98433,1,8,0:0:0:0:
240,233,98544,1,0,0:0:0:0:
244,238,98655,1,8,0:0:0:0:
244,238,98767,1,0,0:0:0:0:
244,238,98878,1,8,0:0:0:0:
244,238,98989,1,8,0:0:0:0:
244,238,99100,1,0,0:0:0:0:
244,238,99211,1,0,0:0:0:0:
244,238,99322,1,8,0:0:0:0:
258,248,100211,1,4,0:0:0:0:
