osu file format v14

[General]
AudioFilename: audio.mp3
AudioLeadIn: 0
PreviewTime: 68433
Countdown: 0
SampleSet: Normal
StackLeniency: 0.7
Mode: 1
LetterboxInBreaks: 0
WidescreenStoryboard: 1

[Editor]
Bookmarks: 7767,23767,37989,52211,69989,84211
DistanceSpacing: 1
BeatDivisor: 4
GridSize: 32
TimelineZoom: 2

[Metadata]
Title:Kami no Manimina
TitleUnicode:Kami no Manimina
Artist:Ling Yuan yousa
ArtistUnicode:泠鸢yousa
Creator:Kisses
Version:Kantan
Source:
Tags:Chinese vers is better than JP vers 中文
BeatmapID:1405308
BeatmapSetID:660597

[Difficulty]
HPDrainRate:7
CircleSize:2
OverallDifficulty:3
ApproachRate:8
SliderMultiplier:1.4
SliderTickRate:1

[Events]
//Background and Video events
0,0,"840372.jpg",0,30
//Break Periods
//Storyboard Layer 0 (Background)
//Storyboard Layer 1 (Fail)
//Storyboard Layer 2 (Pass)
//Storyboard Layer 3 (Foreground)
//Storyboard Sound Samples

[TimingPoints]
656,444.444444444444,4,1,0,70,1,0
4655,-100,4,1,0,70,0,0
7767,-100,4,1,0,70,0,1
22878,-100,4,1,0,70,0,0
23767,-100,4,1,0,70,0,0
68655,-100,4,1,0,40,0,0
69989,-100,4,1,0,70,0,1
100211,-100,4,1,0,70,0,0

[HitObjects]
95,288,656,5,0,0:0:0:0:
187,301,1544,1,0,0:0:0:0:
43,190,2433,1,0,0:0:0:0:
183,291,2878,1,8,0:0:0:0:
152,166,3767,1,8,0:0:0:0:
132,267,4211,1,4,0:0:0:0:
190,298,4878,1,8,0:0:0:0:
235,246,5989,1,8,0:0:0:0:
143,225,7767,5,12,0:0:0:0:
209,288,8211,1,0,0:0:0:0:
209,288,8655,1,8,0:0:0:0:
230,289,9544,1,8,0:0:0:0:
230,289,9989,1,0,0:0:0:0:
230,289,10433,1,8,0:0:0:0:
200,146,11322,1,8,0:0:0:0:
259,226,11767,1,0,0:0:0:0:
259,226,12211,1,8,0:0:0:0:
233,239,12655,1,0,0:0:0:0:
233,239,13100,1,8,0:0:0:0:
233,239,13989,1,0,0:0:0:0:
274,257,14878,1,12,0:0:0:0:
330,260,15322,1,0,0:0:0:0:
330,260,15767,1,8,0:0:0:0:
330,260,16655,1,8,0:0:0:0:
330,260,17100,1,0,0:0:0:0:
330,260,17544,1,8,0:0:0:0:
330,260,18433,1,8,0:0:0:0:
330,260,18878,1,0,0:0:0:0:
330,260,19322,1,8,0:0:0:0:
255,233,19767,1,8,0:0:0:0:
255,233,20211,1,4,0:0:0:0:
266,188,21989,1,0,0:0:0:0:
219,219,22878,1,8,0:0:0:0:
221,246,23767,1,12,0:0:0:0:
271,224,24655,1,0,0:0:0:0:
266,238,25544,1,0,0:0:0:0:
350,243,25989,1,0,0:0:0:0:
350,243,26433,1,8,0:0:0:0:
279,254,27322,1,8,0:0:0:0:
279,254,28211,1,0,0:0:0:0:
266,258,29100,1,8,0:0:0:0:
266,258,29544,1,0,0:0:0:0:
266,258,29989,1,8,0:0:0:0:
266,258,30878,1,12,0:0:0:0:
261,293,31322,1,0,0:0:0:0:
261,293,31767,1,8,0:0:0:0:
252,289,32655,1,0,0:0:0:0:
252,289,33322,1,0,0:0:0:0:
163,264,34433,1,12,0:0:0:0:
163,264,35322,1,0,0:0:0:0:
219,154,36211,1,8,0:0:0:0:
219,154,36655,1,8,0:0:0:0:
219,154,37100,1,8,0:0:0:0:
274,228,37989,1,12,0:0:0:0:
282,254,38878,1,0,0:0:0:0:
216,231,39767,1,0,0:0:0:0:
223,228,40211,1,8,0:0:0:0:
223,228,40655,1,0,0:0:0:0:
208,229,41544,1,8,0:0:0:0:
208,229,42433,1,0,0:0:0:0:
255,230,43322,1,8,0:0:0:0:
251,238,43767,1,8,0:0:0:0:
251,238,44211,1,0,0:0:0:0:
161,240,45100,1,12,0:0:0:0:
269,266,45544,1,0,0:0:0:0:
269,266,45989,1,8,0:0:0:0:
71,244,46878,1,8,0:0:0:0:
125,249,48211,1,0,0:0:0:0:
276,291,48655,1,12,0:0:0:0:
193,190,49544,1,0,0:0:0:0:
193,190,50433,1,0,0:0:0:0:
189,197,50878,1,0,0:0:0:0:
189,197,51322,1,0,0:0:0:0:
288,291,52211,5,12,0:0:0:0:
224,224,53100,1,0,0:0:0:0:
256,256,53767,1,8,0:0:0:0:
256,256,54211,1,8,0:0:0:0:
256,256,54655,1,0,0:0:0:0:
190,230,55767,1,12,0:0:0:0:
325,175,57767,1,12,0:0:0:0:
288,165,59322,1,12,0:0:0:0:
263,242,59767,1,0,0:0:0:0:
263,242,60211,1,8,0:0:0:0:
245,241,61100,1,0,0:0:0:0:
245,241,61544,1,8,0:0:0:0:
245,241,61989,1,0,0:0:0:0:
200,289,62878,1,12,0:0:0:0:
259,293,63322,1,8,0:0:0:0:
259,293,63767,1,0,0:0:0:0:
298,297,64655,1,0,0:0:0:0:
298,297,65544,1,8,0:0:0:0:
197,280,66433,1,12,0:0:0:0:
223,195,67322,1,0,0:0:0:0:
223,195,67767,1,0,0:0:0:0:
223,195,68211,1,8,0:0:0:0:
287,200,69989,5,12,0:0:0:0:
287,200,70433,1,8,0:0:0:0:
287,200,70878,1,0,0:0:0:0:
330,195,71767,1,8,0:0:0:0:
330,195,72211,1,0,0:0:0:0:
330,195,72655,1,8,0:0:0:0:
259,184,73544,1,8,0:0:0:0:
259,184,73989,1,8,0:0:0:0:
229,186,74433,1,0,0:0:0:0:
217,173,74878,1,0,0:0:0:0:
229,186,75322,1,8,0:0:0:0:
185,164,76211,1,0,0:0:0:0:
248,177,77100,1,12,0:0:0:0:
231,179,77544,1,0,0:0:0:0:
231,179,77989,1,0,0:0:0:0:
231,179,78878,1,0,0:0:0:0:
231,179,79322,1,8,0:0:0:0:
231,179,79767,1,0,0:0:0:0:
209,130,80655,1,8,0:0:0:0:
209,130,81100,1,8,0:0:0:0:
209,130,81544,1,0,0:0:0:0:
209,130,81989,1,8,0:0:0:0:
203,135,82433,1,0,0:0:0:0:
203,135,82878,1,8,0:0:0:0:
215,124,84211,1,12,0:0:0:0:
190,220,84655,1,8,0:0:0:0:
190,220,85100,1,0,0:0:0:0:
190,220,85989,1,0,0:0:0:0:
190,220,86433,1,0,0:0:0:0:
190,220,86878,1,8,0:0:0:0:
190,184,87767,1,8,0:0:0:0:
190,184,88211,1,0,0:0:0:0:
190,220,88655,1,0,0:0:0:0:
190,220,89100,1,8,0:0:0:0:
190,220,89544,1,0,0:0:0:0:
190,220,90433,1,8,0:0:0:0:
176,226,91322,1,12,0:0:0:0:
312,243,91767,1,8,0:0:0:0:
255,249,92211,1,0,0:0:0:0:
177,209,93100,1,8,0:0:0:0:
177,209,93544,1,0,0:0:0:0:
177,209,93989,1,8,0:0:0:0:
161,214,94878,1,8,0:0:0:0:
161,214,95322,1,0,0:0:0:0:
161,214,95767,1,0,0:0:0:0:
161,214,96211,1,8,0:0:0:0:
316,215,96655,1,4,0:0:0:0:
229,197,97544,1,12,0:0:0:0:
178,200,98433,1,0,0:0:0:0:
178,200,99322,1,12,0:0:0:0:
178,200,100211,1,4,0:0:0:0:
