osu file format v14

[General]
AudioFilename: audio.mp3
AudioLeadIn: 0
PreviewTime: 68433
Countdown: 0
SampleSet: Normal
StackLeniency: 0.7
Mode: 1
LetterboxInBreaks: 0
WidescreenStoryboard: 1

[Editor]
Bookmarks: 7767,23767,37989,52211,69989,84211
DistanceSpacing: 1
BeatDivisor: 4
GridSize: 32
TimelineZoom: 2

[Metadata]
Title:Kami no Manimina
TitleUnicode:Kami no Manimina
Artist:Ling Yuan yousa
ArtistUnicode:泠鸢yousa
Creator:Kisses
Version:Futsuu
Source:
Tags:Chinese vers is better than JP vers 中文
BeatmapID:1404548
BeatmapSetID:660597

[Difficulty]
HPDrainRate:7
CircleSize:2
OverallDifficulty:4
ApproachRate:8
SliderMultiplier:1.4
SliderTickRate:1

[Events]
//Background and Video events
0,0,"840372.jpg",0,30
//Break Periods
//Storyboard Layer 0 (Background)
//Storyboard Layer 1 (Fail)
//Storyboard Layer 2 (Pass)
//Storyboard Layer 3 (Foreground)
//Storyboard Sound Samples

[TimingPoints]
656,444.444444444444,4,1,0,70,1,0
4655,-100,4,1,0,70,0,0
7767,-100,4,1,0,70,0,1
22878,-100,4,1,0,70,0,0
23767,-100,4,1,0,70,0,0
68655,-100,4,1,0,40,0,0
69989,-100,4,1,0,70,0,1
100211,-100,4,1,0,70,0,0

[HitObjects]
217,207,656,5,4,0:0:0:0:
217,158,1100,1,8,0:0:0:0:
264,313,1544,1,0,0:0:0:0:
264,313,1989,1,8,0:0:0:0:
257,315,2433,1,0,0:0:0:0:
257,315,2878,1,8,0:0:0:0:
257,315,3211,1,8,0:0:0:0:
257,315,3433,1,8,0:0:0:0:
144,269,3767,1,8,0:0:0:0:
144,269,4211,1,4,0:0:0:0:
201,180,4655,1,8,0:0:0:0:
201,180,4878,1,0,0:0:0:0:
201,180,5322,1,8,0:0:0:0:
201,180,5544,1,8,0:0:0:0:
201,180,5767,1,0,0:0:0:0:
201,180,5989,1,8,0:0:0:0:
253,189,7767,5,12,0:0:0:0:
192,126,8211,1,0,0:0:0:0:
241,271,8878,1,8,0:0:0:0:
241,271,9100,1,8,0:0:0:0:
225,260,9544,1,8,0:0:0:0:
225,260,9989,1,0,0:0:0:0:
208,191,10655,1,8,0:0:0:0:
208,191,10878,1,8,0:0:0:0:
240,174,11322,1,8,0:0:0:0:
199,216,11767,1,0,0:0:0:0:
199,216,12211,1,0,0:0:0:0:
166,171,12433,1,8,0:0:0:0:
199,216,12655,1,8,0:0:0:0:
195,265,13100,1,0,0:0:0:0:
195,265,13544,1,8,0:0:0:0:
195,265,13989,1,0,0:0:0:0:
224,224,14878,1,12,0:0:0:0:
224,224,15322,1,0,0:0:0:0:
224,224,15989,1,8,0:0:0:0:
320,128,16211,1,8,0:0:0:0:
195,213,16655,1,8,0:0:0:0:
195,213,17100,1,0,0:0:0:0:
195,213,17767,1,8,0:0:0:0:
195,213,17989,1,8,0:0:0:0:
123,212,18433,1,8,0:0:0:0:
123,212,18878,1,0,0:0:0:0:
123,212,19322,1,0,0:0:0:0:
123,212,19544,1,8,0:0:0:0:
123,212,19767,1,8,0:0:0:0:
174,198,20211,1,12,0:0:0:0:
97,143,21100,1,8,0:0:0:0:
97,143,21544,1,0,0:0:0:0:
152,140,21989,1,12,0:0:0:0:
208,159,22433,1,0,0:0:0:0:
208,159,22655,1,0,0:0:0:0:
332,227,22878,1,8,0:0:0:0:
224,128,23767,5,12,0:0:0:0:
288,256,24211,1,0,0:0:0:0:
160,288,24655,1,8,0:0:0:0:
160,288,24878,1,0,0:0:0:0:
160,288,25100,1,8,0:0:0:0:
160,288,25544,1,0,0:0:0:0:
160,288,25989,1,8,0:0:0:0:
160,288,26211,1,0,0:0:0:0:
173,222,26878,1,8,0:0:0:0:
192,224,27322,1,0,0:0:0:0:
160,256,27767,1,8,0:0:0:0:
66,290,28211,1,0,0:0:0:0:
66,290,28433,1,0,0:0:0:0:
66,290,28655,1,8,0:0:0:0:
66,290,29100,1,0,0:0:0:0:
308,277,29544,1,8,0:0:0:0:
308,277,29767,1,0,0:0:0:0:
304,277,30878,1,12,0:0:0:0:
167,208,31322,1,8,0:0:0:0:
167,208,31767,1,8,0:0:0:0:
167,208,31989,1,0,0:0:0:0:
167,208,32211,1,8,0:0:0:0:
167,208,32655,1,0,0:0:0:0:
167,208,33100,1,8,0:0:0:0:
167,208,33322,1,0,0:0:0:0:
257,209,33989,1,8,0:0:0:0:
167,208,34211,1,8,0:0:0:0:
201,157,34878,1,8,0:0:0:0:
201,157,35100,1,8,0:0:0:0:
81,181,35544,1,0,0:0:0:0:
81,181,35767,1,8,0:0:0:0:
142,235,36211,1,0,0:0:0:0:
134,240,36655,1,8,0:0:0:0:
134,240,37544,1,8,0:0:0:0:
288,206,37989,1,4,0:0:0:0:
217,212,38433,1,8,0:0:0:0:
188,233,38878,1,0,0:0:0:0:
180,237,39100,1,0,0:0:0:0:
180,237,39322,1,8,0:0:0:0:
175,240,39767,1,0,0:0:0:0:
180,237,40211,1,8,0:0:0:0:
175,240,40433,1,8,0:0:0:0:
172,246,41544,1,8,0:0:0:0:
59,220,41989,1,0,0:0:0:0:
79,229,42433,1,8,0:0:0:0:
79,230,42655,1,0,0:0:0:0:
79,231,42878,1,8,0:0:0:0:
190,236,43322,1,0,0:0:0:0:
190,236,43767,1,8,0:0:0:0:
190,236,43989,1,0,0:0:0:0:
190,236,44655,1,8,0:0:0:0:
269,187,45100,1,12,0:0:0:0:
269,187,45544,1,8,0:0:0:0:
235,179,45989,1,0,0:0:0:0:
235,179,46211,1,0,0:0:0:0:
235,179,46433,1,8,0:0:0:0:
235,179,46878,1,8,0:0:0:0:
235,179,47322,1,0,0:0:0:0:
235,179,47544,1,0,0:0:0:0:
235,179,48211,1,8,0:0:0:0:
235,179,48655,1,12,0:0:0:0:
264,208,49544,1,0,0:0:0:0:
264,208,49878,1,8,0:0:0:0:
264,208,50211,1,0,0:0:0:0:
264,208,50433,1,12,0:0:0:0:
264,208,51544,1,0,0:0:0:0:
264,208,51767,1,8,0:0:0:0:
294,217,52211,5,12,0:0:0:0:
225,183,53100,1,0,0:0:0:0:
288,160,53544,1,0,0:0:0:0:
231,270,53767,1,8,0:0:0:0:
231,270,54211,1,8,0:0:0:0:
231,270,54655,1,0,0:0:0:0:
203,218,55322,1,8,0:0:0:0:
231,270,55767,1,4,0:0:0:0:
231,270,56211,1,8,0:0:0:0:
231,270,57100,1,8,0:0:0:0:
231,270,57322,1,0,0:0:0:0:
372,289,57767,1,8,0:0:0:0:
372,289,57989,1,12,0:0:0:0:
248,193,59322,1,8,0:0:0:0:
201,270,59767,1,0,0:0:0:0:
201,270,60211,1,8,0:0:0:0:
188,228,60433,1,0,0:0:0:0:
201,270,60655,1,8,0:0:0:0:
188,228,61100,1,0,0:0:0:0:
165,199,61544,1,8,0:0:0:0:
165,199,61989,1,0,0:0:0:0:
165,199,62433,1,8,0:0:0:0:
165,199,62655,1,8,0:0:0:0:
186,160,63100,1,8,0:0:0:0:
186,160,63544,1,0,0:0:0:0:
186,160,64433,1,8,0:0:0:0:
186,160,64655,1,8,0:0:0:0:
186,160,64878,1,0,0:0:0:0:
186,160,65322,1,0,0:0:0:0:
14,177,65989,1,8,0:0:0:0:
112,198,66433,1,4,0:0:0:0:
145,198,67322,1,8,0:0:0:0:
145,198,67544,1,0,0:0:0:0:
180,200,67989,1,0,0:0:0:0:
180,200,68211,1,8,0:0:0:0:
165,178,69989,5,12,0:0:0:0:
288,224,70433,1,0,0:0:0:0:
390,213,71100,1,0,0:0:0:0:
390,213,71322,1,8,0:0:0:0:
232,248,71767,1,0,0:0:0:0:
232,256,72211,1,0,0:0:0:0:
226,216,72878,1,8,0:0:0:0:
226,216,73100,1,0,0:0:0:0:
226,216,73544,1,8,0:0:0:0:
226,216,73989,1,0,0:0:0:0:
226,216,74433,1,8,0:0:0:0:
226,216,74655,1,0,0:0:0:0:
226,216,74878,1,8,0:0:0:0:
226,216,75322,1,8,0:0:0:0:
226,216,75767,1,0,0:0:0:0:
226,216,76211,1,8,0:0:0:0:
225,267,77100,1,8,0:0:0:0:
225,267,77544,1,0,0:0:0:0:
225,267,78211,1,0,0:0:0:0:
225,267,78433,1,8,0:0:0:0:
219,288,78878,1,0,0:0:0:0:
216,295,79322,1,8,0:0:0:0:
217,273,79989,1,0,0:0:0:0:
217,273,80211,1,8,0:0:0:0:
90,252,80655,1,0,0:0:0:0:
90,252,81100,1,0,0:0:0:0:
246,251,81544,1,8,0:0:0:0:
246,251,81767,1,8,0:0:0:0:
246,251,81989,1,0,0:0:0:0:
169,182,82211,1,8,0:0:0:0:
169,182,82433,1,0,0:0:0:0:
148,197,82878,1,8,0:0:0:0:
137,209,84211,1,12,0:0:0:0:
261,273,84655,1,0,0:0:0:0:
236,280,85100,1,0,0:0:0:0:
175,255,85322,1,8,0:0:0:0:
175,255,85544,1,0,0:0:0:0:
126,262,85989,1,0,0:0:0:0:
126,262,86433,1,8,0:0:0:0:
141,244,86878,1,8,0:0:0:0:
141,244,87100,1,0,0:0:0:0:
141,246,87322,1,8,0:0:0:0:
160,160,87767,1,8,0:0:0:0:
192,224,88211,1,0,0:0:0:0:
180,319,88655,1,0,0:0:0:0:
205,326,88878,1,8,0:0:0:0:
206,324,89100,1,0,0:0:0:0:
259,312,89544,1,8,0:0:0:0:
259,312,89989,1,0,0:0:0:0:
259,312,90433,1,8,0:0:0:0:
288,191,91322,1,8,0:0:0:0:
238,249,91767,1,0,0:0:0:0:
245,245,92211,1,8,0:0:0:0:
331,269,92433,1,0,0:0:0:0:
331,269,92655,1,8,0:0:0:0:
244,251,93100,1,0,0:0:0:0:
233,262,93544,1,0,0:0:0:0:
242,259,93989,1,0,0:0:0:0:
241,260,94211,1,8,0:0:0:0:
241,260,94433,1,0,0:0:0:0:
254,212,94878,1,8,0:0:0:0:
78,214,95322,1,0,0:0:0:0:
320,162,95767,1,0,0:0:0:0:
312,173,95989,1,8,0:0:0:0:
175,209,96211,1,0,0:0:0:0:
336,188,96655,1,8,0:0:0:0:
336,188,97100,1,0,0:0:0:0:
237,192,97544,1,8,0:0:0:0:
178,191,97767,1,8,0:0:0:0:
237,192,97989,1,0,0:0:0:0:
103,209,98433,1,8,0:0:0:0:
180,207,99322,1,12,0:0:0:0:
166,249,100211,1,4,0:0:0:0:
