osu file format v14

[General]
AudioFilename: audio.mp3
AudioLeadIn: 0
PreviewTime: -1
Countdown: 1
SampleSet: Normal
StackLeniency: 0.3
Mode: 0
LetterboxInBreaks: 0
WidescreenStoryboard: 0

[Editor]
Bookmarks: 69970,100192,146414,206859
DistanceSpacing: 2.2
BeatDivisor: 4
GridSize: 32
TimelineZoom: 2.460002

[Metadata]
Title:Kami no Manimani
TitleUnicode:神のまにまに
Artist:Ling Yuan yousa
ArtistUnicode:泠鸢yousa
Creator:melloe
Version:dance! dance!
Source:
Tags:chinese cover 神的随波逐流
BeatmapID:1259653
BeatmapSetID:595651

[Difficulty]
HPDrainRate:4
CircleSize:4.7
OverallDifficulty:8
ApproachRate:9.4
SliderMultiplier:1.4
SliderTickRate:1

[Events]
//Background and Video events
0,0,"watching the rain.png",0,0
//Break Periods
//Storyboard Layer 0 (Background)
//Storyboard Layer 1 (Fail)
//Storyboard Layer 2 (Pass)
//Storyboard Layer 3 (Foreground)
//Storyboard Sound Samples

[TimingPoints]
637,222.222222222222,4,1,0,40,1,0
6414,-142.857142857143,4,1,0,40,0,0
7748,-83.3333333333333,4,1,0,40,0,0
13303,-133.333333333333,4,1,0,40,0,0
14859,-83.3333333333333,4,1,0,40,0,0
21303,-100,4,1,0,40,0,0
22636,-76.9230769230769,4,1,0,40,0,0
23748,-133.333333333333,4,1,0,30,0,0
36192,-133.333333333333,4,1,0,35,0,0
45525,-111.111111111111,4,1,0,40,0,0
46192,-133.333333333333,4,1,0,40,0,0
46414,-111.111111111111,4,1,0,40,0,0
46636,-133.333333333333,4,1,0,40,0,0
68636,-133.333333333333,4,1,0,5,0,0
69970,-133.333333333333,4,1,0,50,0,1
70859,-50,4,1,0,50,0,1
71525,-83.3333333333333,4,1,0,50,0,1
72636,-50,4,1,0,50,0,1
73303,-83.3333333333333,4,1,0,50,0,1
75303,-55.5555555555556,4,1,0,50,0,1
75525,-66.6666666666667,4,1,0,50,0,1
75748,-83.3333333333333,4,1,0,50,0,1
76192,-55.5555555555556,4,1,0,50,0,1
76414,-66.6666666666667,4,1,0,50,0,1
76636,-83.3333333333333,4,1,0,50,0,1
79748,-50,4,1,0,50,0,1
80414,-83.3333333333333,4,1,0,50,0,1
82414,-58.8235294117647,4,1,0,50,0,1
83525,-50,4,1,0,50,0,1
87525,-83.3333333333333,4,1,0,50,0,1
89525,-55.5555555555556,4,1,0,50,0,1
89747,-66.6666666666667,4,1,0,50,0,1
89969,-83.3333333333333,4,1,0,50,0,1
90413,-55.5555555555556,4,1,0,50,0,1
90636,-66.6666666666667,4,1,0,50,0,1
90858,-83.3333333333333,4,1,0,50,0,1
92191,-50,4,1,0,50,0,1
92858,-83.3333333333333,4,1,0,50,0,1
93969,-50,4,1,0,50,0,1
96636,-58.8235294117647,4,1,0,50,0,1
97748,-66.6666666666667,4,1,0,50,0,1
100192,-133.333333333333,4,1,0,30,0,0
112636,-133.333333333333,4,1,0,35,0,0
114414,-133.333333333333,4,1,0,40,0,0
121525,-133.333333333333,4,1,0,40,0,0
121970,-111.111111111111,4,1,0,40,0,0
123303,-133.333333333333,4,1,0,40,0,0
145081,-133.333333333333,4,1,0,5,0,0
146414,-50,4,1,0,50,0,1
147970,-83.3333333333333,4,1,0,50,0,1
151748,-55.5555555555556,4,1,0,50,0,1
151970,-66.6666666666667,4,1,0,50,0,1
152192,-83.3333333333333,4,1,0,50,0,1
152636,-55.5555555555556,4,1,0,50,0,1
152859,-66.6666666666667,4,1,0,50,0,1
153081,-83.3333333333333,4,1,0,50,0,1
154414,-50,4,1,0,50,0,1
156859,-83.3333333333333,4,1,0,50,0,1
158859,-58.8235294117647,4,1,0,50,0,1
159748,-50,4,1,0,50,0,1
162192,-83.3333333333333,4,1,0,50,0,1
163303,-50,4,1,0,50,0,1
165970,-55.5555555555556,4,1,0,50,0,1
166192,-66.6666666666667,4,1,0,50,0,1
166414,-83.3333333333333,4,1,0,50,0,1
166859,-55.5555555555556,4,1,0,50,0,1
167081,-66.6666666666667,4,1,0,50,0,1
167303,-83.3333333333333,4,1,0,50,0,1
168636,-50,4,1,0,50,0,1
169303,-83.3333333333333,4,1,0,50,0,1
170414,-50,4,1,0,50,0,1
172192,-83.3333333333333,4,1,0,50,0,1
172414,-50,4,1,0,50,0,1
172859,-83.3333333333333,4,1,0,50,0,1
173081,-58.8235294117647,4,1,0,50,0,1
174803,-58.8235294117647,4,1,0,40,0,1
174859,-76.9230769230769,4,1,0,40,0,0
199748,-133.333333333333,4,1,0,20,0,0
200525,-133.333333333333,4,1,0,40,0,0
201525,-133.333333333333,4,1,0,20,0,0
202303,-133.333333333333,4,1,0,40,0,0
203525,-100,4,1,0,20,0,0
204192,-133.333333333333,4,1,0,40,0,0
204414,-100,4,1,0,40,0,0
204636,-80,4,1,0,40,0,0
204859,-66.6666666666667,4,1,0,40,0,0
206859,-50,4,1,0,50,0,1
212192,-55.5555555555556,4,1,0,50,0,1
212414,-66.6666666666667,4,1,0,50,0,1
212636,-83.3333333333333,4,1,0,50,0,1
213081,-55.5555555555556,4,1,0,50,0,1
213303,-66.6666666666667,4,1,0,50,0,1
213525,-83.3333333333333,4,1,0,50,0,1
214859,-50,4,1,0,50,0,1
220414,-100,4,1,0,50,0,1
220636,-66.6666666666667,4,1,0,50,0,1
220859,-50,4,1,0,50,0,1
221081,444.444444444444,4,1,0,50,1,1
221081,-25,4,1,0,50,0,1
226636,-33.3333333333333,4,1,0,50,0,1
228192,-25,4,1,0,50,0,1
234636,-50,4,1,0,50,0,0
234859,-33.3333333333333,4,1,0,40,0,0
235081,-25,4,1,0,40,0,0
235303,-25,4,1,0,50,0,1
249414,-66.6666666666667,4,1,0,50,0,0

[HitObjects]
140,117,637,5,4,0:3:0:0:
140,117,748,1,0,0:0:0:0:
256,83,1081,1,6,0:3:0:0:
393,93,1414,5,0,0:0:0:0:
393,93,1470,1,0,0:0:0:0:
393,93,1525,1,4,0:3:0:0:
353,145,1636,1,0,0:0:0:0:
372,290,1970,1,6,0:3:0:0:
443,268,2303,5,0,0:0:0:0:
443,268,2359,1,0,0:0:0:0:
443,268,2414,1,4,0:3:0:0:
385,221,2525,1,0,0:0:0:0:
246,247,2859,1,6,0:3:0:0:
192,190,3192,5,2,0:3:0:0:
234,253,3303,1,4,0:3:0:0:
226,122,3414,1,2,0:3:0:0:
109,64,3748,1,6,0:3:0:0:
192,190,4081,5,0,0:0:0:0:
192,190,4136,1,0,0:0:0:0:
192,190,4192,1,4,2:3:0:0:
106,318,4636,1,6,0:3:0:0:
63,252,4859,5,2,0:3:0:0:
141,248,4970,1,2,0:3:0:0:
216,313,5081,5,4,0:3:0:0:
294,309,5192,1,2,0:3:0:0:
362,271,5303,1,2,0:3:0:0:
362,271,5414,1,2,0:3:0:0:
299,217,5525,5,6,0:3:0:0:
221,213,5636,1,2,0:3:0:0:
156,169,5747,1,4,0:3:0:0:
221,213,5859,1,4,0:3:0:0:
299,217,5970,1,2,0:3:0:0:
389,52,6415,6,0,P|407:87|405:149,2,97.9999970092774
403,280,7081,1,0,0:0:0:0:
389,52,7303,1,0,0:0:0:0:
106,68,7749,6,0,L|114:155,1,83.9999974365235
230,79,7970,1,0,0:0:0:0:
230,79,8081,1,0,0:0:0:0:
208,176,8192,1,0,0:0:0:0:
146,225,8414,5,0,0:0:0:0:
146,225,8525,1,0,0:0:0:0:
267,231,8636,1,0,0:0:0:0:
227,330,8859,5,2,0:2:0:0:
459,313,9081,1,2,0:2:0:0:
390,220,9303,5,0,0:0:0:0:
390,220,9414,1,0,0:0:0:0:
409,79,9525,2,0,P|361:85|331:125,1,83.9999974365235
398,148,9748,5,0,0:0:0:0:
398,148,9859,1,0,0:0:0:0:
277,72,9970,1,0,0:0:0:0:
168,31,10192,5,0,0:0:0:0:
168,31,10303,1,0,0:0:0:0:
134,151,10414,1,0,0:0:0:0:
263,153,10636,5,2,0:2:0:0:
216,348,10859,1,2,0:2:0:0:
166,272,11081,5,0,0:0:0:0:
166,272,11192,1,0,0:0:0:0:
311,282,11303,2,0,P|347:259|361:197,1,83.9999974365235
294,212,11525,1,0,0:0:0:0:
294,212,11636,1,0,0:0:0:0:
424,148,11747,2,0,P|443:110|424:49,1,83.9999974365235
374,98,11970,5,0,0:0:0:0:
374,98,12081,1,0,0:0:0:0:
225,87,12192,2,0,P|189:110|175:172,1,83.9999974365235
246,158,12414,1,2,0:2:0:0:
246,158,12525,1,0,0:0:0:0:
112,221,12636,2,0,P|92:258|111:319,1,83.9999974365235,2|0,0:2|0:0,0:0:0:0:
165,275,12859,5,0,0:0:0:0:
165,275,12970,1,0,0:0:0:0:
333,125,13081,5,0,0:0:0:0:
307,204,13303,2,0,L|283:190,2,26.2500010013581,2|0|0,0:2|0:0|0:0,0:0:0:0:
245,259,13525,1,0,0:0:0:0:
164,274,13748,1,0,0:0:0:0:
399,116,13970,5,0,0:0:0:0:
361,234,14192,1,2,0:2:0:0:
361,234,14248,1,0,0:0:0:0:
361,234,14303,1,0,0:0:0:0:
267,317,14414,1,0,0:0:0:0:
145,340,14637,1,0,0:0:0:0:
102,211,14859,6,0,P|103:166|134:114,1,83.9999974365235
214,55,15081,1,0,0:0:0:0:
214,55,15192,1,0,0:0:0:0:
234,167,15303,1,0,0:0:0:0:
340,224,15525,5,0,0:0:0:0:
340,224,15636,1,0,0:0:0:0:
360,112,15747,1,0,0:0:0:0:
442,26,15970,5,2,0:2:0:0:
492,224,16192,1,2,0:2:0:0:
408,351,16414,5,0,0:0:0:0:
408,351,16525,1,0,0:0:0:0:
281,325,16636,2,0,P|236:283|242:237,1,83.9999974365235
155,264,16859,5,0,0:0:0:0:
155,264,16970,1,0,0:0:0:0:
28,290,17081,2,0,P|40:329|75:351,1,83.9999974365235
177,360,17303,5,0,0:0:0:0:
177,360,17414,1,0,0:0:0:0:
289,304,17525,1,0,0:0:0:0:
155,264,17748,5,2,0:2:0:0:
330,153,17970,1,2,0:2:0:0:
500,275,18192,5,0,0:0:0:0:
500,275,18303,1,0,0:0:0:0:
380,227,18414,2,0,P|327:216|282:255,1,83.9999974365235
346,289,18636,1,0,0:0:0:0:
346,289,18747,1,0,0:0:0:0:
216,293,18858,2,0,P|163:304|137:358,1,83.9999974365235
84,313,19081,5,0,0:0:0:0:
84,313,19192,1,0,0:0:0:0:
204,361,19303,2,0,P|257:372|302:333,1,83.9999974365235
238,299,19525,1,2,0:2:0:0:
238,299,19636,1,0,0:0:0:0:
368,295,19747,2,0,P|420:283|446:229,1,83.9999974365235,2|0,0:2|0:0,0:0:0:0:
380,220,19970,1,0,0:0:0:0:
380,220,20081,1,0,0:0:0:0:
453,56,20192,5,0,0:0:0:0:
296,167,20414,2,0,P|260:200|257:263,1,83.9999974365235
222,73,20636,1,0,0:0:0:0:
47,137,20859,5,0,0:0:0:0:
183,135,21081,1,0,0:0:0:0:
183,135,21155,1,0,0:0:0:0:
183,135,21229,1,0,0:0:0:0:
192,170,21303,2,0,P|229:202|269:209,1,70
393,240,21525,5,0,0:0:0:0:
307,258,21636,1,0,0:0:0:0:
222,277,21748,1,0,0:0:0:0:
136,296,21858,1,0,0:0:0:0:
51,314,21969,1,6,0:2:0:0:
182,358,22192,5,0,0:0:0:0:
269,194,22414,1,0,0:0:0:0:
269,194,22525,1,0,0:0:0:0:
443,292,22636,2,0,P|466:252|452:189,1,90.9999958343508
363,311,22859,1,0,0:0:0:0:
391,233,23081,5,0,0:0:0:0:
390,150,23303,1,0,0:0:0:0:
360,72,23525,1,0,0:0:0:0:
297,360,23748,6,0,P|249:351|197:303,1,105.000004005432
159,245,24192,2,0,P|146:197|166:130,1,105.000004005432
319,54,24636,6,0,P|286:72|249:75,1,52.5000020027161
195,78,24859,2,0,P|157:73|125:55,1,52.5000020027161
24,25,25081,2,0,P|60:34|89:57,1,52.5000020027161
127,102,25304,2,0,P|151:130|162:166,1,52.5000020027161
275,207,25525,1,0,0:0:0:0:
161,276,25748,5,0,0:0:0:0:
157,143,25971,1,0,0:0:0:0:
271,74,26193,1,0,0:0:0:0:
271,74,26636,5,0,0:0:0:0:
374,235,26859,1,0,0:0:0:0:
320,166,27081,5,0,0:0:0:0:
320,166,27192,1,0,0:0:0:0:
235,170,27303,2,0,P|237:136|278:69,1,105.000004005432
176,25,27748,5,0,0:0:0:0:
235,170,28081,1,0,0:0:0:0:
235,170,28192,1,0,0:0:0:0:
167,227,28414,1,0,0:0:0:0:
31,210,28636,1,0,0:0:0:0:
24,298,28858,1,0,0:0:0:0:
191,364,29081,6,0,P|230:342|245:319,1,52.5000020027161
317,341,29303,2,0,P|332:299|329:271,1,52.5000020027161
404,245,29525,2,0,P|396:200|380:178,1,52.5000020027161
448,131,29748,2,0,P|455:86|471:64,1,52.5000020027161
458,80,30192,6,0,P|448:104|447:130,1,52.5000020027161
404,245,30414,2,0,P|407:270|419:293,1,52.5000020027161
231,270,30636,2,0,P|247:290|269:304,1,52.5000020027161
99,216,30859,2,0,P|159:232|264:197,1,157.500006008148
381,152,31303,2,0,P|321:168|216:133,1,157.500006008148
134,71,31748,6,0,P|137:96|149:119,1,52.5000020027161
124,194,31970,2,0,P|101:180|85:159,1,52.5000020027161
286,58,32192,2,0,P|242:72|214:71,1,52.5000020027161
134,71,32414,2,0,P|89:58|65:42,1,52.5000020027161
321,137,32636,6,0,P|363:158|378:178,1,52.5000020027161
461,163,32859,2,0,P|479:206|478:231,1,52.5000020027161
299,215,33081,2,0,P|257:236|242:256,1,52.5000020027161
159,241,33304,2,0,P|140:284|141:309,1,52.5000020027161
331,334,33748,5,0,0:0:0:0:
350,211,33970,1,0,0:0:0:0:
369,88,34192,1,0,0:0:0:0:
338,348,34636,5,0,0:0:0:0:
359,212,34858,1,0,0:0:0:0:
380,77,35080,1,0,0:0:0:0:
346,362,35525,5,0,0:0:0:0:
368,214,35747,1,0,0:0:0:0:
391,67,35969,1,0,0:0:0:0:
265,153,36192,5,0,0:0:0:0:
260,161,36303,1,0,0:0:0:0:
269,161,36414,1,0,0:0:0:0:
157,93,36636,1,0,0:0:0:0:
167,167,36748,1,0,0:0:0:0:
23,95,36970,6,0,P|57:123|66:197,1,105.000004005432
40,250,37303,1,0,0:0:0:0:
157,93,37525,5,0,0:0:0:0:
232,74,37636,1,0,0:0:0:0:
306,98,37747,1,0,0:0:0:0:
357,157,37858,1,0,0:0:0:0:
231,254,37970,6,0,P|281:233|340:239,1,105.000004005432,6|0,0:2|0:0,0:0:0:0:
450,193,38414,2,0,P|415:234|404:293,1,105.000004005432
506,234,38859,6,0,P|485:255|472:294,1,52.5000020027161
404,283,39081,2,0,P|405:312|425:348,1,52.5000020027161,0|0,0:3|0:3,0:3:0:0:
295,249,39303,2,0,P|306:276|337:303,1,52.5000020027161,0|0,0:3|0:3,0:3:0:0:
179,252,39525,2,0,P|199:273|237:288,1,52.5000020027161,0|0,0:3|0:3,0:3:0:0:
69,298,39748,6,0,P|98:301|137:287,1,52.5000020027161,0|0,0:3|0:3,0:3:0:0:
219,284,39970,2,0,P|243:267|264:232,1,52.5000020027161,0|0,0:3|0:3,0:3:0:0:
331,199,40192,2,0,P|339:170|332:130,1,52.5000020027161,0|0,0:3|0:3,0:3:0:0:
384,66,40414,2,0,P|371:38|340:12,1,52.5000020027161,0|0,0:3|0:3,0:3:0:0:
186,39,40636,5,0,0:0:0:0:
186,39,40859,1,0,0:0:0:0:
356,22,41081,2,0,P|373:41|384:66,1,52.5000020027161,0|0,0:3|0:3,0:3:0:0:
284,186,41303,1,0,0:0:0:0:
284,186,41414,1,0,0:0:0:0:
366,148,41525,2,0,P|397:150|453:205,1,105.000004005432
382,324,41970,2,0,P|351:322|295:267,1,105.000004005432
284,186,42303,1,0,0:0:0:0:
284,186,42414,5,0,0:0:0:0:
274,275,42636,1,0,0:0:0:0:
146,330,42859,1,0,0:0:0:0:
136,241,43081,1,0,0:0:0:0:
14,241,43303,6,0,P|43:265|81:274,1,52.5000020027161
172,341,43525,2,0,P|207:327|234:299,1,52.5000020027161
363,311,43748,2,0,P|369:273|358:236,1,52.5000020027161
509,119,43970,2,0,P|481:120|446:151,1,52.5000020027161
509,119,44414,6,0,P|481:118|446:87,1,52.5000020027161
363,137,44636,2,0,P|339:122|324:77,1,52.5000020027161
227,79,44859,2,0,P|214:54|223:7,1,52.5000020027161
393,74,45081,6,0,P|393:130|362:191,1,105.000004005432
406,66,45525,2,0,P|406:128|378:189,1,125.999996154785
380,185,45859,1,0,0:0:0:0:
380,185,45970,6,0,P|416:190|447:209,1,62.9999980773926
493,309,46192,2,0,P|460:310|423:327,1,52.5000020027161
300,339,46414,2,0,P|264:334|233:315,1,62.9999980773926
147,203,46636,2,0,P|180:202|217:185,1,52.5000020027161
305,55,46859,6,0,P|302:92|307:120,1,52.5000020027161
282,209,47081,2,0,P|297:242|316:264,1,52.5000020027161
428,307,47303,2,0,P|431:270|426:242,1,52.5000020027161
451,153,47525,2,0,P|435:119|416:97,1,52.5000020027161
301,59,47970,5,0,0:0:0:0:
379,85,48192,1,0,0:0:0:0:
459,66,48414,1,0,0:0:0:0:
432,195,48636,2,0,B|406:167|369:176|341:199|352:220|372:303|284:313,1,210.000008010865
277,241,49303,1,0,0:0:0:0:
506,193,49525,5,0,0:0:0:0:
264,225,49859,1,0,0:0:0:0:
22,257,50192,1,0,0:0:0:0:
134,335,50414,5,0,0:0:0:0:
134,335,50525,1,0,0:0:0:0:
163,249,50636,1,0,0:0:0:0:
224,306,50859,5,0,0:0:0:0:
290,269,50970,1,0,0:0:0:0:
367,256,51081,1,0,0:0:0:0:
367,256,51192,1,0,0:0:0:0:
310,194,51303,1,8,0:3:0:0:
310,194,51414,2,0,L|278:189,1,26.2500010013581
223,232,51525,5,0,0:0:0:0:
145,211,51636,1,0,0:0:0:0:
68,238,51748,1,0,0:0:0:0:
97,202,51859,1,0,0:0:0:0:
83,161,51970,1,0,0:0:0:0:
73,40,52192,5,6,0:2:0:0:
73,40,52636,1,0,0:0:0:0:
73,40,52970,1,0,0:0:0:0:
73,40,53081,1,0,0:0:0:0:
154,19,53303,1,0,0:0:0:0:
278,48,53525,1,0,0:0:0:0:
375,164,53748,1,0,0:0:0:0:
295,153,53970,5,0,0:0:0:0:
295,153,54414,1,0,0:0:0:0:
295,153,54859,1,0,0:0:0:0:
352,352,55081,1,0,0:0:0:0:
392,271,55303,1,0,0:0:0:0:
295,153,55525,1,0,0:0:0:0:
255,234,55747,5,0,0:0:0:0:
255,234,56192,1,0,0:0:0:0:
255,234,56636,1,0,0:0:0:0:
118,168,56859,1,0,0:0:0:0:
175,226,57081,1,0,0:0:0:0:
111,86,57303,1,0,0:0:0:0:
182,123,57525,5,0,0:0:0:0:
236,14,57748,1,0,0:0:0:0:
249,16,57970,5,6,0:2:0:0:
325,38,58081,1,0,0:0:0:0:
268,90,58192,5,0,0:0:0:0:
282,163,58303,1,0,0:0:0:0:
338,116,58414,1,0,0:0:0:0:
167,148,58636,5,0,0:0:0:0:
338,116,58859,1,0,0:0:0:0:
167,148,59081,1,0,0:0:0:0:
338,116,59304,1,4,0:2:0:0:
476,135,59525,5,0,0:0:0:0:
465,142,59636,1,0,0:0:0:0:
442,208,59748,1,0,0:0:0:0:
384,154,59970,5,0,0:0:0:0:
373,161,60081,1,0,0:0:0:0:
350,227,60193,1,0,0:0:0:0:
292,173,60414,5,0,0:0:0:0:
281,180,60525,1,0,0:0:0:0:
258,246,60637,1,0,0:0:0:0:
200,192,60858,5,0,0:0:0:0:
189,199,60969,1,0,0:0:0:0:
166,265,61081,2,0,P|126:263|96:277,1,52.5000020027161
145,337,61303,1,0,0:0:0:0:
334,232,61525,6,0,P|374:230|404:244,1,52.5000020027161
355,304,61747,1,0,0:0:0:0:
172,160,61970,6,0,P|132:158|102:172,1,52.5000020027161
151,232,62192,1,0,0:0:0:0:
340,127,62414,6,0,P|380:125|410:139,1,52.5000020027161
361,199,62636,1,0,0:0:0:0:
327,127,62748,1,0,0:0:0:0:
365,52,62859,5,4,0:2:0:0:
87,74,63303,1,0,0:0:0:0:
365,52,63748,1,0,0:0:0:0:
226,63,63970,1,0,0:0:0:0:
87,74,64192,5,0,0:0:0:0:
46,57,64303,1,0,0:0:0:0:
123,44,64414,5,0,0:0:0:0:
97,118,64525,1,0,0:0:0:0:
121,197,64636,2,0,P|174:166|224:165,1,105.000004005432
326,206,65081,1,0,0:0:0:0:
430,170,65303,2,0,P|415:87|521:98,1,210.000008010865
439,182,65970,1,0,0:0:0:0:
322,219,66192,1,0,0:0:0:0:
118,317,66414,5,0,0:0:0:0:
333,241,66636,1,2,0:2:0:0:
333,241,66859,1,2,0:2:0:0:
231,351,67081,5,0,0:0:0:0:
231,351,67192,1,0,0:0:0:0:
197,292,67303,1,0,0:0:0:0:
149,248,67414,1,0,0:0:0:0:
90,219,67525,1,0,0:0:0:0:
90,219,67636,1,0,0:0:0:0:
89,285,67748,5,8,0:3:0:0:
149,248,67859,1,8,0:3:0:0:
110,144,67970,1,8,0:3:0:0:
14,202,68081,1,8,0:3:0:0:
223,159,68192,1,4,0:3:0:0:
334,248,68636,5,0,2:0:0:0:
334,248,69081,5,0,2:0:0:0:
334,248,69525,5,0,2:0:0:0:
65,326,69970,5,0,0:0:0:0:
79,256,70081,1,0,0:0:0:0:
70,188,70192,1,0,0:0:0:0:
70,188,70303,1,0,0:0:0:0:
149,201,70414,5,0,0:0:0:0:
128,125,70525,1,0,0:0:0:0:
138,51,70636,1,0,0:0:0:0:
138,51,70747,1,0,0:0:0:0:
250,66,70859,6,0,P|323:107|380:86,1,140
372,92,71081,2,0,P|310:149|250:143,1,140
259,147,71303,2,0,P|332:188|389:167,1,140
450,59,71525,2,0,L|460:156,1,83.9999974365235
394,251,71748,5,0,0:0:0:0:
311,253,71859,1,0,0:0:0:0:
238,291,71970,1,0,0:0:0:0:
238,291,72081,1,0,0:0:0:0:
241,209,72192,5,0,0:0:0:0:
157,206,72303,1,0,0:0:0:0:
85,168,72414,1,0,0:0:0:0:
85,168,72525,1,0,0:0:0:0:
126,8,72636,6,0,P|167:81|146:138,1,140
151,130,72859,2,0,P|185:53|244:37,1,140
235,37,73080,2,0,P|276:110|255:167,1,140
171,238,73303,2,0,P|207:216|267:221,1,83.9999974365235
389,238,73525,5,0,0:0:0:0:
311,258,73636,1,0,0:0:0:0:
248,214,73748,1,0,0:0:0:0:
248,214,73859,1,0,0:0:0:0:
278,328,73970,5,0,0:0:0:0:
311,258,74081,1,0,0:0:0:0:
325,185,74192,1,0,0:0:0:0:
325,185,74303,1,0,0:0:0:0:
379,118,74414,5,0,0:0:0:0:
334,125,74525,1,0,0:0:0:0:
289,120,74636,1,0,0:0:0:0:
247,105,74747,1,0,0:0:0:0:
180,29,74859,5,0,0:0:0:0:
163,111,74970,1,0,0:0:0:0:
147,193,75081,1,0,0:0:0:0:
130,276,75192,1,0,0:0:0:0:
42,346,75303,6,0,P|116:306|166:331,1,125.999996154785
172,179,75525,2,0,P|228:219|238:288,1,105.000004005432
357,224,75748,2,0,P|361:270|350:317,1,83.9999974365235
467,343,75970,1,0,0:0:0:0:
25,319,76192,6,0,P|103:288|150:319,1,125.999996154785
163,182,76415,1,0,0:0:0:0:
175,169,76470,2,0,P|225:216|227:285,1,105.000004005432
351,242,76636,2,0,P|346:288|328:332,1,83.9999974365235
438,378,76858,1,0,0:0:0:0:
286,155,77081,5,0,0:0:0:0:
343,117,77192,1,0,0:0:0:0:
370,54,77303,1,0,0:0:0:0:
370,54,77414,1,0,0:0:0:0:
438,74,77525,5,0,0:0:0:0:
409,162,77636,1,0,0:0:0:0:
336,215,77748,1,0,0:0:0:0:
336,215,77859,1,0,0:0:0:0:
251,251,77970,5,0,0:0:0:0:
237,221,78081,1,0,0:0:0:0:
223,346,78192,5,0,0:0:0:0:
192,323,78303,1,0,0:0:0:0:
296,333,78414,5,0,0:0:0:0:
335,273,78525,1,0,0:0:0:0:
397,240,78637,1,0,0:0:0:0:
468,239,78748,1,0,0:0:0:0:
434,298,78859,5,0,0:0:0:0:
410,229,78970,1,0,0:0:0:0:
412,160,79081,1,0,0:0:0:0:
412,160,79192,1,0,0:0:0:0:
327,38,79303,5,0,0:0:0:0:
344,112,79414,1,0,0:0:0:0:
343,191,79525,1,0,0:0:0:0:
343,191,79636,1,0,0:0:0:0:
233,160,79748,6,0,P|179:114|87:129,1,140
112,114,79970,2,0,P|178:90|211:3,1,140
211,32,80192,2,0,L|164:207,1,140
92,195,80414,2,0,P|128:232|130:279,1,83.9999974365235
218,238,80636,5,0,0:0:0:0:
280,191,80748,1,0,0:0:0:0:
342,144,80859,1,0,0:0:0:0:
342,144,80970,1,0,0:0:0:0:
484,131,81081,5,0,0:0:0:0:
422,178,81193,1,0,0:0:0:0:
360,225,81304,1,0,0:0:0:0:
360,225,81415,1,0,0:0:0:0:
282,295,81525,5,0,0:0:0:0:
298,334,81636,1,0,0:0:0:0:
163,304,81748,5,0,0:0:0:0:
176,263,81859,1,0,0:0:0:0:
311,176,81970,5,0,0:0:0:0:
291,134,82081,1,0,0:0:0:0:
198,36,82192,5,0,0:0:0:0:
112,24,82303,1,0,0:0:0:0:
26,44,82414,2,0,P|85:81|107:157,1,119.000002269745,2|0,0:2|0:0,0:0:0:0:
54,275,82636,5,2,0:2:0:0:
54,275,82748,1,2,0:2:0:0:
54,275,82859,2,0,P|91:216|167:194,1,119.000002269745,2|0,0:2|0:0,0:0:0:0:
306,224,83081,5,2,0:2:0:0:
230,226,83192,1,2,0:2:0:0:
327,112,83303,2,0,L|353:250,1,119.000002269745,2|0,0:2|0:0,0:0:0:0:
278,324,83525,6,0,P|254:253|259:170,1,140,2|0,0:3|0:0,0:0:0:0:
177,244,83747,2,0,P|204:174|261:113,1,140,2|0,0:3|0:0,0:0:0:0:
146,120,83969,2,0,P|211:84|294:74,1,140,2|0,0:3|0:0,0:0:0:0:
487,128,84191,5,0,0:0:0:0:
410,142,84302,1,0,0:0:0:0:
336,119,84413,1,0,0:0:0:0:
336,119,84525,1,0,0:0:0:0:
353,201,84636,5,0,0:0:0:0:
276,187,84747,1,0,0:0:0:0:
202,210,84858,1,0,0:0:0:0:
202,210,84970,1,0,0:0:0:0:
417,276,85080,6,0,B|376:302|328:298|328:298|305:276|266:265,1,140
288,273,85302,2,0,B|314:232|310:184|310:184|288:161|277:122,1,140
285,144,85525,2,0,B|244:170|196:166|196:166|173:144|134:133,1,140
67,78,85747,1,0,0:0:0:0:
69,158,85858,1,0,0:0:0:0:
129,215,85969,5,0,0:0:0:0:
172,275,86081,1,0,0:0:0:0:
152,348,86192,1,0,0:0:0:0:
152,348,86302,1,0,0:0:0:0:
225,329,86413,5,0,0:0:0:0:
281,278,86525,1,0,0:0:0:0:
357,294,86636,1,0,0:0:0:0:
357,294,86747,1,0,0:0:0:0:
278,193,86858,6,0,B|271:138|307:96|307:96|348:80,1,140
340,83,87080,2,0,B|295:116|241:106|241:106|207:78,1,140
213,84,87302,2,0,B|168:50|114:60|114:60|80:88,1,140
118,226,87525,2,0,P|147:196|157:156,1,83.9999974365235
78,158,87747,5,0,0:0:0:0:
103,234,87858,1,0,0:0:0:0:
157,294,87969,1,0,0:0:0:0:
157,294,88080,1,0,0:0:0:0:
208,204,88191,5,0,0:0:0:0:
283,180,88302,1,0,0:0:0:0:
359,201,88413,1,0,0:0:0:0:
359,201,88525,1,0,0:0:0:0:
259,290,88636,5,0,0:0:0:0:
314,286,88747,1,0,0:0:0:0:
370,282,88858,1,0,0:0:0:0:
426,278,88969,1,0,0:0:0:0:
360,348,89080,5,0,0:0:0:0:
395,272,89191,1,0,0:0:0:0:
398,189,89302,1,0,0:0:0:0:
370,110,89413,1,0,0:0:0:0:
118,39,89525,6,0,P|191:85|191:148,1,125.999996154785
358,157,89747,2,0,P|283:198|251:187,1,105.000004005432
167,301,89969,2,0,P|170:215|189:196,1,83.9999974365235
305,311,90191,1,0,0:0:0:0:
93,66,90414,6,0,P|173:97|184:159,1,125.999996154785
322,139,90637,1,0,0:0:0:0:
351,140,90692,2,0,P|283:193|250:188,1,105.000004005432
188,315,90859,2,0,P|175:230|190:208,1,83.9999974365235
325,301,91079,1,0,0:0:0:0:
105,296,91302,5,0,0:0:0:0:
73,229,91413,1,0,0:0:0:0:
87,157,91524,1,0,0:0:0:0:
87,157,91636,1,0,0:0:0:0:
149,80,91747,5,0,0:0:0:0:
234,58,91858,1,0,0:0:0:0:
314,101,91969,1,0,0:0:0:0:
314,101,92080,1,0,0:0:0:0:
257,290,92191,6,0,P|227:198|281:125,1,140
242,161,92413,2,0,P|333:190|406:136,1,140
370,175,92636,2,0,P|399:83|345:10,1,140
218,140,92858,2,0,P|164:149|122:128,1,83.9999974365235
43,23,93080,5,0,0:0:0:0:
63,100,93191,1,0,0:0:0:0:
59,179,93302,1,0,0:0:0:0:
59,179,93413,1,0,0:0:0:0:
143,162,93524,5,0,0:0:0:0:
123,239,93635,1,0,0:0:0:0:
127,318,93748,1,0,0:0:0:0:
127,318,93859,1,0,0:0:0:0:
208,268,93969,6,0,L|35:268,1,140
68,268,94191,2,0,P|177:275|214:311,1,140
197,291,94413,2,0,P|258:322|326:314,1,140
289,237,94636,5,0,0:0:0:0:
282,195,94747,1,0,0:0:0:0:
338,111,94858,5,0,0:0:0:0:
292,177,94969,1,0,0:0:0:0:
210,187,95080,1,0,0:0:0:0:
210,187,95191,1,0,0:0:0:0:
162,120,95302,5,0,0:0:0:0:
237,117,95413,1,0,0:0:0:0:
292,69,95524,1,0,0:0:0:0:
292,69,95635,1,0,0:0:0:0:
184,100,95747,5,0,0:0:0:0:
192,119,95858,1,0,0:0:0:0:
132,208,95969,1,0,0:0:0:0:
151,225,96080,1,0,0:0:0:0:
149,336,96191,1,0,0:0:0:0:
173,338,96302,1,0,0:0:0:0:
302,311,96413,5,0,0:0:0:0:
328,233,96524,1,0,0:0:0:0:
296,151,96636,2,0,P|364:202|435:190,1,119.000002269745,2|0,0:2|0:3,0:3:0:0:
321,74,96859,1,2,0:2:0:0:
321,74,96970,1,2,0:2:0:0:
321,74,97081,2,0,P|252:125|181:113,1,119.000002269745,2|0,0:2|0:3,0:3:0:0:
111,45,97303,5,2,0:3:0:0:
183,28,97414,1,2,0:3:0:0:
133,167,97525,2,0,P|201:218|272:206,1,119.000002269745,2|0,0:3|0:3,0:3:0:0:
377,219,97748,6,0,L|270:282,1,105.000004005432,2|0,0:3|0:0,0:0:0:0:
228,339,97970,1,2,0:3:0:0:
212,334,98081,1,0,0:0:0:0:
163,279,98192,1,2,0:3:0:0:
148,280,98303,1,0,0:0:0:0:
65,231,98414,5,0,0:0:0:0:
85,243,98488,1,0,0:0:0:0:
107,252,98562,1,0,0:0:0:0:
130,258,98636,1,0,0:0:0:0:
154,260,98710,1,0,0:0:0:0:
178,259,98784,1,0,0:0:0:0:
201,254,98858,1,0,0:0:0:0:
223,245,98932,1,0,0:0:0:0:
244,234,99006,1,0,0:0:0:0:
263,219,99080,1,0,0:0:0:0:
279,202,99154,1,0,0:0:0:0:
293,182,99228,1,0,0:0:0:0:
318,105,99303,5,0,0:0:0:0:
63,133,100192,6,0,P|111:142|163:190,1,105.000004005432
201,248,100636,2,0,P|214:296|194:363,1,105.000004005432
70,256,101081,6,0,P|100:261|136:257,1,52.5000020027161
201,248,101303,2,0,P|229:237|258:215,1,52.5000020027161
308,176,101525,2,0,P|327:152|341:119,1,52.5000020027161
449,124,101748,2,0,P|475:109|510:100,1,52.5000020027161
337,132,101970,6,0,P|352:105|378:80,1,52.5000020027161
247,225,102192,2,0,P|247:194|257:159,1,52.5000020027161
163,154,102414,2,0,P|152:125|130:96,1,52.5000020027161
63,45,102636,2,0,P|39:25|6:11,1,52.5000020027161
21,16,103081,5,0,0:0:0:0:
44,208,103303,1,0,0:0:0:0:
152,146,103525,1,0,0:0:0:0:
152,146,103636,1,0,0:0:0:0:
223,208,103748,2,0,P|267:215|330:197,1,105.000004005432
275,80,104192,1,0,0:0:0:0:
324,199,104525,5,0,0:0:0:0:
324,199,104636,1,0,0:0:0:0:
388,248,104859,1,0,0:0:0:0:
447,56,105081,5,0,0:0:0:0:
431,152,105303,1,0,0:0:0:0:
324,199,105525,6,0,P|304:222|290:255,1,52.5000020027161
214,301,105748,2,0,P|209:331|213:367,1,52.5000020027161
105,233,105970,2,0,P|119:259|128:294,1,52.5000020027161
31,116,106192,2,0,P|57:131|82:157,1,52.5000020027161
31,116,106636,6,0,P|41:140|42:166,1,52.5000020027161
85,281,106858,2,0,P|82:306|70:329,1,52.5000020027161
258,306,107080,2,0,P|242:326|220:340,1,52.5000020027161
390,252,107303,2,0,P|330:268|225:233,1,157.500006008148
108,188,107747,2,0,P|168:204|273:169,1,157.500006008148
304,39,108192,6,0,L|310:98,1,52.5000020027161
327,218,108414,2,0,L|333:159,1,52.5000020027161
428,78,108636,2,0,L|434:137,1,52.5000020027161
451,257,108858,2,0,L|457:198,1,52.5000020027161
356,97,109081,6,0,P|307:98|287:110,1,52.5000020027161
238,170,109303,2,0,P|276:139|299:135,1,52.5000020027161
231,220,109525,2,0,P|223:268|231:290,1,52.5000020027161
279,354,109747,2,0,P|255:311|255:287,1,52.5000020027161
402,66,110192,5,0,0:0:0:0:
279,90,110414,1,0,0:0:0:0:
157,114,110636,1,0,0:0:0:0:
412,54,111080,5,0,0:0:0:0:
277,81,111302,1,0,0:0:0:0:
143,107,111524,1,0,0:0:0:0:
423,42,111969,5,0,0:0:0:0:
276,72,112191,1,0,0:0:0:0:
130,100,112413,1,0,0:0:0:0:
65,242,112636,5,0,0:0:0:0:
227,181,112859,1,0,0:0:0:0:
391,309,113081,1,0,0:0:0:0:
391,309,113192,2,0,P|378:246|379:237,1,52.5000020027161
418,119,113414,2,0,P|356:126|297:101,1,122.500004673004
428,141,113748,1,0,0:0:0:0:
438,163,113970,5,0,0:0:0:0:
364,189,114080,1,0,0:0:0:0:
308,244,114192,1,0,0:0:0:0:
280,317,114303,1,0,0:0:0:0:
419,285,114414,6,0,P|358:281|305:254,1,105.000004005432,4|0,0:2|0:0,0:0:0:0:
417,268,114859,2,0,P|356:272|303:299,1,105.000004005432
419,285,115303,6,0,P|376:285|349:278,1,52.5000020027161
283,250,115525,2,0,P|245:228|225:208,1,52.5000020027161
179,153,115748,2,0,P|157:115|150:88,1,52.5000020027161
69,230,115970,2,0,P|94:195|105:169,1,52.5000020027161
48,350,116192,6,0,P|87:333|109:316,1,52.5000020027161
196,328,116414,2,0,P|221:293|232:267,1,52.5000020027161
313,234,116636,2,0,P|318:191|314:163,1,52.5000020027161
367,94,116859,2,0,P|350:54|333:32,1,52.5000020027161
98,81,117081,5,0,0:0:0:0:
181,95,117303,2,0,P|154:93|129:88,1,52.5000020027161
225,95,117525,2,0,P|251:92|276:86,1,52.5000020027161
367,94,117748,2,0,P|340:96|315:102,1,52.5000020027161
226,159,117970,6,0,P|194:206|193:270,1,105.000004005432
318,307,118414,2,0,P|350:260|351:196,1,105.000004005432
274,233,118748,1,0,0:0:0:0:
274,233,118859,1,0,0:0:0:0:
305,130,119081,1,0,0:0:0:0:
138,166,119303,1,0,0:0:0:0:
107,269,119525,1,0,0:0:0:0:
213,337,119748,6,0,P|239:329|266:300,1,52.5000020027161
368,298,119970,2,0,P|378:272|373:233,1,52.5000020027161
470,165,120192,2,0,P|457:141|437:125,1,52.5000020027161
325,15,120414,2,0,P|350:10|376:15,1,52.5000020027161
376,15,120859,6,0,P|351:23|331:39,1,52.5000020027161
258,102,121081,2,0,P|282:93|302:77,1,52.5000020027161
216,108,121303,2,0,P|191:116|171:132,1,52.5000020027161
115,181,121525,6,0,P|93:207|80:279,1,105.000004005432
108,167,121970,2,0,P|85:192|67:297,1,125.999996154785
268,220,122303,5,0,0:0:0:0:
268,220,122414,2,0,P|246:255|213:272,1,62.9999980773926
122,295,122636,2,0,P|80:289|51:267,1,62.9999980773926
71,99,122858,2,0,P|93:134|126:151,1,62.9999980773926
206,182,123081,2,0,P|194:153|195:121,1,62.9999980773926
334,125,123303,6,0,P|319:146|313:171,1,52.5000020027161
206,182,123525,2,0,P|204:207|211:233,1,52.5000020027161
358,250,123748,2,0,P|373:271|379:296,1,52.5000020027161
485,307,123970,2,0,P|487:332|480:358,1,52.5000020027161
442,232,124414,5,0,0:0:0:0:
401,129,124636,1,0,0:0:0:0:
258,168,124859,1,0,0:0:0:0:
220,63,125081,2,0,B|200:39|214:17|249:23|288:41|260:97|177:88|182:171,1,210.000008010865
258,168,125748,1,0,0:0:0:0:
392,86,125970,5,0,0:0:0:0:
392,86,126081,1,0,0:0:0:0:
264,179,126192,1,0,0:0:0:0:
137,272,126414,1,0,0:0:0:0:
49,221,126636,2,0,P|44:176|53:152,1,52.5000020027161
127,64,126859,5,0,0:0:0:0:
127,64,126970,1,0,0:0:0:0:
158,186,127081,1,0,0:0:0:0:
222,268,127303,5,0,0:0:0:0:
222,268,127414,1,0,0:0:0:0:
253,146,127525,2,0,P|252:100|242:72,1,52.5000020027161
211,247,127748,5,4,0:3:0:0:
211,247,127859,1,0,0:0:0:0:
290,268,127970,1,0,0:0:0:0:
370,268,128081,1,0,0:0:0:0:
335,190,128192,5,0,0:0:0:0:
348,106,128303,1,0,0:0:0:0:
403,46,128414,1,0,0:0:0:0:
370,268,128636,5,6,0:2:0:0:
370,268,129414,1,0,0:0:0:0:
370,268,129525,1,0,0:0:0:0:
273,283,129748,1,0,0:0:0:0:
160,237,129970,1,0,0:0:0:0:
92,93,130192,1,0,0:0:0:0:
174,125,130414,5,0,0:0:0:0:
242,59,131525,5,0,0:0:0:0:
185,134,131748,1,0,0:0:0:0:
145,285,131970,5,0,0:0:0:0:
363,285,132192,1,0,0:0:0:0:
145,285,133303,5,0,0:0:0:0:
363,285,133525,1,0,0:0:0:0:
288,202,133748,1,0,0:0:0:0:
288,202,134192,1,0,0:0:0:0:
250,146,134414,5,0,0:0:0:0:
316,142,134525,1,0,0:0:0:0:
288,202,134636,1,0,0:0:0:0:
260,262,134748,1,0,0:0:0:0:
326,258,134859,1,0,0:0:0:0:
142,214,135081,5,0,0:0:0:0:
437,193,135303,1,0,0:0:0:0:
142,214,135525,1,0,0:0:0:0:
290,130,135748,1,0,0:0:0:0:
149,41,135970,5,0,0:0:0:0:
157,50,136081,1,0,0:0:0:0:
164,120,136193,1,0,0:0:0:0:
233,81,136415,5,0,0:0:0:0:
242,91,136526,1,0,0:0:0:0:
249,160,136638,1,0,0:0:0:0:
318,122,136859,5,0,0:0:0:0:
327,131,136970,1,0,0:0:0:0:
333,201,137082,1,0,0:0:0:0:
403,163,137303,5,0,0:0:0:0:
411,172,137414,1,0,0:0:0:0:
431,240,137526,2,0,P|471:239|500:254,1,52.5000020027161
449,312,137748,1,0,0:0:0:0:
264,200,137970,6,0,P|224:196|193:209,1,52.5000020027161
240,272,138192,1,0,0:0:0:0:
427,134,138415,6,0,P|467:133|496:148,1,52.5000020027161
446,207,138637,1,0,0:0:0:0:
261,96,138859,6,0,P|221:92|190:105,1,52.5000020027161
238,166,139081,1,0,0:0:0:0:
274,96,139193,1,0,0:0:0:0:
238,26,139303,5,6,0:2:0:0:
460,116,139748,1,0,0:0:0:0:
238,26,140192,1,0,0:0:0:0:
349,76,140414,1,0,0:0:0:0:
460,116,140636,5,0,0:0:0:0:
431,131,140748,1,0,0:0:0:0:
402,199,140859,1,0,0:0:0:0:
477,191,140970,1,0,0:0:0:0:
438,171,141081,1,0,0:0:0:0:
287,193,141303,6,0,P|252:165|227:103,1,105.000004005432
218,181,141748,1,0,0:0:0:0:
218,181,142192,1,0,0:0:0:0:
428,171,142414,5,0,0:0:0:0:
428,171,142636,1,0,0:0:0:0:
371,254,142859,5,0,0:0:0:0:
311,38,143081,1,2,0:2:0:0:
311,38,143303,1,2,0:2:0:0:
184,49,143525,5,0,0:0:0:0:
168,95,143636,1,0,0:0:0:0:
132,128,143748,1,0,0:0:0:0:
132,128,143859,1,0,0:0:0:0:
55,155,143970,5,0,0:0:0:0:
126,148,144081,1,0,0:0:0:0:
197,162,144192,1,8,0:3:0:0:
149,215,144303,5,8,0:3:0:0:
168,95,144414,1,8,0:3:0:0:
268,166,144525,1,8,0:3:0:0:
55,155,144636,1,4,0:3:0:0:
339,61,145081,5,0,2:0:0:0:
339,61,145525,1,0,2:0:0:0:
339,61,145970,1,0,2:0:0:0:
262,142,146414,5,0,0:0:0:0:
311,198,146525,1,0,0:0:0:0:
384,191,146637,1,0,0:0:0:0:
384,191,146748,1,0,0:0:0:0:
481,71,146859,5,0,0:0:0:0:
494,149,146970,1,0,0:0:0:0:
466,223,147081,1,0,0:0:0:0:
466,223,147192,1,0,0:0:0:0:
389,298,147303,6,0,P|337:276|243:303,1,140
257,292,147525,2,0,P|308:269|354:183,1,140
352,201,147748,2,0,P|347:144|281:73,1,140
137,86,147970,2,0,P|190:66|208:38,1,83.9999974365235
137,12,148192,5,0,0:0:0:0:
137,86,148303,1,0,0:0:0:0:
181,152,148414,1,0,0:0:0:0:
181,152,148525,1,0,0:0:0:0:
98,151,148636,5,0,0:0:0:0:
104,226,148747,1,0,0:0:0:0:
81,301,148858,1,0,0:0:0:0:
81,301,148969,1,0,0:0:0:0:
219,298,149081,5,0,0:0:0:0:
237,280,149192,1,0,0:0:0:0:
254,164,149303,1,0,0:0:0:0:
272,146,149414,1,0,0:0:0:0:
382,67,149525,5,0,0:0:0:0:
359,131,149636,1,0,0:0:0:0:
363,200,149748,1,0,0:0:0:0:
393,261,149859,1,0,0:0:0:0:
494,193,149970,5,0,0:0:0:0:
428,162,150081,1,0,0:0:0:0:
363,200,150192,1,0,0:0:0:0:
363,200,150303,1,0,0:0:0:0:
363,125,150414,5,0,0:0:0:0:
290,132,150525,1,0,0:0:0:0:
224,172,150636,1,0,0:0:0:0:
224,172,150747,1,0,0:0:0:0:
68,86,150858,5,0,0:0:0:0:
123,81,150969,1,0,0:0:0:0:
179,77,151080,1,0,0:0:0:0:
235,72,151191,1,0,0:0:0:0:
259,36,151303,5,0,0:0:0:0:
161,30,151414,1,0,0:0:0:0:
79,80,151525,1,0,0:0:0:0:
38,168,151636,1,0,0:0:0:0:
47,330,151748,6,0,P|108:308|165:231,1,125.999996154785
267,321,151970,2,0,P|279:266|265:203,1,105.000004005432
382,164,152192,2,0,P|347:125|280:105,1,83.9999974365235
359,14,152414,1,0,0:0:0:0:
72,364,152636,6,0,P|129:332|171:245,1,125.999996154785
266,309,152859,1,0,0:0:0:0:
287,317,152914,2,0,P|289:261|264:201,1,105.000004005432
373,143,153081,2,0,P|331:110|262:102,1,83.9999974365235
324,0,153303,1,0,0:0:0:0:
90,19,153525,5,0,0:0:0:0:
160,27,153636,1,0,0:0:0:0:
230,38,153748,1,0,0:0:0:0:
230,38,153859,1,0,0:0:0:0:
361,98,153970,5,0,0:0:0:0:
291,106,154081,1,0,0:0:0:0:
221,117,154193,1,0,0:0:0:0:
221,117,154304,1,0,0:0:0:0:
53,96,154414,6,0,P|125:133|155:233,1,140
152,182,154636,2,0,P|198:249|301:267,1,140
250,270,154859,2,0,P|322:307|352:407,1,140
372,238,155081,5,0,0:0:0:0:
401,172,155192,1,0,0:0:0:0:
469,114,155303,5,0,0:0:0:0:
405,157,155414,1,0,0:0:0:0:
328,152,155525,1,0,0:0:0:0:
328,152,155636,1,0,0:0:0:0:
266,90,155748,5,0,0:0:0:0:
187,76,155859,1,0,0:0:0:0:
117,109,155970,1,0,0:0:0:0:
117,109,156081,1,0,0:0:0:0:
257,181,156192,6,0,P|258:285|232:332,1,140
243,315,156414,2,0,P|154:260|100:258,1,140
120,256,156636,2,0,P|188:241|243:199,1,140
438,102,156859,2,0,L|475:190,1,83.9999974365235
358,218,157081,5,0,0:0:0:0:
367,291,157192,1,0,0:0:0:0:
340,357,157303,1,0,0:0:0:0:
345,359,157414,1,0,0:0:0:0:
444,225,157525,5,0,0:0:0:0:
419,300,157636,1,0,0:0:0:0:
362,353,157747,1,0,0:0:0:0:
366,357,157858,1,0,0:0:0:0:
345,275,157970,5,0,0:0:0:0:
298,246,158081,1,0,0:0:0:0:
245,260,158192,1,0,0:0:0:0:
218,307,158303,1,0,0:0:0:0:
292,325,158414,5,0,0:0:0:0:
266,230,158525,1,0,0:0:0:0:
192,168,158636,1,0,0:0:0:0:
95,150,158748,1,0,0:0:0:0:
1,180,158859,2,0,P|55:239|113:247,1,119.000002269745,2|0,0:2|0:0,0:0:0:0:
268,134,159081,5,2,0:2:0:0:
268,134,159192,1,2,0:2:0:0:
223,60,159303,2,0,P|187:125|221:210,1,119.000002269745,2|0,0:2|0:0,0:0:0:0:
327,96,159525,5,2,0:2:0:0:
333,166,159636,1,2,0:2:0:0:
217,48,159748,2,0,P|176:106|203:214,1,140,2|0,0:2|0:0,0:0:0:0:
352,301,159970,6,0,P|382:221|452:171,1,140,2|0,0:3|0:0,0:0:0:0:
231,286,160192,2,0,P|296:231|382:223,1,140,2|0,0:3|0:0,0:0:0:0:
130,212,160414,2,0,P|214:197|292:233,1,140,2|0,0:3|0:0,0:0:0:0:
432,331,160636,5,0,0:0:0:0:
350,300,160748,1,0,0:0:0:0:
301,234,160859,1,0,0:0:0:0:
301,234,160970,1,0,0:0:0:0:
353,79,161081,5,0,0:0:0:0:
309,152,161193,1,0,0:0:0:0:
234,192,161304,1,0,0:0:0:0:
234,192,161415,1,0,0:0:0:0:
182,95,161525,6,0,B|159:105|141:121|141:121|91:128|42:92,1,140
54,100,161748,2,0,B|26:136|33:186|33:186|49:204|59:227,1,140
58,226,161970,2,0,B|82:265|71:314|71:314|53:330|42:353,1,140,0|0,0:0|0:0,3:0:0:0:
152,236,162192,2,0,P|195:207|231:202,1,83.9999974365235
242,304,162414,5,0,0:0:0:0:
190,361,162525,1,0,0:0:0:0:
119,379,162636,1,0,0:0:0:0:
119,379,162748,1,0,0:0:0:0:
114,277,162859,5,0,0:0:0:0:
144,207,162970,1,0,0:0:0:0:
144,132,163081,1,0,0:0:0:0:
144,132,163192,1,0,0:0:0:0:
20,185,163303,6,0,B|56:200|56:200|107:220|114:279,1,140
113,276,163525,2,0,B|144:298|144:298|188:331|242:305,1,140
240,306,163748,2,0,B|267:256|238:210|238:210|217:176,1,140
306,66,163970,5,0,0:0:0:0:
270,128,164081,1,0,0:0:0:0:
307,189,164192,5,0,0:0:0:0:
303,264,164303,1,0,0:0:0:0:
240,306,164414,1,0,0:0:0:0:
240,306,164525,1,0,0:0:0:0:
159,310,164636,5,0,0:0:0:0:
96,263,164748,1,0,0:0:0:0:
81,190,164859,1,0,0:0:0:0:
81,190,164970,1,0,0:0:0:0:
57,119,165081,5,0,0:0:0:0:
122,132,165192,1,0,0:0:0:0:
183,80,165303,5,0,0:0:0:0:
262,89,165414,1,0,0:0:0:0:
353,85,165525,5,0,0:0:0:0:
274,76,165636,1,0,0:0:0:0:
213,151,165748,5,0,0:0:0:0:
122,132,165859,1,0,0:0:0:0:
25,204,165970,6,0,P|106:219|164:289,1,125.999996154785
202,51,166192,2,0,P|222:116|207:161,1,105.000004005432
405,168,166414,2,0,P|345:185|288:173,1,83.9999974365235
475,254,166636,1,0,0:0:0:0:
26,163,166859,6,0,P|103:192|148:271,1,125.999996154785
211,59,167081,1,0,0:0:0:0:
227,43,167136,2,0,P|235:111|213:152,1,105.000004005432
406,194,167303,2,0,P|344:200|290:178,1,83.9999974365235
460,291,167525,1,0,0:0:0:0:
315,183,167748,5,0,0:0:0:0:
243,164,167859,1,0,0:0:0:0:
171,145,167970,1,0,0:0:0:0:
171,145,168081,1,0,0:0:0:0:
47,264,168192,5,0,0:0:0:0:
119,245,168303,1,0,0:0:0:0:
191,226,168414,1,0,0:0:0:0:
191,226,168525,1,0,0:0:0:0:
323,216,168636,6,0,P|382:285|386:343,1,140
387,330,168859,2,0,P|347:247|358:190,1,140
354,202,169081,2,0,B|359:174|388:147|388:147|384:105|332:60,1,140
221,154,169303,2,0,P|275:149|317:115,1,83.9999974365235
358,1,169525,5,0,0:0:0:0:
346,74,169636,1,0,0:0:0:0:
293,124,169748,1,0,0:0:0:0:
293,124,169859,1,0,0:0:0:0:
212,65,169970,5,0,0:0:0:0:
133,61,170081,1,0,0:0:0:0:
170,134,170192,1,0,0:0:0:0:
170,134,170303,1,0,0:0:0:0:
173,19,170414,6,0,P|180:99|209:174,1,140
199,155,170636,2,0,P|265:133|335:128,1,140
335,128,170859,2,0,P|342:208|371:283,1,140
393,344,171081,5,0,0:0:0:0:
355,277,171192,1,0,0:0:0:0:
385,204,171303,5,0,0:0:0:0:
328,151,171414,1,0,0:0:0:0:
251,140,171525,1,0,0:0:0:0:
251,140,171636,1,0,0:0:0:0:
164,106,171748,5,0,0:0:0:0:
177,188,171859,1,0,0:0:0:0:
190,270,171970,1,0,0:0:0:0:
190,270,172081,1,0,0:0:0:0:
31,235,172192,6,0,P|84:239|120:222,1,83.9999974365235
111,227,172414,2,0,B|147:210|173:210|173:210|224:231|278:222,1,140
245,224,172636,2,0,B|268:230|319:209|319:209|345:209|381:227,1,140
381,227,172859,2,0,P|420:240|461:235,1,83.9999974365235
421,163,173081,6,0,P|428:240|454:314,1,119.000002269745,2|0,0:2|0:0,0:0:0:0:
227,340,173303,1,2,0:3:0:0:
227,340,173414,1,0,0:2:0:0:
227,340,173525,2,0,P|230:280|245:223,1,119.000002269745,2|0,0:3|0:0,0:0:0:0:
421,163,173748,1,2,0:3:0:0:
421,163,173859,1,0,0:0:0:0:
421,163,173970,2,0,P|363:177|304:181,1,119.000002269745
162,163,174192,5,0,0:0:0:0:
171,157,174303,1,0,0:0:0:0:
94,116,174414,1,0,0:0:0:0:
116,107,174525,1,0,0:0:0:0:
40,48,174636,1,0,0:0:0:0:
83,42,174748,1,0,0:0:0:0:
206,49,174859,6,0,B|286:103|389:166|480:118,1,272.999987503052
457,128,175303,2,0,B|375:118|292:161|250:216|290:251|316:249|329:243|339:211|335:190,1,272.999987503052
335,205,175748,6,0,P|393:212|426:234,1,90.9999958343508
419,228,175970,2,0,P|360:235|327:257,1,90.9999958343508
279,287,176192,2,0,P|337:294|370:316,1,90.9999958343508
363,310,176414,2,0,P|304:317|271:339,1,90.9999958343508
85,272,176636,5,0,0:0:0:0:
238,80,176859,2,0,P|246:146|196:255,1,181.999991668702
354,35,177303,1,0,0:0:0:0:
201,249,177525,6,0,P|156:222|127:173,1,90.9999958343508
105,205,177748,2,0,P|87:155|97:99,1,90.9999958343508
285,0,177970,2,0,P|284:52|256:102,1,90.9999958343508
294,105,178193,2,0,P|259:144|206:164,1,90.9999958343508
187,30,178414,5,0,0:0:0:0:
308,192,178636,2,0,P|256:182|212:145,1,90.9999958343508
294,105,178859,1,0,0:0:0:0:
317,305,179081,2,0,P|276:270|257:216,1,90.9999958343508
366,50,179303,5,0,0:0:0:0:
420,91,179525,2,0,P|359:99|307:125,1,90.9999958343508
127,178,179748,1,0,0:0:0:0:
73,219,179970,2,0,P|134:227|186:253,1,90.9999958343508
329,334,180192,5,0,0:0:0:0:
393,190,180414,1,0,0:0:0:0:
348,344,180636,5,0,0:0:0:0:
343,139,180859,1,0,0:0:0:0:
367,354,181081,5,0,0:0:0:0:
252,86,181303,1,0,0:0:0:0:
386,364,181525,5,0,0:0:0:0:
114,39,181748,1,0,0:0:0:0:
86,293,181970,5,0,0:0:0:0:
57,165,182192,1,0,0:0:0:0:
219,73,182414,5,0,0:0:0:0:
190,201,182636,1,0,0:0:0:0:
363,294,182859,5,0,0:0:0:0:
334,166,183081,1,0,0:0:0:0:
496,74,183303,5,0,0:0:0:0:
467,202,183525,1,0,0:0:0:0:
312,47,183748,5,0,0:0:0:0:
127,102,183970,1,0,0:0:0:0:
0,236,184192,6,0,P|58:248|113:221,1,90.9999958343508
185,291,184414,1,0,0:0:0:0:
443,160,184636,5,0,0:0:0:0:
258,215,184858,1,0,0:0:0:0:
113,10,185081,5,0,0:0:0:0:
298,65,185303,1,0,0:0:0:0:
480,61,185525,5,0,0:0:0:0:
422,286,185748,1,0,0:0:0:0:
439,0,185970,5,0,0:0:0:0:
463,348,186192,1,0,0:0:0:0:
480,61,186413,5,0,0:0:0:0:
422,286,186636,1,0,0:0:0:0:
439,0,186858,5,0,0:0:0:0:
463,348,187080,1,0,0:0:0:0:
64,192,187303,5,0,0:0:0:0:
179,156,187525,1,0,0:0:0:0:
82,192,187747,5,0,0:0:0:0:
275,226,187970,1,0,0:0:0:0:
100,192,188192,5,0,0:0:0:0:
371,156,188414,1,0,0:0:0:0:
118,192,188636,5,0,0:0:0:0:
467,226,188859,1,0,0:0:0:0:
192,192,189081,5,0,0:0:0:0:
220,150,189192,1,0,0:0:0:0:
220,101,189303,1,0,0:0:0:0:
220,101,189414,1,0,0:0:0:0:
323,131,189525,5,0,0:0:0:0:
323,131,189636,1,0,0:0:0:0:
267,185,189748,1,0,0:0:0:0:
192,192,189859,1,0,0:0:0:0:
103,166,189970,5,0,0:0:0:0:
116,208,190081,1,0,0:0:0:0:
191,211,190192,1,8,0:3:0:0:
210,281,190303,1,8,0:3:0:0:
128,304,190414,5,8,0:3:0:0:
207,304,190525,1,8,0:3:0:0:
273,350,190636,1,8,0:3:0:0:
352,350,190748,1,4,0:3:0:0:
408,234,190859,5,4,0:3:0:0:
124,147,192636,5,0,0:0:0:0:
324,113,193081,1,0,0:0:0:0:
124,147,193414,1,0,0:0:0:0:
124,147,193525,1,0,0:0:0:0:
224,130,193748,1,0,0:0:0:0:
324,113,193970,1,0,0:0:0:0:
490,243,194414,5,0,0:0:0:0:
290,209,194859,1,0,0:0:0:0:
490,243,195192,1,0,0:0:0:0:
490,243,195303,1,0,0:0:0:0:
390,226,195526,1,0,0:0:0:0:
290,209,195748,1,0,0:0:0:0:
70,304,196192,5,0,0:0:0:0:
259,238,196636,1,0,0:0:0:0:
70,304,196970,1,0,0:0:0:0:
70,304,197081,1,0,0:0:0:0:
162,295,197303,1,0,0:0:0:0:
259,238,197525,1,0,0:0:0:0:
344,121,197748,1,0,0:0:0:0:
485,35,197970,5,0,0:0:0:0:
357,132,198192,1,0,0:0:0:0:
329,250,198414,1,0,0:0:0:0:
378,336,198636,1,0,0:0:0:0:
434,256,198859,6,0,L|431:199,1,45.4999979171754
231,245,199081,1,0,0:0:0:0:
231,245,199303,1,0,0:0:0:0:
51,157,199748,6,0,L|64:205,7,26.2500010013581
171,159,200192,2,0,L|158:207,5,26.2500010013581
114,271,200525,5,0,0:0:0:0:
114,271,200636,1,0,0:0:0:0:
231,245,200859,1,0,0:0:0:0:
291,138,201081,1,0,0:0:0:0:
291,138,201303,1,0,0:0:0:0:
464,75,201525,6,0,L|471:50,7,26.2500010013581
357,77,201969,2,0,L|351:52,5,26.2500010013581
408,164,202302,5,0,0:0:0:0:
408,164,202413,1,0,0:0:0:0:
241,169,202636,1,0,0:0:0:0:
112,68,202858,1,0,0:0:0:0:
112,68,203081,1,0,0:0:0:0:
28,172,203303,5,0,0:0:0:0:
86,266,203525,2,0,P|110:267|144:259,3,35
156,213,203748,2,0,P|143:233|133:266,3,35
155,333,203970,2,0,P|193:349|227:347,1,70
337,362,204192,6,0,P|335:345|308:306,1,52.5000020027161
406,267,204414,2,0,P|371:235|322:221,1,70
413,115,204636,2,0,P|357:111|294:131,1,87.5
233,1,204859,2,0,P|176:53|150:111,1,105.000004005432
113,331,205081,5,4,0:3:0:0:
113,342,205192,1,4,0:3:0:0:
123,342,205303,1,4,0:3:0:0:
123,331,205414,1,4,0:3:0:0:
101,337,205525,1,4,0:3:0:0:
118,353,205636,1,4,0:3:0:0:
134,337,205747,1,4,0:3:0:0:
118,320,205858,1,4,0:3:0:0:
72,311,205970,5,8,0:3:0:0:
122,270,206081,1,8,0:3:0:0:
185,254,206192,1,8,0:3:0:0:
248,266,206303,1,8,0:3:0:0:
207,316,206414,5,4,0:3:0:0:
189,231,206525,1,4,0:3:0:0:
213,147,206637,1,4,0:3:0:0:
271,83,206748,1,4,0:3:0:0:
300,168,206859,5,4,0:3:0:0:
372,200,206970,1,0,0:0:0:0:
451,194,207081,1,0,0:0:0:0:
451,194,207192,1,0,0:0:0:0:
464,125,207303,5,0,0:0:0:0:
385,134,207414,1,0,0:0:0:0:
317,102,207525,1,0,0:0:0:0:
317,102,207636,1,0,0:0:0:0:
387,8,207748,6,0,P|293:80|219:80,1,140
274,83,207970,2,0,P|391:66|455:104,1,140
408,73,208192,2,0,P|480:166|480:240,1,140
408,282,208414,5,0,0:0:0:0:
336,257,208525,1,0,0:0:0:0:
270,293,208636,5,0,0:0:0:0:
195,303,208748,1,0,0:0:0:0:
130,274,208859,1,0,0:0:0:0:
130,274,208970,1,0,0:0:0:0:
79,204,209081,5,0,0:0:0:0:
126,146,209192,1,0,0:0:0:0:
83,88,209303,1,0,0:0:0:0:
83,88,209414,1,0,0:0:0:0:
28,144,209525,6,0,B|68:172|68:172|198:196,1,140
157,188,209748,2,0,B|246:204|246:204|286:232,1,140
285,232,209970,2,0,B|268:220|231:221|231:221|218:177|229:138,1,140
288,73,210192,5,0,0:0:0:0:
356,54,210303,1,0,0:0:0:0:
422,32,210414,5,0,0:0:0:0:
408,101,210525,1,0,0:0:0:0:
420,174,210636,1,0,0:0:0:0:
420,174,210748,1,0,0:0:0:0:
346,153,210859,5,0,0:0:0:0:
360,222,210970,1,0,0:0:0:0:
348,295,211081,1,0,0:0:0:0:
348,295,211193,1,0,0:0:0:0:
413,271,211303,5,0,0:0:0:0:
355,267,211414,1,0,0:0:0:0:
297,263,211526,1,0,0:0:0:0:
240,260,211636,1,0,0:0:0:0:
348,295,211748,5,0,0:0:0:0:
267,290,211859,1,0,0:0:0:0:
187,284,211970,1,0,0:0:0:0:
107,279,212081,1,0,0:0:0:0:
226,350,212192,6,0,P|139:290|138:251,1,125.999996154785
36,208,212414,2,0,P|80:161|140:141,1,105.000004005432
207,35,212636,2,0,P|252:72|266:121,1,83.9999974365235
399,77,212859,1,0,0:0:0:0:
199,342,213081,6,0,P|123:268|129:229,1,125.999996154785
62,174,213303,1,0,0:0:0:0:
36,169,213359,2,0,P|88:130|150:121,1,105.000004005432
235,28,213525,2,0,P|272:73|278:123,1,83.9999974365235
416,103,213748,1,0,0:0:0:0:
288,203,213970,5,0,0:0:0:0:
266,271,214081,1,0,0:0:0:0:
320,325,214192,1,0,0:0:0:0:
320,325,214303,1,0,0:0:0:0:
388,248,214414,5,0,0:0:0:0:
390,172,214525,1,0,0:0:0:0:
392,98,214636,1,0,0:0:0:0:
392,98,214748,1,0,0:0:0:0:
265,36,214859,6,0,P|222:88|247:179,1,140
228,156,215081,2,0,P|212:89|154:55,1,140
154,55,215303,2,0,P|111:107|136:198,1,140
189,255,215525,5,0,0:0:0:0:
263,245,215636,1,0,0:0:0:0:
319,196,215748,5,0,0:0:0:0:
296,125,215859,1,0,0:0:0:0:
319,57,215970,1,0,0:0:0:0:
319,57,216081,1,0,0:0:0:0:
363,77,216192,5,0,0:0:0:0:
351,121,216303,1,0,0:0:0:0:
362,171,216414,1,0,0:0:0:0:
362,171,216525,1,0,0:0:0:0:
248,213,216636,6,0,B|224:226|195:221|195:221|138:240|136:285,1,140
137,277,216859,2,0,B|112:266|83:273|83:273|25:260|18:216,1,140
20,224,217081,2,0,B|3:190|44:146|44:146|72:137|87:114,1,140
23,72,217303,5,0,0:0:0:0:
95,41,217414,1,0,0:0:0:0:
34,3,217525,5,0,0:0:0:0:
68,68,217636,1,0,0:0:0:0:
138,100,217748,1,0,0:0:0:0:
138,100,217859,1,0,0:0:0:0:
236,59,217970,5,0,0:0:0:0:
309,52,218081,1,0,0:0:0:0:
372,98,218193,1,0,0:0:0:0:
372,98,218304,1,0,0:0:0:0:
239,166,218414,5,0,0:0:0:0:
281,158,218525,1,0,0:0:0:0:
177,233,218636,1,0,0:0:0:0:
217,247,218747,1,0,0:0:0:0:
89,262,218859,1,0,0:0:0:0:
116,294,218970,1,0,0:0:0:0:
15,218,219081,5,0,0:0:0:0:
79,157,219192,1,0,0:0:0:0:
81,66,219303,2,0,P|79:137|160:195,1,140,2|0,0:2|0:0,0:0:0:0:
341,125,219525,5,2,0:2:0:0:
341,125,219636,1,2,0:2:0:0:
341,125,219748,2,0,P|260:113|182:132,1,140,2|0,0:2|0:0,0:0:0:0:
108,331,219970,5,2,0:2:0:0:
149,264,220081,1,2,0:2:0:0:
244,337,220192,2,0,B|256:312|284:309|284:309|332:354|403:340,1,140,2|0,0:2|0:0,0:0:0:0:
493,191,220414,6,0,P|459:224|448:275,1,70,2|0,0:3|0:0,0:0:0:0:
307,138,220636,2,0,P|278:212|280:268,1,105.000004005432,2|0,0:3|0:0,0:0:0:0:
94,148,220859,2,0,P|102:243|136:327,1,140,2|0,0:3|0:0,0:0:0:0:
244,337,221081,6,0,B|256:312|284:309|284:309|319:343|366:343|366:343|400:342|414:329|414:329|372:295|396:228|362:205|362:205|354:195|304:241|358:271,1,420
481,242,221525,2,0,B|469:134|406:117|356:108|356:108|344:91|328:82|328:82|281:91|238:140|231:169|231:169|259:142|239:87,1,420
198,11,221970,2,0,B|200:40|207:59|207:59|174:80|156:115|176:179,1,140
52,88,222192,2,0,B|73:107|92:115|92:115|87:156|100:196|160:226,1,140
2,248,222414,2,0,B|31:246|50:239|50:239|71:272|106:290|170:270,1,140
253,262,222636,1,0,0:0:0:0:
189,232,222748,1,0,0:0:0:0:
323,234,222859,6,0,B|370:225|337:170|337:170|275:188|275:188|253:164|205:70|298:20|389:35|390:130,1,420
319,251,223303,2,0,B|281:270|249:275|198:240|226:320|226:320|201:361|173:273|102:291|102:291|161:267|139:239|148:196|243:189,1,420
305,173,223748,2,0,P|261:188|151:154,1,140
42,140,223970,2,0,P|86:155|196:121,1,140
316,103,224192,2,0,P|272:118|162:84,1,140
105,17,224414,2,0,P|112:76|101:175,1,140
102,374,224636,6,0,B|96:358|99:340|99:340|91:325|63:325|44:331|44:331|41:313|72:292|151:303|161:323|145:363|269:350|269:350|217:332|210:294|235:240,1,420
300,189,225081,2,0,B|284:220|293:273|293:273|353:291|350:354|413:344|413:344|451:335|439:285,1,280
390,223,225414,1,0,0:0:0:0:
370,87,225525,6,0,B|389:128|367:161|278:197,1,140
211,26,225748,1,0,0:0:0:0:
149,239,225970,6,0,P|204:280|240:340,1,140
446,308,226192,1,0,0:0:0:0:
444,26,226414,5,0,0:0:0:0:
211,58,226636,2,0,L|274:84,2,52.5000020027161
105,191,226859,1,0,0:0:0:0:
109,337,227081,1,0,0:0:0:0:
444,26,227303,5,0,0:0:0:0:
211,58,227525,1,0,0:0:0:0:
211,58,227581,1,0,0:0:0:0:
211,58,227636,1,0,0:0:0:0:
105,191,227748,1,0,0:0:0:0:
109,337,227970,1,0,0:0:0:0:
259,240,228192,6,0,B|259:207|286:174|286:174|269:163|240:166|215:150|215:150|232:194|287:208|311:232|335:277|388:258|419:195|438:265,1,420
296,320,228636,2,0,B|233:340|184:307|174:258|174:258|148:230|99:231|70:286|123:326,1,280
156,216,228970,1,0,0:0:0:0:
46,145,229081,2,0,B|60:155|91:154|91:154|119:120|165:117|211:142,1,140
154,8,229303,2,0,B|155:25|176:48|176:48|220:47|251:81|262:132,1,140
328,3,229525,2,0,B|315:15|311:45|311:45|339:79|334:125|302:166,1,140
309,297,229748,1,0,0:0:0:0:
315,215,229859,1,0,0:0:0:0:
388,335,229970,6,0,P|465:323|380:72,1,420
316,13,230414,2,0,B|302:66|304:126|346:144|386:158|413:131|469:142|479:192|468:238|445:247,1,280
388,335,230748,1,0,0:0:0:0:
248,264,230859,2,0,P|199:295|186:381,1,140
112,256,231081,2,0,P|109:198|41:143,1,140
187,126,231303,2,0,P|238:152|319:121,1,140
250,69,231525,2,0,L|249:238,1,140
100,270,231748,6,0,B|133:247|158:240|193:288|230:324|275:295|302:271|342:283|342:283|306:236|325:173|363:165|363:165|337:197|340:218,1,420
472,275,232192,2,0,B|465:284|440:291|440:291|485:306|543:249|518:179|473:167|425:177|407:223|407:223|438:215|468:183|457:135|457:135|448:156|427:178,1,420
305,86,232636,6,0,B|285:26|233:26|233:26|247:69|229:105,1,140
27,45,232859,2,0,B|87:77|131:89|160:57,1,140
243,201,233081,2,0,P|232:98|245:45,1,140
27,45,233303,2,0,B|64:36|93:72|122:114|107:153,1,140
32,313,233525,6,0,P|113:337|201:298,1,140,2|0,0:2|0:0,0:0:0:0:
311,180,233748,1,2,0:2:0:0:
311,180,233859,1,2,0:2:0:0:
311,180,233970,2,0,B|268:187|254:228|309:307,1,140,2|0,0:2|0:0,0:0:0:0:
406,124,234192,5,2,0:2:0:0:
363,62,234303,1,2,0:2:0:0:
480,120,234414,2,0,P|479:193|397:216,1,140,2|0,0:2|0:0,0:0:0:0:
163,153,234636,6,0,P|158:102|169:53,1,70,2|8,0:3|0:3,0:0:0:0:
363,62,234859,2,0,P|368:149|349:209,1,105.000004005432,8|8,0:3|0:3,0:0:0:0:
57,193,235081,2,0,P|45:104|67:8,1,140,4|4,0:3|0:3,0:0:0:0:
432,25,235303,6,0,B|446:43|434:69|405:68|405:68|406:92|411:134|450:115|470:91|470:91|505:155|486:190|426:256|324:117|326:226|356:261,1,420
447,340,235748,2,0,B|461:337|493:353|493:353|511:315|401:293|335:367|268:283,1,280
143,186,236081,1,0,0:0:0:0:
226,60,236192,2,0,P|213:137|168:198,1,140
100,140,236414,2,0,P|113:217|158:278,1,140
226,220,236636,2,0,P|213:297|168:358,1,140
341,354,236859,1,0,0:0:0:0:
288,287,236970,1,0,0:0:0:0:
420,358,237081,6,0,B|424:321|394:309|431:301|431:301|473:320|512:307|497:244|497:244|458:247|412:234|391:157|424:143|424:143|464:132|466:162|456:180,1,420
338,206,237525,2,0,B|270:210|237:154|232:88|312:59|312:59|306:99|326:134,1,280
338,239,237859,1,0,0:0:0:0:
242,331,237970,2,0,B|318:357|348:314|379:316|396:352,1,140
279,304,238192,2,0,B|203:278|173:321|141:318|125:283,1,140
25,270,238414,2,0,B|101:296|131:253|162:255|179:291,1,140
220,199,238636,1,0,0:0:0:0:
312,184,238748,1,0,0:0:0:0:
162,117,238859,6,0,B|167:91|133:57|133:57|208:35|262:84|262:167|262:167|264:212|312:225|312:225|338:190|378:200,1,420
351,62,239303,2,0,B|344:20|374:-22|452:-13|462:43|439:88|439:88|426:112|424:133|449:165|449:165|465:207|456:256|418:279|372:288,1,420
238,322,239748,2,0,P|166:307|106:244,1,140
69,152,239970,2,0,P|64:78|110:4,1,140
437,187,240192,6,0,P|403:252|327:294,1,140
117,263,240414,1,0,0:0:0:0:
483,94,240636,5,0,0:0:0:0:
348,287,240858,2,0,L|354:219,2,52.5000020027161
182,321,241081,1,0,0:0:0:0:
54,252,241303,1,0,0:0:0:0:
483,94,241525,5,0,0:0:0:0:
348,287,241747,1,0,0:0:0:0:
348,287,241803,1,0,0:0:0:0:
348,287,241858,1,0,0:0:0:0:
182,321,241970,1,0,0:0:0:0:
54,252,242192,1,0,0:0:0:0:
193,176,242414,6,0,B|191:213|228:243|228:243|304:192|267:114|208:96|208:96|277:91|343:57|356:168,1,420
432,326,242859,2,0,B|416:276|360:304|315:285|315:285|267:342|220:345|173:312,1,280
228,243,243192,1,0,0:0:0:0:
296,187,243303,2,0,B|304:145|276:109|235:114|209:156,1,140
163,291,243525,2,0,B|154:332|182:368|223:363|249:321,1,140
296,187,243748,2,0,B|304:145|276:109|235:114|209:156,1,140
228,243,243970,1,0,0:0:0:0:
184,157,244081,1,0,0:0:0:0:
351,288,244192,6,0,B|414:330|517:286|502:178|403:132|363:170|373:207|373:207|388:238|432:239|437:149,1,420
375,82,244636,2,0,B|338:69|297:67|309:-13|394:-12|446:70|412:117|220:16|266:174|289:233,1,280
351,288,244970,1,0,0:0:0:0:
229,267,245081,2,0,P|203:232|188:138,1,140
290,67,245303,2,0,P|272:107|198:167,1,140
137,303,245525,2,0,P|186:351|253:370,1,140
439,327,245748,1,0,0:0:0:0:
375,265,245859,1,0,0:0:0:0:
500,260,245970,6,0,B|499:235|469:233|463:196|463:196|456:201|445:232|445:232|434:171|361:202|324:147|324:147|323:68|410:48|471:131,1,420
375,265,246414,2,0,P|308:329|130:241,1,280
88,59,246748,1,0,0:0:0:0:
181,118,246859,2,0,B|135:119|105:183|13:115,1,140
209,43,247081,2,0,B|255:42|285:-22|377:46,1,140
311,229,247303,2,0,P|290:158|305:81,1,140
483,87,247525,2,0,P|504:158|489:235,1,140
318,336,247748,5,0,0:0:0:0:
318,336,247859,1,0,0:0:0:0:
242,335,247970,1,0,0:0:0:0:
175,311,248081,1,0,0:0:0:0:
156,243,248192,1,6,0:2:0:0:
156,243,248303,1,0,0:0:0:0:
120,181,248414,5,0,0:0:0:0:
55,213,248525,1,0,0:0:0:0:
139,165,248636,5,0,0:0:0:0:
128,246,248748,1,0,0:0:0:0:
217,114,248859,5,0,0:0:0:0:
287,172,248970,1,0,0:0:0:0:
371,134,249081,1,0,0:0:0:0:
281,215,249192,1,0,0:0:0:0:
220,77,249303,6,0,P|175:94|88:58,1,140,0|6,0:0|0:2,0:0:0:0:
