osu file format v14

[General]
AudioFilename: audio.mp3
AudioLeadIn: 0
PreviewTime: 0
Countdown: 0
SampleSet: Soft
StackLeniency: 0.7
Mode: 0
LetterboxInBreaks: 0
WidescreenStoryboard: 1

[Editor]
DistanceSpacing: 1
BeatDivisor: 4
GridSize: 32
TimelineZoom: 2.3

[Metadata]
Title:Jin Li Chao
TitleUnicode:锦鲤抄
Artist:Ling Yuan yousa
ArtistUnicode:泠鸢yousa
Creator:AIR
Version:Hard
Source:
Tags:银临 冷鸟 桜の花が舞い落ちるとき
BeatmapID:1450238
BeatmapSetID:684393

[Difficulty]
HPDrainRate:4
CircleSize:4
OverallDifficulty:6
ApproachRate:8
SliderMultiplier:1.6
SliderTickRate:1

[Events]
//Background and Video events
0,0,"64627052_p0.jpg",0,0
//Break Periods
2,105604,116997
//Storyboard Layer 0 (Background)
//Storyboard Layer 1 (Fail)
//Storyboard Layer 2 (Pass)
//Storyboard Layer 3 (Foreground)
//Storyboard Sound Samples

[TimingPoints]
490,342.857142857143,3,2,1,50,1,0
490,-125,3,2,1,50,0,0
16947,-83.3333333333333,3,1,1,70,0,0
33404,-125,3,2,1,50,0,0
49861,-100,3,2,1,70,0,0
66318,-125,3,2,1,50,0,0
68375,-83.3333333333333,3,1,1,70,0,1
84832,-71.4285714285714,3,1,1,70,0,1
85175,-100,3,1,1,70,0,1
86890,-125,3,1,1,70,0,1
87232,-100,3,1,1,70,0,1
87918,-83.3333333333333,3,1,1,70,0,1
88261,-100,3,1,1,70,0,1
88947,-71.4285714285714,3,1,1,70,0,1
89290,-100,3,1,1,70,0,1
91004,-125,3,1,1,70,0,1
91347,-100,3,1,1,70,0,1
92032,-83.3333333333333,3,1,1,70,0,1
92375,-100,3,1,1,70,0,1
93061,-71.4285714285714,3,1,1,70,0,1
93404,-100,3,1,1,70,0,1
95118,-125,3,1,1,70,0,1
95461,-100,3,1,1,70,0,1
96147,-83.3333333333333,3,1,1,70,0,1
96490,-100,3,1,1,70,0,1
97175,-125,3,1,1,70,0,1
97518,-100,3,1,1,70,0,1
98204,-83.3333333333333,3,1,1,70,0,1
98547,-100,3,1,1,70,0,1
99232,-125,3,1,1,70,0,1
99575,-100,3,1,1,70,0,1
100261,-83.3333333333333,3,1,1,70,0,1
100604,-100,3,1,1,70,0,1
101290,-125,3,1,1,70,0,1
101632,-100,3,1,1,70,0,1
102318,-71.4285714285714,3,1,1,70,0,1
102661,-100,3,1,1,70,0,1
103347,-83.3333333333333,3,1,1,70,0,1
103861,-100,3,1,1,70,0,1
104375,-125,3,1,1,70,0,1
104632,-125,3,1,1,10,0,1
104718,-83.3333333333333,3,1,1,70,0,1
105404,-100,3,1,1,70,0,0
121861,-125,3,2,1,50,0,0
138318,-100,3,2,1,70,0,0
154775,-125,3,2,1,50,0,0
156832,-83.3333333333333,3,1,1,70,0,1
173290,-71.4285714285714,3,1,1,70,0,1
173632,-100,3,1,1,70,0,1
175347,-125,3,1,1,70,0,1
175690,-100,3,1,1,70,0,1
176375,-83.3333333333333,3,1,1,70,0,1
176718,-100,3,1,1,70,0,1
177404,-71.4285714285714,3,1,1,70,0,1
177747,-100,3,1,1,70,0,1
179461,-125,3,1,1,70,0,1
179804,-100,3,1,1,70,0,1
180490,-83.3333333333333,3,1,1,70,0,1
180832,-100,3,1,1,70,0,1
181518,-71.4285714285714,3,1,1,70,0,1
181861,-100,3,1,1,70,0,1
183575,-125,3,1,1,70,0,1
183918,-100,3,1,1,70,0,1
184604,-83.3333333333333,3,1,1,70,0,1
184947,-100,3,1,1,70,0,1
185632,-125,3,1,1,70,0,1
185975,-100,3,1,1,70,0,1
186661,-83.3333333333333,3,1,1,70,0,1
187004,-100,3,1,1,70,0,1
187690,-125,3,1,1,70,0,1
188032,-100,3,1,1,70,0,1
188718,-83.3333333333333,3,1,1,70,0,1
189061,-100,3,1,1,70,0,1
189747,-125,3,1,1,70,0,1
190090,-100,3,1,1,70,0,1
190775,-71.4285714285714,3,1,1,70,0,1
191118,-100,3,1,1,70,0,1
191804,-83.3333333333333,3,1,1,70,0,1
192318,-100,3,1,1,70,0,1
192832,-125,3,1,1,70,0,1
193175,-83.3333333333333,3,1,1,70,0,1
193861,-125,3,2,1,50,0,0
202090,-100,3,1,1,70,0,0
210318,-71.4285714285714,3,1,1,70,0,1
210661,-100,3,1,1,70,0,1
212375,-125,3,1,1,70,0,1
212718,-100,3,1,1,70,0,1
213404,-83.3333333333333,3,1,1,70,0,1
213747,-100,3,1,1,70,0,1
214432,-71.4285714285714,3,1,1,70,0,1
214775,-100,3,1,1,70,0,1
216490,-125,3,1,1,70,0,1
216832,-100,3,1,1,70,0,1
217518,-83.3333333333333,3,1,1,70,0,1
217861,-100,3,1,1,70,0,1
218547,-71.4285714285714,3,1,1,70,0,1
218890,-100,3,1,1,70,0,1
220604,-125,3,1,1,70,0,1
220947,-100,3,1,1,70,0,1
221632,-83.3333333333333,3,1,1,70,0,1
221975,-100,3,1,1,70,0,1
222661,-125,3,1,1,70,0,1
223004,-100,3,1,1,70,0,1
223690,-83.3333333333333,3,1,1,70,0,1
224032,-100,3,1,1,70,0,1
224718,-125,3,1,1,70,0,1
225061,-100,3,1,1,70,0,1
225747,-83.3333333333333,3,1,1,70,0,1
226090,-100,3,1,1,70,0,1
226775,-125,3,1,1,70,0,1
227118,-100,3,1,1,70,0,1
227804,-71.4285714285714,3,1,1,70,0,1
228147,-100,3,1,1,70,0,1
228832,-83.3333333333333,3,1,1,70,0,1
229347,-100,3,1,1,70,0,1
229861,-125,3,1,1,70,0,1
230204,-83.3333333333333,3,1,1,50,0,1
230890,-125,3,2,1,70,0,0

[Colours]
Combo1 : 255,255,96
Combo2 : 83,83,83
Combo3 : 255,68,68
Combo4 : 0,217,108
Combo5 : 83,83,255

[HitObjects]
362,208,490,6,0,P|349:274|406:320,1,128,4|0,0:0|0:0,0:0:0:0:
418,252,1004,2,0,L|267:288,1,128,2|0,0:0|0:0,0:0:0:0:
202,281,1518,2,0,L|51:317,2,128,2|0|2,0:0|0:0|0:0,0:0:0:0:
117,140,2547,6,0,P|130:74|73:28,1,128,0|0,0:0|0:0,0:0:0:0:
61,96,3061,2,0,L|212:60,1,128,2|0,0:0|0:0,0:0:0:0:
277,67,3575,2,0,L|428:31,2,128,2|0|2,0:0|0:0|0:0,0:0:0:0:
348,178,4604,6,0,P|419:170|445:239,1,128,0|0,0:0|0:0,0:0:0:0:
441,290,5118,2,0,L|307:274,1,128,2|0,0:0|0:0,0:0:0:0:
236,281,5632,2,0,L|111:310,2,128,2|0|2,0:0|0:0|0:0,0:0:0:0:
83,169,6661,6,0,P|139:169|178:233,1,128,0|0,0:0|0:0,0:0:0:0:
108,233,7175,2,0,L|194:121,1,128,2|0,0:0|0:0,0:0:0:0:
261,106,7690,2,0,L|403:113,1,128,2|0,0:0|0:0,0:0:0:0:
466,313,8375,1,0,0:0:0:0:
403,360,8547,1,2,0:0:0:0:
338,317,8718,6,0,P|315:269|361:211,1,128,4|0,0:0|0:0,0:0:0:0:
430,192,9232,2,0,P|468:168|455:84,1,128,2|0,0:0|0:0,0:0:0:0:
408,33,9747,2,0,L|276:42,1,128,2|0,0:0|0:0,0:0:0:0:
144,222,10432,1,2,0:0:0:0:
60,365,10775,6,0,P|19:333|34:246,1,128,0|0,0:0|0:0,0:0:0:0:
65,192,11290,2,0,P|91:149|43:71,1,128,2|0,0:0|0:0,0:0:0:0:
12,16,11804,2,0,L|149:40,1,128,2|0,0:0|0:0,0:0:0:0:
337,241,12490,1,2,0:0:0:0:
449,355,12832,6,0,P|479:313|439:242,1,128,0|0,0:0|0:0,0:0:0:0:
389,206,13347,2,0,P|354:177|366:95,1,128,2|0,0:0|0:0,0:0:0:0:
412,38,13861,2,0,P|451:58|445:136,1,128,2|0,0:0|0:0,0:0:0:0:
207,311,14547,2,0,P|173:295|171:251,1,64,0|2,0:0|0:0,0:0:0:0:
256,192,14890,12,8,15918,0:3:0:0:
143,151,16261,6,0,L|71:171,1,64,8|0,0:3|0:0,0:0:0:0:
58,88,16604,2,0,L|119:70,1,64,0|4,0:0|0:3,0:0:0:0:
258,78,16947,6,0,B|336:104|332:187|332:187|345:155|381:150,1,191.999994140625,4|8,0:0|0:0,0:0:0:0:
489,256,17632,2,0,P|461:302|411:304,1,95.9999970703126
319,289,17975,2,0,P|259:265|145:324,1,191.999994140625,2|8,0:3|0:0,0:0:0:0:
32,209,18661,2,0,P|13:240|24:303,1,95.9999970703126
119,222,19004,6,0,B|175:155|119:68|119:68|99:91|101:115,1,191.999994140625,8|8,0:3|0:0,0:0:0:0:
188,130,19518,2,0,P|275:147|367:85,1,191.999994140625,2|0,0:0|0:0,0:0:0:0:
402,26,20032,1,8,0:0:0:0:
466,149,20375,2,0,B|497:200|476:298|476:298|437:288|421:265,1,191.999994140625,0|8,0:0|0:0,0:0:0:0:
361,248,20890,1,2,0:0:0:0:
274,249,21061,6,0,P|209:246|112:339,1,191.999994140625,4|8,0:3|0:0,0:0:0:0:
199,343,21575,2,0,P|261:338|303:374,1,95.9999970703126,2|0,0:0|0:0,0:0:0:0:
107,353,22090,2,0,B|47:378|4:323|4:323|67:243,1,191.999994140625,2|8,0:3|0:0,0:0:0:0:
107,200,22604,2,0,P|77:179|12:191,2,95.9999970703126,2|0|0,0:0|0:0|0:0,0:0:0:0:
187,176,23118,6,0,B|228:103|162:38|162:38|134:54|133:86,1,191.999994140625,8|8,0:3|0:0,0:0:0:0:
121,122,23632,2,0,L|327:104,1,191.999994140625,4|0,0:3|0:0,0:0:0:0:
405,82,24147,1,2,0:3:0:0:
489,293,24490,1,0,0:0:0:0:
397,306,24661,2,0,P|375:258|394:209,2,95.9999970703126,2|8|2,0:0|0:0|0:0,0:0:0:0:
323,348,25175,6,0,P|268:329|226:202,1,191.999994140625,4|8,0:0|0:0,0:0:0:0:
134,298,25861,2,0,P|73:329|29:307,1,95.9999970703126
2,207,26204,2,0,B|45:131|151:174|151:174|123:187|117:205,1,191.999994140625,2|8,0:3|0:0,0:0:0:0:
327,71,26890,2,0,P|318:96|370:158,1,95.9999970703126,0|2,0:0|0:0,0:0:0:0:
477,144,27232,6,0,P|491:78|388:8,1,191.999994140625,8|8,0:3|0:0,0:0:0:0:
319,61,27747,2,0,P|269:77|143:27,1,191.999994140625,2|0,0:0|0:0,0:0:0:0:
48,43,28261,1,2,0:3:0:0:
237,213,28604,2,0,P|267:260|265:316,1,95.9999970703126,0|0,0:0|0:0,0:0:0:0:
134,339,28947,2,0,P|163:289|216:282,1,95.9999970703126,8|2,0:0|0:0,0:0:0:0:
348,269,29290,6,0,B|416:287|436:357|436:357|450:335|481:310,1,191.999994140625,4|8,0:3|0:0,0:0:0:0:
499,231,29804,1,2,0:0:0:0:
440,168,29975,2,0,L|459:62,1,95.9999970703126,0|0,0:0|0:0,0:0:0:0:
355,13,30318,2,0,P|296:29|256:177,1,191.999994140625,2|8,0:3|0:0,0:0:0:0:
258,292,31004,2,0,P|288:333|282:378,1,95.9999970703126,0|2,0:0|0:0,0:0:0:0:
93,373,31347,6,0,P|96:317|225:265,1,191.999994140625,8|0,0:3|0:0,0:0:0:0:
355,279,31861,2,0,B|423:289|423:289|483:212|483:212|442:204,1,191.999994140625,4|0,0:3|0:0,0:0:0:0:
326,151,32375,2,0,B|288:155|288:155|260:171|260:171|128:183,1,191.999994140625,2|0,0:3|2:0,0:0:0:0:
33,211,32890,1,0,2:0:0:0:
25,113,33061,2,0,P|63:88|118:120,1,95.9999970703126,0|0,2:0|2:0,0:0:0:0:
138,182,33404,6,0,P|95:224|27:205,1,128,4|0,0:0|0:0,0:0:0:0:
200,251,34090,2,0,P|199:285|173:323,1,64,2|0,0:0|0:0,0:0:0:0:
298,228,34432,1,8,0:0:0:0:
298,228,34775,2,0,B|373:268|350:361|350:361|315:348|302:322,1,192,0|2,0:0|0:0,0:0:0:0:
405,295,35461,6,0,B|441:293|472:316|472:316|524:260|480:177,1,192,8|0,0:0|0:0,0:0:0:0:
450,129,36147,1,2,0:0:0:0:
296,19,36490,2,0,B|233:64|259:140|259:140|284:116|320:104,1,192,8|0,0:0|0:0,0:0:0:0:
383,77,37175,1,8,0:0:0:0:
170,53,37518,6,0,P|122:51|50:116,1,128,8|0,0:0|0:0,0:0:0:0:
81,177,38032,2,0,P|115:156|154:154,1,64,0|2,0:0|0:0,0:0:0:0:
277,264,38547,1,8,0:0:0:0:
277,264,38890,2,0,P|219:306|152:286,1,128,0|8,0:0|0:0,0:0:0:0:
371,235,39575,6,0,B|456:250|457:331|457:331|432:308|397:306,1,192,8|0,0:0|0:0,0:0:0:0:
335,326,40261,1,10,0:0:0:0:
305,182,40604,2,0,P|312:122|388:72,1,128,8|0,0:0|0:0,0:0:0:0:
451,166,41290,2,0,P|408:165|375:149,1,64,8|2,0:0|0:0,0:0:0:0:
246,88,41632,6,0,B|206:59|191:20|191:20|169:50|139:63,1,128,8|0,0:0|0:0,0:0:0:0:
43,198,42318,2,0,P|79:167|117:180,1,64,2|0,0:0|0:0,0:0:0:0:
185,262,42661,1,8,0:0:0:0:
185,262,43004,2,0,P|157:306|39:263,1,192,8|2,0:0|0:0,0:0:0:0:
175,186,43690,6,0,B|266:167|291:251|291:251|265:259|245:234,1,192,8|0,0:0|0:0,0:0:0:0:
383,206,44375,1,2,0:0:0:0:
383,206,44718,2,0,P|466:220|499:266,1,128,8|0,0:0|0:0,0:0:0:0:
466,325,45232,2,0,P|430:302|418:266,1,64,0|8,0:0|0:0,0:0:0:0:
497,99,45747,6,0,B|515:65|488:30|488:30|410:17|379:82,1,192,8|0,0:0|0:0,0:0:0:0:
341,138,46432,1,2,0:0:0:0:
84,132,46775,2,0,B|35:113|49:37|49:37|64:56|83:69,1,128,8|0,0:0|0:0,0:0:0:0:
141,71,47290,1,0,0:0:0:0:
165,154,47461,2,0,P|157:202|126:230,1,64,8|0,0:0|0:0,0:0:0:0:
45,335,47804,6,0,P|119:315|245:338,1,192,8|0,0:0|0:0,0:0:0:0:
313,357,48490,2,0,P|356:370|390:367,1,64,2|0,0:0|0:0,0:0:0:0:
492,332,48832,2,0,P|494:286|360:275,1,192,8|0,0:0|0:0,0:0:0:0:
425,307,49518,1,8,0:0:0:0:
257,142,49861,6,0,B|228:166|226:218|226:218|203:174|139:175,1,160,4|0,0:0|0:0,0:0:0:0:
13,89,50547,1,2,0:0:0:0:
137,29,50890,2,0,P|183:72|186:97,1,80,8|0,0:0|0:0,0:0:0:0:
89,164,51232,2,0,P|54:206|68:315,1,160,8|0,0:0|0:0,0:0:0:0:
128,345,51747,1,2,0:0:0:0:
203,307,51918,2,0,B|273:254|357:298|357:298|307:302|285:356,1,240,8|0,0:0|0:0,0:0:0:0:
365,375,52604,1,2,0:0:0:0:
495,285,52947,2,0,P|506:238|435:124,1,160,8|0,0:0|0:0,0:0:0:0:
389,113,53461,2,0,P|371:164|395:198,1,80,0|8,0:0|0:0,0:0:0:0:
442,22,53975,5,8,0:0:0:0:
380,184,54318,2,0,P|339:153|280:153,1,80,0|0,0:0|0:0,0:0:0:0:
221,161,54661,2,0,B|151:196|164:282|164:282|180:251|206:255,1,160,2|8,0:0|0:0,0:0:0:0:
21,226,55347,2,0,P|64:250|101:245,1,80,8|0,0:0|0:0,0:0:0:0:
247,235,55690,2,0,P|306:227|395:289,2,160,0|8|0,0:0|0:0|0:0,0:0:0:0:
172,269,56547,1,0,0:0:0:0:
235,313,56718,2,0,P|276:346|285:382,1,80,10|0,0:0|0:0,0:0:0:0:
161,344,57061,2,0,P|110:322|115:205,1,160,8|0,0:0|0:0,0:0:0:0:
88,83,57747,1,8,0:0:0:0:
232,85,58090,6,0,B|288:133|250:193|250:193|233:164|199:152,1,160,8|0,0:0|0:0,0:0:0:0:
404,123,58775,2,0,P|453:141|477:174,1,80,2|0,0:0|0:0,0:0:0:0:
330,269,59118,1,8,0:0:0:0:
330,269,59461,2,0,P|288:256|149:375,1,240,8|2,0:0|0:0,0:0:0:0:
241,351,60147,2,0,B|233:277|132:253|132:253|94:297|25:275,1,240,8|0,0:0|0:0,0:0:0:0:
68,204,60832,1,2,0:0:0:0:
0,79,61175,2,0,B|77:57|129:116|129:116|130:83|142:75,1,160,8|0,0:0|0:0,0:0:0:0:
204,57,61690,2,0,P|251:33|312:35,1,80,0|8,0:0|0:0,0:0:0:0:
502,206,62204,6,0,B|437:271|334:207|334:207|374:193|407:169,1,240,8|0,0:0|0:0,0:0:0:0:
389,95,62890,1,2,0:0:0:0:
54,291,63232,2,0,B|105:280|142:308|142:308|143:262|203:237,1,160,8|0,0:0|0:0,0:0:0:0:
258,250,63747,2,0,P|285:286|268:351,1,80,0|8,0:0|0:0,0:0:0:0:
434,158,64261,6,0,B|528:272|432:365|432:365|435:307|401:274,1,320,8|0,0:0|0:0,0:0:0:0:
95,107,65290,2,0,B|47:130|50:210|50:210|83:187|100:185,1,160,8|0,0:0|0:0,0:0:0:0:
381,67,65975,2,0,P|412:100|417:154,1,80,2|8,0:0|0:0,0:0:0:0:
256,192,66318,12,4,67347,0:3:0:0:
230,293,67690,6,0,L|305:277,1,64,4|2,0:3|0:3,0:0:0:0:
307,354,68032,2,0,L|244:367,1,64,2|0,0:0|0:0,0:0:0:0:
94,340,68375,6,0,B|17:278|72:198|72:198|66:225|74:250,1,191.999994140625,4|8,0:0|0:0,0:0:0:0:
147,220,68890,1,2,0:0:0:0:
206,157,69061,2,0,P|246:215|221:269,1,95.9999970703126,0|0,0:0|0:0,0:0:0:0:
128,142,69404,2,0,P|110:91|211:17,1,191.999994140625,2|8,0:3|0:0,0:0:0:0:
275,35,69918,1,0,0:0:0:0:
317,104,70090,2,0,P|377:121|412:108,1,95.9999970703126,0|2,0:0|0:0,0:0:0:0:
499,108,70432,6,0,B|510:93|488:55|488:55|432:109|470:185,1,191.999994140625,8|8,0:3|0:0,0:0:0:0:
459,266,70947,2,0,P|503:309|506:355,1,95.9999970703126,4|0,0:3|0:0,0:0:0:0:
236,372,71461,2,0,B|221:289|301:253|301:253|286:276|292:307,1,191.999994140625,2|8,0:3|0:0,0:0:0:0:
365,298,71975,1,0,0:0:0:0:
373,211,72147,2,0,P|337:178|277:178,1,95.9999970703126,0|2,0:0|0:0,0:0:0:0:
188,209,72490,6,0,P|143:244|44:216,1,143.999995605469,4|0,0:3|0:0,0:0:0:0:
24,193,72832,2,0,B|37:88,1,95.9999970703126,8|0,0:0|0:0,0:0:0:0:
188,209,73175,2,0,L|203:316,1,95.9999970703126,0|2,0:0|0:0,0:0:0:0:
67,377,73518,2,0,B|148:363|148:363|204:405|272:355,1,191.999994140625,2|8,0:3|0:0,0:0:0:0:
331,335,74032,1,0,0:0:0:0:
414,309,74204,2,0,B|464:328|464:328|487:375,1,95.9999970703126,0|2,0:0|0:0,0:0:0:0:
352,249,74547,6,0,B|338:209|338:209|374:76|374:76|392:109,1,191.999994140625,8|8,0:3|0:0,0:0:0:0:
414,163,75061,2,0,P|333:162|310:46,1,191.999994140625,4|2,0:3|0:0,0:0:0:0:
346,2,75575,1,2,0:3:0:0:
182,180,75918,2,0,L|79:191,1,95.9999970703126,8|0,0:0|0:0,0:0:0:0:
88,67,76261,2,0,P|155:81|165:133,1,95.9999970703126,0|2,0:0|0:0,0:0:0:0:
144,240,76604,6,0,P|69:266|14:171,1,191.999994140625,4|8,0:2|0:0,0:0:0:0:
105,140,77118,1,0,0:0:0:0:
182,180,77290,2,0,P|213:224|206:273,1,95.9999970703126,0|2,0:0|0:0,0:0:0:0:
314,317,77632,2,0,B|389:251|457:307|457:307|439:297|392:304,1,191.999994140625,2|8,0:3|0:0,0:0:0:0:
403,376,78147,1,0,0:0:0:0:
314,317,78318,2,0,P|294:268|327:198,1,95.9999970703126,0|2,0:0|0:0,0:0:0:0:
452,152,78661,6,0,B|537:194|508:286|508:286|474:266|468:249,1,191.999994140625,8|8,0:3|0:0,0:0:0:0:
377,179,79175,2,0,P|369:124|485:64,1,191.999994140625,4|2,0:3|0:0,0:0:0:0:
373,54,79690,2,0,B|334:100|279:89|279:89|246:34|179:42,1,191.999994140625,2|8,0:3|0:0,0:0:0:0:
137,51,80204,1,0,0:0:0:0:
72,97,80375,2,0,P|52:162|71:202,1,95.9999970703126,0|2,0:0|0:0,0:0:0:0:
248,239,80718,6,0,B|224:169|135:151|135:151|162:174|167:214,1,191.999994140625,4|0,0:3|0:0,0:0:0:0:
144,260,81232,1,0,0:0:0:0:
248,239,81404,2,0,P|315:231|353:261,1,95.9999970703126,8|2,0:0|0:0,0:0:0:0:
404,319,81747,2,0,B|446:346|439:382|439:382|416:359|486:248,1,191.999994140625,2|0,0:3|0:0,0:0:0:0:
504,169,82261,1,0,0:0:0:0:
463,73,82432,2,0,P|403:45|350:60,1,95.9999970703126,8|2,0:0|0:0,0:0:0:0:
292,111,82775,6,0,P|243:148|118:93,1,191.999994140625,8|0,0:3|0:0,0:0:0:0:
70,57,83290,2,0,B|59:35|59:35|8:91|19:170|19:170|53:152,1,191.999994140625,4|2,0:3|0:0,0:0:0:0:
116,148,83804,2,0,P|161:122|292:153,1,191.999994140625,2|0,0:3|0:0,0:0:0:0:
345,234,84318,1,0,0:0:0:0:
254,258,84490,1,0,0:0:0:0:
392,154,84661,1,2,0:0:0:0:
407,319,84832,6,0,B|402:343|414:364|414:364|284:333|359:206,1,223.999993164063,4|8,0:0|0:0,0:0:0:0:
392,154,85347,5,0,0:0:0:0:
330,78,85518,2,0,P|267:57|226:63,1,80,0|0,0:0|0:0,0:0:0:0:
111,130,85861,2,0,B|167:163|226:139|226:139|189:123|182:91,1,160,2|8,0:3|0:0,0:0:0:0:
141,43,86375,1,0,0:0:0:0:
52,60,86547,2,0,P|15:98|21:150,1,80,0|8,0:0|0:0,0:0:0:0:
49,224,86890,6,0,P|92:240|185:219,1,128,4|8,0:3|0:0,0:0:0:0:
268,186,87404,5,2,0:0:0:0:
261,275,87575,2,0,P|242:322|250:361,1,80,0|8,0:0|0:0,0:0:0:0:
416,356,87918,6,0,B|439:283|360:239|360:239|382:268|375:299,1,191.999994140625,2|0,0:3|0:0,0:0:0:0:
336,347,88432,5,2,0:0:0:0:
477,253,88604,2,0,P|490:213|452:161,1,80,0|8,0:0|0:0,0:0:0:0:
402,141,88947,6,0,B|323:110|366:19|366:19|426:40|419:74,1,223.999993164063,8|8,0:3|0:0,0:0:0:0:
296,146,89461,5,2,0:0:0:0:
221,122,89632,2,0,P|164:78|161:44,1,80,0|8,0:0|0:0,0:0:0:0:
236,200,89975,2,0,P|186:206|147:192,1,80,2|0,0:3|0:0,0:0:0:0:
3,181,90318,2,0,B|56:170|77:213|77:213|71:167|112:133,1,160,0|8,0:0|0:3,0:0:0:0:
350,124,91004,6,0,B|377:153|371:204|371:204|395:180|432:177,1,128,4|8,0:3|0:0,0:0:0:0:
485,214,91518,6,0,P|504:255|472:313,1,80,2|0,0:0|0:0,0:0:0:0:
416,266,91861,1,8,0:0:0:0:
468,137,92032,6,0,P|488:81|385:-6,1,191.999994140625,2|4,0:3|0:3,0:0:0:0:
244,13,92547,5,2,0:3:0:0:
225,138,92718,1,8,0:0:0:0:
305,89,92890,1,8,0:0:0:0:
168,68,93061,6,0,B|61:53|30:169|30:169|52:142|78:137,1,223.999993164063,4|8,0:0|0:0,0:0:0:0:
128,177,93575,5,2,0:0:0:0:
181,256,93747,2,0,P|200:309|190:333,1,80,0|8,0:0|0:0,0:0:0:0:
110,302,94090,2,0,P|205:281|268:313,1,160,2|0,0:3|0:0,0:0:0:0:
345,350,94604,2,0,P|386:369|428:366,1,80,0|8,0:0|0:0,0:0:0:0:
487,196,95118,6,0,P|461:172|351:171,1,128,8|8,0:3|0:0,0:0:0:0:
336,244,95632,6,0,L|417:238,1,80,2|0,0:0|0:0,0:0:0:0:
282,156,96147,6,0,L|68:172,1,191.999994140625,2|0,0:3|0:0,0:0:0:0:
45,228,96661,1,8,0:0:0:0:
14,153,96832,2,0,P|7:110|37:75,1,80,0|0,0:0|0:0,0:0:0:0:
235,49,97175,6,0,P|275:84|271:175,1,128,4|8,0:2|0:0,0:0:0:0:
248,232,97690,5,2,0:0:0:0:
170,261,97861,2,0,P|161:312|139:348,1,80,0|8,0:0|0:0,0:0:0:0:
241,322,98204,6,0,P|286:347|416:282,1,191.999994140625,2|0,0:3|0:0,0:0:0:0:
463,232,98718,6,0,P|473:179|447:135,1,80,2|8,0:0|0:3,0:0:0:0:
383,191,99061,1,8,0:0:0:0:
310,117,99232,6,0,P|275:176|285:235,1,128,4|8,0:2|0:0,0:0:0:0:
383,191,99747,5,0,0:0:0:0:
399,102,99918,2,0,L|389:9,1,80,0|8,0:0|0:0,0:0:0:0:
229,21,100261,6,0,B|155:38|132:104|132:104|121:66|79:55,1,191.999994140625,2|0,0:3|0:0,0:0:0:0:
19,94,100775,6,0,P|19:166|46:181,1,80,2|0,0:0|0:0,0:0:0:0:
113,191,101118,1,8,0:0:0:0:
54,254,101290,6,0,B|23:311|57:355|57:355|85:340,1,128,4|0,0:2|0:0,0:0:0:0:
145,294,101804,5,0,0:0:0:0:
215,249,101975,2,0,P|238:297|225:345,1,80,8|0,0:0|0:0,0:0:0:0:
324,349,102318,6,0,B|393:260|480:318|480:318|456:313|410:331,1,223.999993164063,2|0,0:3|0:0,0:0:0:0:
295,171,103004,6,0,P|269:129|277:75,1,80,0|8,0:0|0:0,0:0:0:0:
454,2,103347,6,0,P|497:34|490:174,1,191.999994140625,8|0,0:3|0:0,0:0:0:0:
348,111,103861,6,0,P|406:70|421:141,1,160,4|0,0:3|0:0,0:0:0:0:
220,173,104375,6,0,P|175:185|113:177,1,96,2|0,0:3|0:0,0:0:0:0:
80,174,104718,5,0,0:0:0:0:
112,98,104890,1,0,0:0:0:0:
187,66,105061,1,0,0:0:0:0:
259,100,105232,1,0,0:0:0:0:
295,171,105404,1,4,0:0:0:0:
115,113,117747,6,0,B|39:136|62:219|62:219|73:200|107:187,1,160,4|8,0:3|0:0,0:0:0:0:
171,211,118261,1,2,0:0:0:0:
267,195,118432,2,0,B|270:152|236:138|236:138|239:152|236:160,1,80,0|0,0:0|0:0,0:0:0:0:
234,272,118775,2,0,B|282:283|302:340|302:340|314:300|349:277,1,160,2|8,0:3|0:0,0:0:0:0:
478,172,119461,2,0,P|512:204|505:265,1,80,0|2,0:0|0:0,0:0:0:0:
439,242,119804,6,0,P|401:204|446:101,1,160,8|0,0:3|0:0,0:0:0:0:
489,52,120318,2,0,B|490:36|500:15|500:15|445:39|368:28,1,160,4|2,0:3|0:0,0:0:0:0:
291,15,120832,2,0,B|225:8|185:49|185:49|222:62|240:91,1,160,2|0,0:3|0:0,0:0:0:0:
173,130,121347,2,0,L|155:232,1,80,0|0,2:0|2:0,0:0:0:0:
326,191,121861,6,0,P|363:229|348:315,1,128,4|0,0:0|0:0,0:0:0:0:
159,364,122547,1,2,0:0:0:0:
232,270,122890,2,0,P|269:258|309:265,1,64,8|0,0:0|0:0,0:0:0:0:
137,277,123232,2,0,B|59:285|22:222|22:222|51:233|87:225,1,192,0|2,0:0|0:0,0:0:0:0:
154,191,123918,2,0,P|172:130|130:58,1,128,8|0,0:0|0:0,0:0:0:0:
83,38,124432,2,0,L|0:34,1,64,0|2,0:0|0:0,0:0:0:0:
254,55,124947,2,0,B|292:84|332:62|332:62|355:36|399:35,1,128,8|0,0:0|0:0,0:0:0:0:
443,62,125461,2,0,P|468:88|470:124,1,64,0|8,0:0|0:0,0:0:0:0:
370,202,125975,6,0,P|345:257|390:324,1,128,8|0,0:0|0:0,0:0:0:0:
491,338,126661,1,2,0:0:0:0:
468,189,127004,1,8,0:0:0:0:
277,208,127347,2,0,P|250:235|246:262,1,64,0|0,0:0|0:0,0:0:0:0:
252,342,127690,2,0,P|213:286|134:269,1,128,8|8,0:0|0:0,0:0:0:0:
10,329,128375,2,0,P|48:335|84:318,1,64,0|0,0:0|0:0,0:0:0:0:
74,237,128718,2,0,B|30:204|52:137|52:137|60:151|77:160,1,128,2|8,0:0|0:0,0:0:0:0:
233,121,129404,2,0,P|191:114|163:92,1,64,0|0,0:0|0:0,0:0:0:0:
298,173,129747,2,0,P|310:206|306:251,1,64,8|2,0:0|0:0,0:0:0:0:
313,96,130090,6,0,P|347:58|425:51,1,128,8|0,0:0|0:0,0:0:0:0:
494,289,130775,1,2,0:0:0:0:
412,170,131118,2,0,P|458:189|479:212,1,64,8|0,0:0|0:0,0:0:0:0:
417,322,131461,2,0,B|391:275|331:283|331:283|284:321|233:305,1,192,0|2,0:0|0:0,0:0:0:0:
181,269,132147,2,0,B|142:225|79:246|79:246|50:295|88:337,1,192,8|0,0:0|0:0,0:0:0:0:
150,352,132832,1,2,0:0:0:0:
268,210,133175,2,0,P|270:177|192:94,1,128,8|0,0:0|0:0,0:0:0:0:
146,80,133690,2,0,L|70:93,1,64,0|8,0:0|0:0,0:0:0:0:
332,74,134204,6,0,L|474:48,1,128,8|0,0:0|0:0,0:0:0:0:
501,118,134718,2,0,P|465:150|432:145,1,64,0|2,0:0|0:0,0:0:0:0:
330,257,135232,2,0,B|377:237|409:277|409:277|381:273,1,96,8|0,0:0|0:0,0:0:0:0:
314,291,135575,2,0,P|276:267|261:230,1,64,0|0,0:0|0:0,0:0:0:0:
174,208,135918,2,0,P|145:243|64:261,1,128,8|8,0:0|0:0,0:0:0:0:
61,45,136604,2,0,P|112:78|117:108,1,64,0|0,0:0|0:0,0:0:0:0:
192,63,136947,2,0,P|189:107|171:133,1,64,2|0,0:0|0:0,0:0:0:0:
274,93,137290,2,0,P|315:80|463:124,1,192,8|0,0:0|0:0,0:0:0:0:
494,195,137975,1,0,0:0:0:0:
311,228,138318,6,0,B|275:250|266:306|266:306|251:273|192:258,1,160,4|0,0:0|0:0,0:0:0:0:
49,259,139004,1,2,0:0:0:0:
113,366,139347,2,0,P|164:359|197:336,1,80,8|0,0:0|0:0,0:0:0:0:
347,306,139690,2,0,B|378:349|435:352|435:352|486:331|494:302,1,160,8|0,0:0|0:0,0:0:0:0:
489,214,140204,1,2,0:0:0:0:
411,161,140375,2,0,B|395:184|392:217|392:217|287:154|353:50,1,240,8|0,0:0|0:0,0:0:0:0:
406,6,141061,1,2,0:0:0:0:
212,123,141404,2,0,B|152:136|117:80|117:80|106:118|74:143,1,160,8|0,0:0|0:0,0:0:0:0:
23,153,141918,2,0,P|11:111|36:73,1,80,0|8,0:0|0:0,0:0:0:0:
230,42,142432,5,8,0:0:0:0:
248,268,142775,1,0,0:0:0:0:
107,243,143118,2,0,P|64:250|46:283,1,80,2|0,0:0|0:0,0:0:0:0:
248,268,143461,2,0,B|306:311|278:373|278:373|273:341|253:327,1,160,8|0,0:0|0:0,0:0:0:0:
429,231,144147,2,0,P|488:252|499:273,1,80,8|2,0:0|0:0,0:0:0:0:
349,257,144490,2,0,P|306:228|292:118,1,160,8|0,0:0|0:0,0:0:0:0:
403,53,145004,1,0,0:0:0:0:
446,124,145175,2,0,P|395:137|370:128,1,80,2|0,0:0|0:0,0:0:0:0:
259,55,145518,2,0,P|208:29|98:58,1,160,8|0,0:0|0:0,0:0:0:0:
54,117,146032,1,0,0:0:0:0:
137,127,146204,2,0,P|185:133|202:106,1,80,8|2,0:0|0:0,0:0:0:0:
54,117,146547,6,0,B|36:194|112:235|112:235|104:215|108:200,1,160,8|0,0:0|0:0,0:0:0:0:
50,331,147232,1,2,0:0:0:0:
204,218,147575,2,0,P|250:213|288:226,1,80,8|0,0:0|0:0,0:0:0:0:
346,287,147918,2,0,B|368:308|374:340|374:340|419:278|477:267|477:267|465:246|470:214,1,240,8|2,0:0|0:0,0:0:0:0:
470,128,148604,2,0,B|443:70|489:31|489:31|481:81|425:93|361:57,1,240,8|0,0:0|0:0,0:0:0:0:
289,21,149290,1,2,0:0:0:0:
191,97,149632,2,0,P|124:110|37:64,1,160,8|0,0:0|0:0,0:0:0:0:
94,0,150147,2,0,P|132:18|143:69,1,80,0|0,0:0|0:0,0:0:0:0:
105,218,150661,6,0,B|40:268|81:346|81:346|115:305|187:300,1,240,8|0,0:0|0:0,0:0:0:0:
253,325,151347,1,2,0:0:0:0:
472,271,151690,2,0,P|474:320|455:349,1,80,8|0,0:0|0:0,0:0:0:0:
355,240,152032,2,0,B|397:258|395:293|395:293|385:284|375:286,1,80,0|2,0:0|0:0,0:0:0:0:
269,205,152375,2,0,P|221:215|178:200,1,80,8|0,0:0|0:0,0:0:0:0:
176,40,152718,6,0,P|277:34|258:210,1,320,8|2,0:0|0:0,0:0:0:0:
44,160,153747,2,0,B|97:111|162:147|162:147|134:153|115:177,1,160,8|0,0:0|0:0,0:0:0:0:
351,346,154432,2,0,P|352:296|311:263,1,80,2|8,0:0|0:0,0:0:0:0:
256,192,154775,12,4,155804,0:3:0:0:
260,327,156147,6,0,L|174:319,1,64,8|2,0:3|0:3,0:0:0:0:
251,234,156490,2,0,L|314:239,1,64,2|0,0:0|0:0,0:0:0:0:
457,325,156832,6,0,B|483:245|392:209|392:209|401:241|390:268,1,191.999994140625,4|8,0:0|0:0,0:0:0:0:
372,333,157347,1,2,0:0:0:0:
482,237,157518,2,0,P|494:191|470:136,1,95.9999970703126,0|0,0:0|0:0,0:0:0:0:
379,69,157861,2,0,B|306:47|258:99|258:99|237:68|204:67,1,191.999994140625,2|0,0:3|0:0,0:0:0:0:
60,79,158375,1,2,0:0:0:0:
57,176,158547,2,0,P|41:229|58:267,1,95.9999970703126,8|0,0:0|0:0,0:0:0:0:
218,266,158890,6,0,P|234:201|133:129,1,191.999994140625,8|8,0:3|0:0,0:0:0:0:
141,216,159404,1,4,0:3:0:0:
158,326,159575,2,0,P|205:346|263:333,1,95.9999970703126,0|2,0:0|0:0,0:0:0:0:
362,295,159918,2,0,B|439:244|499:300|499:300|480:305|448:293,1,191.999994140625,2|8,0:3|0:0,0:0:0:0:
375,205,160432,1,0,0:0:0:0:
401,118,160604,2,0,B|436:73|466:78|466:78|453:84|443:93,1,95.9999970703126,0|2,0:0|0:0,0:0:0:0:
315,137,160947,6,0,B|200:174|155:58|155:58|207:15|265:47,1,287.999991210938,4|0,0:3|0:0,0:0:0:0:
330,58,161632,1,0,0:0:0:0:
103,207,161975,1,2,0:3:0:0:
303,260,162318,2,0,P|330:307|319:368,1,95.9999970703126,8|0,0:0|0:0,0:0:0:0:
172,347,162661,2,0,P|230:321|270:325,1,95.9999970703126,0|2,0:0|0:0,0:0:0:0:
412,317,163004,6,0,B|453:331|481:362|481:362|492:316|475:233,1,191.999994140625,8|8,0:3|0:0,0:0:0:0:
420,173,163518,2,0,B|394:123|394:123|430:27|430:27|456:67,1,191.999994140625,4|0,0:3|0:0,0:0:0:0:
494,126,164032,1,2,0:3:0:0:
282,152,164375,2,0,P|232:158|182:133,1,95.9999970703126,4|2,0:3|0:0,0:0:0:0:
215,0,164718,2,0,P|247:45|243:88,1,95.9999970703126,8|0,0:0|0:0,0:0:0:0:
186,224,165061,6,0,B|123:280|52:231|52:231|83:235|105:219,1,191.999994140625,4|8,0:2|0:0,0:0:0:0:
61,146,165575,1,2,0:0:0:0:
0,285,165747,2,0,P|19:331|76:352,1,95.9999970703126,0|0,0:0|0:0,0:0:0:0:
184,334,166090,2,0,P|255:299|363:344,1,191.999994140625,2|8,0:3|0:0,0:0:0:0:
280,370,166604,1,2,0:0:0:0:
386,268,166775,2,0,B|445:249|464:282|464:282|443:282|437:272,1,95.9999970703126
379,189,167118,6,0,P|358:126|399:48,1,143.999995605469,8|0,0:3|0:0,0:0:0:0:
441,37,167461,2,0,B|485:56|485:91|485:91|470:77|448:75,1,95.9999970703126,8|4,0:0|0:3,0:0:0:0:
309,60,167804,2,0,P|250:63|191:97,1,95.9999970703126,0|0,0:0|0:0,0:0:0:0:
134,130,168147,2,0,B|78:181|106:257|106:257|114:227|149:201,1,191.999994140625,2|8,0:3|0:0,0:0:0:0:
185,274,168661,1,2,0:0:0:0:
254,210,168832,2,0,P|297:248|294:309,1,95.9999970703126,0|0,0:0|0:0,0:0:0:0:
119,369,169175,6,0,P|79:294|164:206,1,191.999994140625,4|8,0:3|0:0,0:0:0:0:
228,136,169690,1,2,0:0:0:0:
174,68,169861,2,0,L|71:55,1,95.9999970703126,0|0,0:0|0:0,0:0:0:0:
267,48,170204,2,0,L|471:70,1,191.999994140625,2|8,0:3|0:0,0:0:0:0:
500,147,170718,2,0,P|447:173|390:148,1,95.9999970703126,0|0,0:0|0:0,0:0:0:0:
311,117,171061,1,2,0:0:0:0:
245,214,171232,6,0,B|220:260|220:260|237:355|237:355|260:311,1,191.999994140625,8|8,0:3|0:0,0:0:0:0:
199,146,171747,2,0,B|176:124|176:124|68:138|68:138|25:185,1,191.999994140625,4|0,0:3|0:0,0:0:0:0:
32,280,172261,2,0,B|67:284|89:321|89:321|98:249|168:210,1,191.999994140625,2|0,0:3|0:0,0:0:0:0:
310,184,172775,1,8,0:0:0:0:
358,330,172947,1,0,0:0:0:0:
274,283,173118,1,8,0:0:0:0:
394,238,173290,6,0,B|455:260|458:329|458:329|513:293|508:231,1,223.999993164063,4|0,0:0|0:0,0:0:0:0:
482,133,173804,5,2,0:0:0:0:
396,72,173975,2,0,P|350:84|327:132,1,80,8|0,0:0|0:0,0:0:0:0:
239,158,174318,2,0,P|199:109|87:97,1,160,2|0,0:3|0:0,0:0:0:0:
20,156,174832,1,0,0:0:0:0:
115,184,175004,2,0,P|146:230|148:283,1,80,8|2,0:0|0:0,0:0:0:0:
99,349,175347,6,0,P|157:328|235:338,1,128,8|0,0:3|0:0,0:0:0:0:
308,362,175861,6,0,P|364:378|410:372,1,80,0|8,0:0|0:0,0:0:0:0:
499,153,176375,6,0,P|457:108|305:140,1,191.999994140625,2|0,0:3|0:0,0:0:0:0:
286,186,176890,5,2,0:0:0:0:
381,277,177061,2,0,P|412:235|397:190,1,80,0|8,0:0|0:0,0:0:0:0:
334,111,177404,6,0,P|270:108|229:253,1,223.999993164063,4|0,0:3|0:0,0:0:0:0:
273,316,177918,5,0,0:0:0:0:
187,312,178090,2,0,P|132:288|96:295,1,80,8|2,0:0|0:0,0:0:0:0:
4,189,178432,2,0,P|68:185|162:129,1,160,2|0,0:3|0:0,0:0:0:0:
173,53,178947,2,0,P|115:40|79:62,1,80,0|8,0:0|0:0,0:0:0:0:
265,93,179461,6,0,P|335:126|387:98,1,128,8|0,0:3|0:0,0:0:0:0:
439,52,179975,6,0,P|478:26|519:26,1,80,2|0,0:0|0:0,0:0:0:0:
505,281,180490,6,0,P|437:247|432:173,1,143.999995605469,2|0,0:3|0:0,0:0:0:0:
462,144,180832,6,0,P|503:182|493:223,1,80,8|2,0:0|0:0,0:0:0:0:
358,296,181175,2,0,L|346:213,1,80,8|8,0:3|0:0,0:0:0:0:
153,148,181518,6,0,B|74:144|32:231|32:231|69:225|104:246,1,223.999993164063,4|0,0:0|0:0,0:0:0:0:
135,313,182032,5,2,0:0:0:0:
35,384,182204,2,0,P|42:324|78:294,1,80,8|0,0:0|0:0,0:0:0:0:
221,287,182547,2,0,B|269:323|265:380|265:380|278:342|315:329,1,160,2|0,0:3|0:0,0:0:0:0:
386,312,183061,1,0,0:0:0:0:
484,304,183232,2,0,B|512:336|495:368|495:368|463:350,1,80,8|2,0:0|0:0,0:0:0:0:
386,312,183575,6,0,P|360:237|392:175,1,128,4|0,0:3|0:0,0:0:0:0:
438,116,184090,5,2,0:0:0:0:
505,191,184261,2,0,L|436:244,1,80,8|0,0:0|0:0,0:0:0:0:
291,170,184604,6,0,B|212:124|252:36|252:36|260:59|279:82,1,191.999994140625,2|0,0:3|0:0,0:0:0:0:
337,99,185118,6,0,L|403:46,1,80,0|8,0:0|0:0,0:0:0:0:
102,23,185632,6,0,P|136:68|206:90,1,128,4|0,0:2|0:0,0:0:0:0:
205,198,186147,5,8,0:0:0:0:
104,184,186318,2,0,L|25:193,1,80,0|8,0:0|0:0,0:0:0:0:
147,266,186661,6,0,B|165:317|225:320|225:320|226:292|253:262,1,143.999995605469,2|0,0:3|0:0,0:0:0:0:
279,254,187004,6,0,P|331:232|386:247,1,80,0|2,0:0|0:0,0:0:0:0:
453,278,187347,2,0,P|492:332|490:364,1,80,8|8,0:3|0:0,0:0:0:0:
339,306,187690,6,0,P|314:255|350:169,1,128,4|8,0:2|0:0,0:0:0:0:
406,117,188204,5,0,0:0:0:0:
497,173,188375,2,0,L|408:188,1,80,0|0,0:0|0:0,0:0:0:0:
315,62,188718,6,0,L|513:31,1,191.999994140625,2|0,0:3|0:0,0:0:0:0:
406,117,189232,5,2,0:0:0:0:
315,62,189404,2,0,P|276:40|264:7,1,80,0|8,0:0|0:0,0:0:0:0:
163,15,189747,6,0,P|132:85|96:111,1,96,4|0,0:2|0:0,0:0:0:0:
57,126,190090,6,0,L|57:38,1,80,8|2,0:0|0:0,0:0:0:0:
199,92,190432,2,0,P|227:128|216:172,1,80,0|0,0:0|0:0,0:0:0:0:
85,229,190775,6,0,B|66:230|46:215|46:215|121:196|168:264,1,167.999994873047,2|0,0:3|0:0,0:0:0:0:
196,290,191118,6,0,B|219:315|223:360|223:360|241:314|306:302,1,160,8|0,0:0|0:0,0:0:0:0:
402,304,191632,1,0,0:0:0:0:
483,364,191804,6,0,P|504:308|435:193,1,191.999994140625,8|0,0:3|0:0,0:0:0:0:
365,167,192318,6,0,P|325:132|350:18,1,160,4|0,0:3|0:0,0:0:0:0:
460,11,192832,6,0,B|474:62|474:62|392:90,1,128,2|0,0:3|0:0,0:0:0:0:
239,134,193347,5,0,0:0:0:0:
158,75,193518,1,0,0:0:0:0:
251,36,193690,1,0,0:0:0:0:
152,161,193861,6,0,P|114:200|14:134,1,192,12|2,0:0|0:0,0:0:0:0:
86,128,194547,1,0,0:0:0:0:
251,216,194890,2,0,P|304:200|373:318,1,192,8|2,0:0|0:0,0:0:0:0:
361,366,195575,1,8,0:0:0:0:
361,366,195918,6,0,P|355:326|475:237,1,192,8|2,0:0|0:0,0:0:0:0:
506,177,196604,2,0,P|477:140|382:117,1,128,0|2,0:0|0:3,0:0:0:0:
118,35,197290,2,0,P|94:75|96:105,1,64,8|2,0:0|0:0,0:0:0:0:
215,131,197632,2,0,P|185:93|161:89,1,64,8|2,0:0|0:0,0:0:0:0:
44,194,197975,6,0,B|105:206|141:159|141:159|138:208|163:251,1,192,8|2,0:0|0:0,0:0:0:0:
223,286,198661,1,0,0:0:0:0:
413,203,199004,2,0,B|454:178|500:202|500:202|515:277|445:296,1,192,8|0,0:0|0:0,0:0:0:0:
399,317,199690,2,0,L|356:257,1,64,8|2,0:0|0:0,0:0:0:0:
302,179,200032,6,0,P|317:126|449:51,1,192,8|4,0:3|0:3,0:0:0:0:
508,50,200718,1,0,0:0:0:0:
245,105,201061,2,0,B|214:103|214:103|188:93|188:93|104:92,1,128,2|0,0:3|0:0,0:0:0:0:
31,223,201575,1,8,0:3:0:0:
123,190,201747,1,4,0:3:0:0:
47,130,201918,1,4,0:3:0:0:
105,269,202090,6,0,B|145:291|153:342|153:342|172:301|206:295,1,160,4|8,0:0|0:0,0:0:0:0:
283,286,202604,2,0,P|317:308|333:351,1,80,2|0,0:0|0:0,0:0:0:0:
476,230,203118,2,0,P|410:229|339:155,1,160,2|8,0:3|0:0,0:0:0:0:
328,86,203632,1,2,0:0:0:0:
439,64,203804,2,0,P|457:119|446:157,1,80,0|0,0:0|0:0,0:0:0:0:
328,86,204147,6,0,P|299:131|131:116,1,240,0|2,0:0|0:0,0:0:0:0:
83,53,204832,1,0,0:0:0:0:
234,317,205175,1,2,0:3:0:0:
60,200,205518,2,0,P|27:244|34:281,1,80,8|2,0:0|0:0,0:0:0:0:
120,333,205861,2,0,P|121:281|93:253,1,80,0|0,0:0|0:0,0:0:0:0:
212,231,206204,6,0,B|306:278|376:220|376:220|343:198|303:214,1,240,0|2,0:0|0:0,0:0:0:0:
265,294,206890,1,0,0:0:0:0:
454,309,207232,2,0,P|471:257|366:106,1,240,2|2,0:3|0:0,0:0:0:0:
281,95,207918,1,0,0:0:0:0:
91,137,208261,6,0,B|69:155|32:144|32:144|3:84|61:42,1,160,8|0,0:3|0:0,0:0:0:0:
175,105,208775,2,0,B|228:110|251:159|251:159|233:204|198:209,1,160,4|0,0:3|0:0,0:0:0:0:
107,262,209290,2,0,B|82:337|82:337|186:369,1,160,2|0,0:3|0:0,0:0:0:0:
280,292,209804,1,2,0:3:0:0:
373,342,209975,1,0,2:0:0:0:
294,381,210147,1,0,2:0:0:0:
363,255,210318,6,0,B|447:202|499:293|499:293|458:287|442:254,1,223.999993164063,4|8,0:0|0:0,0:0:0:0:
456,166,210832,5,2,0:0:0:0:
508,95,211004,2,0,P|508:39|462:18,1,80,0|0,0:0|0:0,0:0:0:0:
343,6,211347,2,0,P|284:43|301:142,1,160,2|0,0:3|0:0,0:0:0:0:
354,84,211861,2,0,P|401:80|439:98,1,80,0|0,0:0|0:0,0:0:0:0:
210,111,212375,6,0,P|168:134|78:108,1,128,8|8,0:3|0:0,0:0:0:0:
26,55,212890,5,2,0:0:0:0:
17,154,213061,2,0,L|37:244,1,80,0|0,0:0|0:0,0:0:0:0:
141,262,213404,6,0,B|188:282|188:340|188:340|230:297|303:333,1,191.999994140625,2|0,0:3|0:0,0:0:0:0:
465,142,214090,6,0,P|493:185|488:223,1,80,0|0,0:0|0:0,0:0:0:0:
364,255,214432,6,0,P|337:200|467:145,1,223.999993164063,4|8,0:3|0:0,0:0:0:0:
414,196,214947,5,2,0:0:0:0:
309,162,215118,2,0,P|266:137|250:84,1,80,0|0,0:0|0:0,0:0:0:0:
332,11,215461,2,0,L|322:100,1,80,2|0,0:3|0:0,0:0:0:0:
169,163,215804,2,0,L|191:2,1,160,0|0,0:0|0:0,0:0:0:0:
76,164,216490,6,0,P|29:222|57:284,1,128,8|8,0:3|0:0,0:0:0:0:
164,273,217004,5,2,0:0:0:0:
261,246,217175,2,0,P|284:306|304:315,1,80,0|0,0:0|0:0,0:0:0:0:
466,295,217518,6,0,B|523:237|463:160|463:160|459:189|443:217,1,191.999994140625,2|0,0:3|0:0,0:0:0:0:
379,244,218032,5,2,0:0:0:0:
304,105,218204,1,0,0:0:0:0:
386,153,218375,1,8,0:0:0:0:
245,188,218547,6,0,B|176:144|208:54|208:54|177:92|117:118,1,223.999993164063,4|8,0:0|0:0,0:0:0:0:
43,126,219061,5,2,0:0:0:0:
49,217,219232,2,0,L|30:320,1,80,0|0,0:0|0:0,0:0:0:0:
123,381,219575,2,0,L|157:191,1,160,2|0,0:3|0:0,0:0:0:0:
184,317,220090,2,0,P|224:335|283:325,1,80,0|0,0:0|0:0,0:0:0:0:
390,288,220604,6,0,B|448:253|492:297|492:297|477:292|454:289,1,128,4|8,0:3|0:0,0:0:0:0:
429,360,221118,5,0,0:0:0:0:
308,271,221290,2,0,P|294:221|310:185,1,80,0|0,0:0|0:0,0:0:0:0:
453,194,221632,6,0,P|467:140|402:20,1,191.999994140625,2|8,0:3|0:0,0:0:0:0:
327,27,222147,6,0,P|340:65|334:111,1,80,2|0,0:0|0:0,0:0:0:0:
110,164,222661,6,0,P|43:125|61:66,1,128,4|8,0:2|0:0,0:0:0:0:
177,122,223175,5,2,0:0:0:0:
177,201,223347,2,0,P|170:248|143:282,1,80,0|0,0:0|0:0,0:0:0:0:
72,342,223690,6,0,P|134:316|268:335,1,191.999994140625,2|8,0:3|0:0,0:0:0:0:
326,373,224204,5,2,0:0:0:0:
400,329,224375,2,0,P|448:355|485:352,1,80,8|0,0:3|0:0,0:0:0:0:
505,180,224718,6,0,P|418:173|380:218,1,128,4|8,0:2|0:0,0:0:0:0:
454,244,225232,5,2,0:0:0:0:
445,127,225404,2,0,L|428:24,1,80,0|0,0:0|0:0,0:0:0:0:
299,21,225747,6,0,B|225:85|289:166|289:166|294:146|316:131,1,191.999994140625,2|8,0:3|0:0,0:0:0:0:
364,81,226261,5,2,0:0:0:0:
212,102,226432,2,0,L|103:116,1,80,0|0,0:0|0:0,0:0:0:0:
18,214,226775,6,0,L|157:197,1,128,4|8,0:2|0:0,0:0:0:0:
226,305,227290,5,2,0:0:0:0:
132,289,227461,2,0,P|113:336|131:375,1,80,0|0,0:0|0:0,0:0:0:0:
326,355,227804,6,0,P|331:264|220:214,1,223.999993164063,2|8,0:3|0:0,0:0:0:0:
226,305,228318,5,2,0:0:0:0:
370,284,228490,2,0,L|466:274,1,80,0|0,0:0|0:0,0:0:0:0:
507,108,228832,6,0,P|459:69|337:94,1,191.999994140625,8|0,0:3|0:0,0:0:0:0:
254,152,229347,6,0,P|192:181|98:158,1,160,4|0,0:3|0:0,0:0:0:0:
31,91,229861,6,0,B|45:49|45:49|138:89,1,128,2|0,0:3|0:0,0:0:0:0:
212,97,230375,5,0,0:0:0:0:
261,164,230547,1,0,0:0:0:0:
243,249,230718,1,0,0:0:0:0:
167,294,230890,1,4,0:0:0:0:
345,285,234318,5,0,0:0:0:0:
414,254,234490,1,0,0:0:0:0:
485,273,234661,1,0,0:0:0:0:
506,345,234832,1,0,0:0:0:0:
416,354,235004,1,4,0:0:0:0:
141,324,236718,2,0,B|103:337|73:305|73:305|51:332|6:326,1,128
