osu file format v14

[General]
AudioFilename: audio.mp3
AudioLeadIn: 0
PreviewTime: 0
Countdown: 0
SampleSet: Soft
StackLeniency: 0.7
Mode: 0
LetterboxInBreaks: 0
WidescreenStoryboard: 0

[Editor]
DistanceSpacing: 1.2
BeatDivisor: 4
GridSize: 32
TimelineZoom: 2.2

[Metadata]
Title:Jin Li Chao
TitleUnicode:锦鲤抄
Artist:Ling Yuan yousa
ArtistUnicode:泠鸢yousa
Creator:AIR
Version:KOI
Source:
Tags:银临 冷鸟 桜の花が舞い落ちるとき
BeatmapID:1448436
BeatmapSetID:684393

[Difficulty]
HPDrainRate:6
CircleSize:4.5
OverallDifficulty:8
ApproachRate:9
SliderMultiplier:1.8
SliderTickRate:1

[Events]
//Background and Video events
0,0,"64627052_p0.jpg",0,0
//Break Periods
2,105604,117147
//Storyboard Layer 0 (Background)
//Storyboard Layer 1 (Fail)
//Storyboard Layer 2 (Pass)
//Storyboard Layer 3 (Foreground)
//Storyboard Sound Samples

[TimingPoints]
490,342.857142857143,3,2,1,50,1,0
490,-125,3,2,1,50,0,0
15918,-125,3,2,1,60,0,0
16947,-83.3333333333333,3,1,1,70,0,0
33404,-125,3,2,1,50,0,0
49861,-100,3,2,1,50,0,0
66318,-125,3,2,1,70,0,0
68375,-83.3333333333333,3,1,1,70,0,1
84832,-71.4285714285714,3,1,1,70,0,1
85175,-100,3,1,1,70,0,1
86890,-125,3,1,1,70,0,1
87232,-100,3,1,1,70,0,1
87918,-83.3333333333333,3,1,1,70,0,1
88261,-100,3,1,1,70,0,1
88947,-71.4285714285714,3,1,1,70,0,1
89290,-100,3,1,1,70,0,1
91004,-125,3,1,1,70,0,1
91347,-100,3,1,1,70,0,1
92032,-83.3333333333333,3,1,1,70,0,1
92375,-100,3,1,1,70,0,1
93061,-71.4285714285714,3,1,1,70,0,1
93404,-100,3,1,1,70,0,1
95118,-125,3,1,1,70,0,1
95461,-100,3,1,1,70,0,1
96147,-83.3333333333333,3,1,1,70,0,1
96490,-100,3,1,1,70,0,1
97175,-125,3,1,1,70,0,1
97518,-100,3,1,1,70,0,1
98204,-83.3333333333333,3,1,1,70,0,1
98547,-100,3,1,1,70,0,1
99232,-125,3,1,1,70,0,1
99575,-100,3,1,1,70,0,1
100261,-83.3333333333333,3,1,1,70,0,1
100604,-100,3,1,1,70,0,1
101290,-125,3,1,1,70,0,1
101632,-100,3,1,1,70,0,1
102318,-71.4285714285714,3,1,1,70,0,1
102661,-100,3,1,1,70,0,1
103347,-83.3333333333333,3,1,1,70,0,1
103861,-100,3,1,1,70,0,1
104375,-125,3,1,1,70,0,1
104632,-125,3,1,1,10,0,1
104718,-83.3333333333333,3,1,1,70,0,1
105404,-100,3,1,1,70,0,0
121861,-125,3,2,1,50,0,0
138318,-100,3,2,1,50,0,0
154775,-125,3,2,1,70,0,0
156832,-83.3333333333333,3,1,1,70,0,1
173290,-71.4285714285714,3,1,1,70,0,1
173632,-100,3,1,1,70,0,1
175347,-125,3,1,1,70,0,1
175690,-100,3,1,1,70,0,1
176375,-83.3333333333333,3,1,1,70,0,1
176718,-100,3,1,1,70,0,1
177404,-71.4285714285714,3,1,1,70,0,1
177747,-100,3,1,1,70,0,1
179461,-125,3,1,1,70,0,1
179804,-100,3,1,1,70,0,1
180490,-83.3333333333333,3,1,1,70,0,1
180832,-100,3,1,1,70,0,1
181518,-71.4285714285714,3,1,1,70,0,1
181861,-100,3,1,1,70,0,1
183575,-125,3,1,1,70,0,1
183918,-100,3,1,1,70,0,1
184604,-83.3333333333333,3,1,1,70,0,1
184947,-100,3,1,1,70,0,1
185632,-125,3,1,1,70,0,1
185975,-100,3,1,1,70,0,1
186661,-83.3333333333333,3,1,1,70,0,1
187004,-100,3,1,1,70,0,1
187690,-125,3,1,1,70,0,1
188032,-100,3,1,1,70,0,1
188718,-83.3333333333333,3,1,1,70,0,1
189061,-100,3,1,1,70,0,1
189747,-125,3,1,1,70,0,1
190090,-100,3,1,1,70,0,1
190775,-71.4285714285714,3,1,1,70,0,1
191118,-100,3,1,1,70,0,1
191804,-83.3333333333333,3,1,1,70,0,1
192318,-100,3,1,1,70,0,1
192832,-125,3,1,1,70,0,1
193175,-83.3333333333333,3,1,1,70,0,1
193861,-125,3,2,1,50,0,0
202090,-100,3,1,1,50,0,0
210318,-71.4285714285714,3,1,1,70,0,1
210661,-100,3,1,1,70,0,1
212375,-125,3,1,1,70,0,1
212718,-100,3,1,1,70,0,1
213404,-83.3333333333333,3,1,1,70,0,1
213747,-100,3,1,1,70,0,1
214432,-71.4285714285714,3,1,1,70,0,1
214775,-100,3,1,1,70,0,1
216490,-125,3,1,1,70,0,1
216832,-100,3,1,1,70,0,1
217518,-83.3333333333333,3,1,1,70,0,1
217861,-100,3,1,1,70,0,1
218547,-71.4285714285714,3,1,1,70,0,1
218890,-100,3,1,1,70,0,1
220604,-125,3,1,1,70,0,1
220947,-100,3,1,1,70,0,1
221632,-83.3333333333333,3,1,1,70,0,1
221975,-100,3,1,1,70,0,1
222661,-125,3,1,1,70,0,1
223004,-100,3,1,1,70,0,1
223690,-83.3333333333333,3,1,1,70,0,1
224032,-100,3,1,1,70,0,1
224718,-125,3,1,1,70,0,1
225061,-100,3,1,1,70,0,1
225747,-83.3333333333333,3,1,1,70,0,1
226090,-100,3,1,1,70,0,1
226775,-125,3,1,1,70,0,1
227118,-100,3,1,1,70,0,1
227804,-71.4285714285714,3,1,1,70,0,1
228147,-100,3,1,1,70,0,1
228832,-83.3333333333333,3,1,1,70,0,1
229347,-100,3,1,1,70,0,1
229861,-125,3,1,1,70,0,1
230204,-83.3333333333333,3,1,1,70,0,1
230890,-125,3,2,1,50,0,0

[Colours]
Combo1 : 255,255,96
Combo2 : 83,83,83
Combo3 : 255,68,68
Combo4 : 0,217,108
Combo5 : 83,83,255

[HitObjects]
184,271,490,6,0,P|144:227|191:135,1,144,4|0,0:0|0:0,0:0:0:0:
348,151,1004,2,0,P|370:216|328:271,1,144,2|0,0:0|0:0,0:0:0:0:
254,64,1518,2,0,L|405:58,1,144,2|0,0:0|0:0,0:0:0:0:
258,320,2204,1,2,0:0:0:0:
184,271,2547,6,0,P|138:252|51:296,1,144
328,270,3061,2,0,P|374:289|461:245,1,144,2|0,0:0|0:0,0:0:0:0:
258,64,3575,2,0,L|107:58,1,144,2|0,0:0|0:0,0:0:0:0:
258,320,4261,1,2,0:0:0:0:
348,151,4604,6,0,B|294:164|296:228|296:228|324:273,1,144
489,203,5118,2,0,B|461:213|429:174|429:174|416:215|377:218,1,144,2|0,0:0|0:0,0:0:0:0:
135,218,5632,2,0,B|96:215|83:174|83:174|51:213|22:203,1,144,2|0,0:0|0:0,0:0:0:0:
258,64,6318,1,2,0:0:0:0:
258,320,6661,6,0,P|208:275|228:178,1,144
258,64,7175,2,0,P|308:109|288:206,1,144,2|0,0:0|0:0,0:0:0:0:
114,58,7690,2,0,L|258:64,1,144,2|0,0:0|0:0,0:0:0:0:
397,325,8375,2,0,L|295:322,1,72,0|2,0:0|0:0,0:0:0:0:
135,218,8718,6,0,B|103:260|139:308|139:308|191:287,1,144,4|0,0:0|0:0,0:0:0:0:
306,181,9232,2,0,L|386:165,1,72,2|0,0:0|0:0,0:0:0:0:
459,176,9575,1,0,0:0:0:0:
330,93,9747,2,0,B|372:75|372:75|407:123|376:165,1,144,2|0,0:0|0:0,0:0:0:0:
154,110,10432,2,0,B|141:108|126:94|126:94|81:118|32:109|32:109|22:93|-6:99,1,144,2|0,0:0|0:0,0:0:0:0:
258,320,11118,5,0,0:0:0:0:
330,293,11290,2,0,P|381:290|419:309,2,72,2|0|0,0:0|0:0|0:0,0:0:0:0:
183,340,11804,2,0,P|105:342|37:276,1,144,2|0,0:0|0:0,0:0:0:0:
312,109,12490,1,2,0:0:0:0:
190,177,12832,6,0,P|128:143|93:66,1,144
213,254,13347,2,0,P|178:260|120:243,2,72,2|0|0,0:0|0:0|0:0,0:0:0:0:
294,251,13861,2,0,P|286:307|204:373,1,144,2|0,0:0|0:0,0:0:0:0:
362,325,14547,2,0,L|437:298,1,72,0|2,0:0|0:0,0:0:0:0:
413,193,14890,6,0,B|422:185|427:159|427:159|425:246|472:314|472:314|391:254|306:256,1,360,4|0,0:0|0:0,0:0:0:0:
268,256,15832,1,0,0:0:0:0:
268,256,15918,2,0,B|207:280|150:271,1,108,2|0,0:3|0:0,0:0:0:0:
106,267,16261,2,0,L|115:163,1,72,8|0,0:3|0:0,0:0:0:0:
256,184,16604,2,0,L|271:278,1,72,0|4,0:0|0:3,0:0:0:0:
34,182,16947,6,0,P|7:126|110:11,1,215.999993408203,4|8,0:0|0:0,0:0:0:0:
248,85,17461,1,2,0:0:0:0:
328,66,17632,2,0,B|357:111|318:143|318:143|326:123|315:107,1,107.999996704102
434,166,17975,2,0,P|491:196|497:344,1,215.999993408203,2|8,0:3|0:0,0:0:0:0:
333,337,18490,1,2,0:0:0:0:
354,261,18661,2,0,B|380:269|407:250|407:250|391:285|408:314,1,107.999996704102
205,245,19004,6,0,B|150:271|101:238|101:238|148:291|108:354,1,215.999993408203,8|8,0:3|0:0,0:0:0:0:
43,299,19518,1,2,0:0:0:0:
162,172,19690,2,0,B|186:133|152:93|152:93|155:105|153:118,1,107.999996704102
252,129,20032,1,8,0:0:0:0:
331,39,20204,1,2,0:0:0:0:
181,39,20375,1,0,0:0:0:0:
346,133,20547,1,0,0:0:0:0:
421,77,20718,1,8,0:0:0:0:
503,108,20890,1,2,0:0:0:0:
503,108,20975,1,0,0:0:0:0:
503,108,21061,6,0,B|541:211|440:263|440:263|445:208,1,215.999993408203,4|8,0:3|0:0,0:0:0:0:
286,221,21575,2,0,P|331:225|360:284,1,107.999996704102,2|0,0:0|0:0,0:0:0:0:
219,165,21918,1,0,0:0:0:0:
177,237,22090,2,0,P|103:279|28:234,1,161.999995056153,2|0,0:3|0:0,0:0:0:0:
2,207,22432,1,8,0:0:0:0:
79,138,22604,2,0,B|97:132|100:118|100:118|90:126|107:211,1,107.999996704102,2|0,0:0|0:0,0:0:0:0:
87,357,22947,1,0,0:0:0:0:
221,320,23118,6,0,B|262:277|314:305|314:305|352:367|439:331,1,215.999993408203,8|8,0:3|0:0,0:0:0:0:
512,278,23632,2,0,B|473:191|366:221|366:221|393:245|379:278,1,215.999993408203,4|0,0:3|0:0,0:0:0:0:
342,104,24147,2,0,B|259:91|222:166|222:166|251:158|263:134,1,161.999995056153,2|0,0:3|0:0,0:0:0:0:
236,160,24490,1,0,0:0:0:0:
247,0,24661,1,2,0:0:0:0:
107,79,24832,1,8,0:0:0:0:
18,66,25004,1,2,0:0:0:0:
18,66,25090,1,0,0:0:0:0:
18,66,25175,6,0,B|-39:165|55:221|55:221|65:187,1,215.999993408203,4|8,0:0|0:0,0:0:0:0:
158,188,25690,1,2,0:0:0:0:
289,110,25861,2,0,B|308:171|261:188|261:188|256:169,1,107.999996704102
383,224,26204,2,0,B|455:261|461:333|461:333|441:298|472:249,1,215.999993408203,2|8,0:3|0:0,0:0:0:0:
501,173,26718,1,0,0:0:0:0:
312,261,26890,2,0,B|275:304|304:345|304:345|314:328|301:317,1,107.999996704102,0|2,0:0|0:0,0:0:0:0:
151,297,27232,6,0,B|83:289|28:341|28:341|64:304|52:237,1,215.999993408203,8|8,0:3|0:0,0:0:0:0:
19,182,27747,1,2,0:0:0:0:
92,111,27918,2,0,P|101:164|174:190,1,107.999996704102
277,173,28261,2,0,B|349:126|301:51|301:51|287:80,1,161.999995056153,2|0,0:3|0:0,0:0:0:0:
292,88,28604,2,0,P|318:152|372:164,1,107.999996704102
484,146,28947,2,0,P|516:86|482:30,1,107.999996704102,8|2,0:0|0:0,0:0:0:0:
473,261,29290,6,0,B|448:225|402:236|402:236|356:273|296:234,1,161.999995056153,4|0,0:3|0:0,0:0:0:0:
276,233,29632,2,0,B|265:234|255:224|255:224|277:269|239:304,1,107.999996704102,8|2,0:0|0:0,0:0:0:0:
166,340,29975,1,0,0:0:0:0:
79,319,30147,1,0,0:0:0:0:
79,319,30232,1,0,0:0:0:0:
79,319,30318,2,0,B|6:290|29:194|29:194|68:215,1,161.999995056153,2|0,0:3|0:0,0:0:0:0:
86,208,30661,2,0,B|103:217|103:217|139:158|83:119,1,107.999996704102,8|0,0:0|0:0,0:0:0:0:
24,24,31004,2,0,B|-1:63|25:98|25:98|38:77|68:69,1,107.999996704102,0|2,0:0|0:0,0:0:0:0:
206,62,31347,6,0,B|248:54|248:54|329:120|329:120|408:108,1,215.999993408203,8|0,0:3|0:0,0:0:0:0:
489,77,31861,2,0,B|435:87|435:87|382:190|382:190|432:183,1,215.999993408203,4|0,0:3|0:0,0:0:0:0:
501,151,32375,1,2,0:3:0:0:
501,151,32718,2,0,P|462:206|484:252,1,107.999996704102,0|0,2:0|2:0,2:0:0:0:
490,361,33061,2,0,P|446:324|380:326,1,107.999996704102,0|0,2:0|2:0,2:0:0:0:
240,333,33404,6,0,B|210:336|188:374|188:374|208:340|192:282,1,144,4|0,0:0|0:0,0:0:0:0:
16,350,34090,1,2,0:0:0:0:
104,169,34432,2,0,P|130:206|128:251,1,72,8|0,0:0|0:0,0:0:0:0:
16,350,34775,2,0,P|9:302|83:218,1,144,0|8,0:0|0:0,0:0:0:0:
201,198,35290,1,2,0:0:0:0:
104,169,35461,2,0,B|43:127|88:65|88:65|119:79,1,144,8|0,0:0|0:0,0:0:0:0:
177,112,35975,2,0,P|219:121|252:109,1,72,0|2,0:0|0:0,0:0:0:0:
429,50,36490,2,0,B|476:90|433:152|433:152|386:126,1,144,8|0,0:0|0:0,0:0:0:0:
323,105,37004,1,0,0:0:0:0:
323,105,37175,2,0,L|313:25,1,72,8|2,0:0|0:0,0:0:0:0:
300,201,37518,6,0,P|249:237|164:202,1,144,8|0,0:0|0:0,0:0:0:0:
99,176,38032,2,0,B|72:171|50:198|50:198|57:195|66:195,1,72,0|2,0:0|0:0,0:0:0:0:
383,186,38547,2,0,B|447:189|466:251|466:251|449:236|433:229,1,144,8|0,0:0|0:0,0:0:0:0:
156,278,39232,2,0,B|138:313|138:313|167:368,1,72,8|2,0:0|0:0,0:0:0:0:
333,371,39575,2,0,B|369:308|369:308|321:226,1,144,8|0,0:0|0:0,0:0:0:0:
261,304,40090,1,0,0:0:0:0:
172,168,40261,2,0,P|134:171|83:139,1,72,10|0,0:0|0:0,0:0:0:0:
323,118,40604,2,0,B|373:86|427:112|427:112|416:93|413:70,1,144,8|0,0:0|0:0,0:0:0:0:
375,4,41118,1,0,0:0:0:0:
357,190,41290,1,8,0:0:0:0:
247,102,41461,1,2,0:0:0:0:
247,102,41632,6,0,B|184:129|137:68|137:68|153:78|163:77,1,144,8|0,0:0|0:0,0:0:0:0:
261,304,42318,1,2,0:0:0:0:
66,276,42661,2,0,P|92:248|138:251,1,72,8|0,0:0|0:0,0:0:0:0:
261,304,43004,2,0,B|254:284|236:271|236:271|293:290|356:247,1,144,8|0,0:0|0:0,0:0:0:0:
423,209,43518,1,2,0:0:0:0:
501,257,43690,2,0,B|481:329|481:329|411:291,1,144,8|0,0:0|0:0,0:0:0:0:
423,209,44204,1,0,0:0:0:0:
467,120,44375,2,0,B|434:104|434:104|409:129,1,72,2|0,0:0|0:0,0:0:0:0:
311,184,44718,2,0,B|277:191|258:161|258:161|234:211|172:193,1,144,8|0,0:0|0:0,0:0:0:0:
119,167,45232,1,0,0:0:0:0:
64,106,45404,2,0,L|61:28,1,72,8|2,0:0|0:0,0:0:0:0:
237,15,45747,5,8,0:0:0:0:
301,70,45918,2,0,P|338:106|314:205,1,144
263,245,46432,1,2,0:0:0:0:
263,245,46604,1,0,0:0:0:0:
404,226,46775,2,0,P|451:226|485:242,1,72,8|0,0:0|0:0,0:0:0:0:
275,171,47118,2,0,P|250:126|254:91,1,72
296,319,47461,2,0,B|268:366|215:349|215:349|241:336,1,108,8|0,0:0|0:0,0:0:0:0:
336,302,47804,6,0,B|375:369|443:344|443:344|437:321,1,144,8|0,0:0|0:0,0:0:0:0:
370,192,48318,1,0,0:0:0:0:
283,159,48490,1,2,0:0:0:0:
195,165,48661,1,0,0:0:0:0:
126,212,48832,2,0,B|88:246|93:289|93:289|107:354,1,144,8|0,0:0|0:0,0:0:0:0:
19,242,49518,2,0,P|60:248|81:285,1,72,8|2,0:0|0:0,0:0:0:0:
10,143,49861,6,0,P|70:104|183:133,1,180,4|0,0:0|0:0,0:0:0:0:
385,206,50547,2,0,P|377:148|400:113,1,90,2|0,0:0|0:0,0:0:0:0:
511,96,50890,2,0,P|442:86|381:144,1,135,8|0,0:0|0:0,0:0:0:0:
365,208,51232,2,0,P|346:160|209:138,1,180,8|0,0:0|0:0,0:0:0:0:
169,174,51747,1,2,0:0:0:0:
308,264,51918,2,0,B|250:217|186:261|186:261|214:254|236:268,1,180,8|0,0:0|0:0,0:0:0:0:
369,312,52432,1,0,0:0:0:0:
450,285,52604,2,0,P|490:252|471:201,1,90,2|0,0:0|0:0,0:0:0:0:
232,265,52947,2,0,B|203:239|209:192|209:192|187:250|116:251,1,180,8|0,0:0|0:0,0:0:0:0:
57,243,53461,1,0,0:0:0:0:
18,177,53632,2,0,L|8:84,1,90,8|2,0:0|0:0,0:0:0:0:
171,16,53975,6,0,B|236:44|209:111|209:111|176:98,1,135,8|0,0:0|0:0,0:0:0:0:
138,43,54318,2,0,P|109:82|119:134,1,90
309,112,54661,2,0,P|300:55|271:33,1,90,2|0,0:0|0:0,0:0:0:0:
322,189,55004,2,0,B|383:217|425:171|425:171|503:165,1,180,8|8,0:0|0:0,0:0:0:0:
285,342,55690,2,0,P|264:291|290:250,1,90,0|2,0:0|0:0,0:0:0:0:
190,347,56032,2,0,B|110:372|61:311|61:311|87:322|109:314,1,180,8|0,0:0|0:0,0:0:0:0:
155,265,56547,1,0,0:0:0:0:
126,192,56718,2,0,P|94:153|38:131,1,90,10|0,0:0|0:0,0:0:0:0:
204,202,57061,2,0,P|260:203|357:124,1,180,8|0,0:0|0:0,0:0:0:0:
380,50,57575,1,0,0:0:0:0:
304,22,57747,2,0,B|282:40|260:29|260:29|250:62|209:63,1,90,8|2,0:0|0:0,0:0:0:0:
354,130,58090,6,0,B|413:146|448:101|448:101|443:168|495:186,1,180,8|0,0:0|0:0,0:0:0:0:
365,303,58775,2,0,B|342:343|373:372|373:372|375:356,1,90,2|0,0:0|0:0,0:0:0:0:
390,226,59118,2,0,P|341:202|275:205,1,90,8|0,0:0|0:0,0:0:0:0:
140,245,59461,2,0,B|82:281|92:351|92:351|112:333,1,135,8|0,0:0|0:0,0:0:0:0:
117,328,59804,2,0,P|75:288|15:284,1,90,0|2,0:0|0:0,0:0:0:0:
74,160,60147,2,0,P|153:153|248:69,1,180,8|0,0:0|0:0,0:0:0:0:
199,12,60661,2,0,P|160:36|152:90,1,90,0|2,0:0|0:0,0:0:0:0:
282,158,61004,1,0,0:0:0:0:
282,158,61175,2,0,P|370:108|460:133,1,180,8|0,0:0|0:0,0:0:0:0:
494,181,61690,2,0,B|505:244|505:244|485:240|487:218,1,90,0|8,0:0|0:0,0:0:0:0:
201,204,62204,6,0,B|139:255|194:326|194:326|196:297|215:276,1,180,8|0,0:0|0:0,0:0:0:0:
275,237,62718,2,0,P|283:193|252:140,1,90,0|2,0:0|0:0,0:0:0:0:
45,303,63232,2,0,B|74:344|113:328|113:328|100:312,1,90,8|0,0:0|0:0,0:0:0:0:
396,328,63575,2,0,P|370:296|308:292,1,90
167,29,63918,2,0,B|126:82|180:127|180:127|206:104,1,135,8|0,0:0|0:0,0:0:0:0:
229,75,64261,6,0,P|182:86|31:45,1,180,8|0,0:0|0:0,0:0:0:0:
10,181,64775,2,0,P|55:155|114:164,2,90,0|0|2,0:0|0:0|0:0,0:0:0:0:
154,188,65290,2,0,P|222:252|203:349,1,180,8|0,0:0|0:0,0:0:0:0:
456,295,65975,2,0,P|448:251|487:210,1,90,2|8,0:0|0:0,0:0:0:0:
256,192,66318,12,8,67347,0:3:0:0:
326,117,67690,5,4,0:3:0:0:
470,90,67861,1,2,0:3:0:0:
426,257,68032,1,0,0:0:0:0:
390,263,68118,1,0,0:0:0:0:
354,257,68204,1,0,0:0:0:0:
321,241,68290,1,0,0:0:0:0:
262,207,68375,6,0,B|187:144|111:215|111:215|136:197|167:204,1,215.999993408203,4|8,0:0|0:0,0:0:0:0:
322,259,68890,2,0,P|362:215|365:153,1,107.999996704102,2|0,0:0|0:0,0:0:0:0:
242,285,69232,1,0,0:0:0:0:
301,339,69404,2,0,P|354:358|430:335,1,107.999996704102,2|0,0:3|0:0,0:0:0:0:
152,294,69747,2,0,B|95:296|81:341|81:341|94:333|104:331,1,107.999996704102,8|0,0:0|0:0,0:0:0:0:
262,207,70090,2,0,P|281:144|251:91,1,107.999996704102,0|2,0:0|0:0,0:0:0:0:
50,16,70432,6,0,B|-6:55|33:125|33:125|94:99,1,161.999995056153,8|0,0:3|0:0,0:0:0:0:
99,79,70775,2,0,B|136:44|177:60|177:60|166:71|172:89,1,107.999996704102,8|4,0:0|0:3,0:0:0:0:
266,107,71118,2,0,B|277:110|284:126|284:126|305:86|356:89,1,107.999996704102,0|2,0:0|0:0,0:0:0:0:
479,95,71461,2,0,B|487:108|501:116|501:116|411:120|413:11,1,161.999995056153,2|0,0:3|0:0,0:0:0:0:
496,52,71804,2,0,P|461:106|394:122,1,107.999996704102,8|0,0:0|0:0,0:0:0:0:
308,280,72147,2,0,P|368:255|449:287,1,107.999996704102,0|2,0:0|0:0,0:0:0:0:
451,282,72404,1,0,0:0:0:0:
451,282,72490,6,0,B|456:312|475:331|475:331|379:292|432:182,1,215.999993408203,4|8,0:3|0:0,0:0:0:0:
219,175,73004,1,0,0:0:0:0:
188,253,73175,1,0,0:0:0:0:
106,275,73347,1,2,0:0:0:0:
41,241,73518,2,0,B|2:200|37:143|37:143|61:175|108:175,1,161.999995056153,2|0,0:3|0:0,0:0:0:0:
129,206,73861,2,0,P|94:199|38:248,1,107.999996704102,8|0,0:0|0:0,0:0:0:0:
219,175,74204,2,0,B|244:219|286:219|286:219|268:209|259:188,1,107.999996704102,0|2,0:0|0:0,0:0:0:0:
154,4,74547,6,0,B|94:60|157:120|157:120|165:98|186:85,1,161.999995056153,8|0,0:3|0:0,0:0:0:0:
205,67,74890,1,8,0:0:0:0:
372,52,75061,2,0,B|422:41|419:18|419:18|406:36|423:172,1,215.999993408203,4|2,0:3|0:0,0:0:0:0:
477,351,75575,2,0,P|445:305|365:297,1,107.999996704102,2|0,0:3|0:0,0:0:0:0:
227,338,75918,1,8,0:0:0:0:
323,373,76090,1,0,0:0:0:0:
214,252,76261,1,0,0:0:0:0:
134,337,76432,1,2,0:0:0:0:
134,337,76518,1,0,0:0:0:0:
134,337,76604,6,0,B|53:379|4:296|4:296|81:253,1,215.999993408203,4|8,0:2|0:0,0:0:0:0:
110,188,77118,1,0,0:0:0:0:
100,99,77290,2,0,B|94:49|41:41|41:41|30:95,1,107.999996704102,0|2,0:0|0:0,0:0:0:0:
176,136,77632,2,0,B|250:151|289:97|289:97|276:129|293:148,1,161.999995056153,2|0,0:3|0:0,0:0:0:0:
324,81,77975,2,0,P|301:128|323:176,1,107.999996704102,8|0,0:0|0:0,0:0:0:0:
496,133,78318,2,0,B|506:88|454:66|454:66|437:104,1,107.999996704102,0|2,0:0|0:0,0:0:0:0:
403,229,78661,6,0,B|386:276|386:276|458:308|499:249,1,161.999995056153,8|0,0:3|0:0,0:0:0:0:
425,213,79004,2,0,P|363:207|323:244,1,107.999996704102,8|4,0:0|0:3,0:0:0:0:
274,313,79347,2,0,P|220:328|169:301,1,107.999996704102,0|2,0:0|0:0,0:0:0:0:
15,311,79690,2,0,P|34:258|141:232,1,161.999995056153,2|0,0:3|0:0,0:0:0:0:
127,227,80032,2,0,P|90:175|97:122,1,107.999996704102,8|0,0:0|0:0,0:0:0:0:
369,152,80375,2,0,P|372:99|343:55,1,107.999996704102,0|2,0:0|0:0,0:0:0:0:
284,126,80718,6,0,B|165:108|165:108|217:88|232:41,1,215.999993408203,4|0,0:3|0:0,0:0:0:0:
458,36,81232,1,0,0:0:0:0:
279,196,81404,1,8,0:0:0:0:
371,289,81575,1,2,0:0:0:0:
371,289,81661,1,0,0:0:0:0:
371,289,81747,2,0,B|386:319|386:319|316:363|264:292,1,161.999995056153,2|0,0:3|0:0,0:0:0:0:
223,261,82090,2,0,B|199:237|153:251|153:251|143:307,1,107.999996704102
381,203,82432,2,0,B|428:224|463:212|463:212|446:211|418:188,1,107.999996704102,8|2,0:0|0:0,0:0:0:0:
165,154,82775,6,0,B|83:131|57:213|57:213|81:211,1,161.999995056153,8|0,0:3|0:0,0:0:0:0:
132,221,83118,1,0,0:0:0:0:
313,124,83290,2,0,B|327:59|327:59|247:2|247:2|233:63,1,215.999993408203,4|2,0:3|0:0,0:0:0:0:
254,255,83804,2,0,B|236:328|236:328|379:306,1,215.999993408203,2|0,0:3|0:0,0:0:0:0:
484,229,84318,1,0,0:0:0:0:
424,369,84490,1,0,0:0:0:0:
304,213,84661,2,0,P|271:218|236:205,1,53.9999983520508,2|0,0:0|0:0,0:0:0:0:
179,193,84832,6,0,B|68:155|18:262|18:262|37:231|91:225,1,251.999992309571,4|8,0:0|0:0,0:0:0:0:
200,268,85347,5,0,0:0:0:0:
237,143,85518,2,0,P|266:95|257:44,1,90
181,9,85861,2,0,P|165:47|207:87,1,90,2|2,0:3|0:0,0:0:0:0:
341,77,86204,2,0,P|359:37|339:-2,1,90,8|0,0:0|0:0,0:0:0:0:
334,154,86547,2,0,B|358:167|379:166|379:166|394:145|428:133,1,90,0|8,0:0|0:0,0:0:0:0:
294,221,86890,6,0,P|368:272|430:276,1,144,4|8,0:3|0:0,0:0:0:0:
503,241,87404,5,2,0:0:0:0:
372,190,87575,1,0,0:0:0:0:
267,307,87747,2,0,P|234:322|199:318,1,45,8|0,0:0|0:0,0:0:0:0:
145,313,87918,6,0,B|41:298|14:204|14:204|32:229|60:239,1,215.999993408203,2|0,0:3|0:0,0:0:0:0:
134,220,88432,5,2,0:0:0:0:
17,333,88604,1,0,0:0:0:0:
83,146,88775,1,8,0:0:0:0:
83,146,88861,1,0,0:0:0:0:
83,146,88947,6,0,B|156:58|106:18|106:18|62:69|139:125,1,251.999992309571,8|8,0:3|0:0,0:0:0:0:
198,160,89461,5,2,0:0:0:0:
324,142,89632,2,0,P|372:147|424:130,1,90,0|8,0:0|0:0,0:0:0:0:
294,237,89975,2,0,P|350:262|460:254,1,135,2|0,0:3|0:0,0:0:0:0:
465,257,90318,1,0,0:0:0:0:
486,97,90490,1,2,0:0:0:0:
264,20,90661,1,8,0:3:0:0:
233,152,90832,1,8,0:0:0:0:
233,152,90918,1,0,0:0:0:0:
233,152,91004,6,0,P|203:178|109:173,1,108,4|0,0:3|0:0,0:0:0:0:
68,163,91347,6,0,B|34:142|45:97|45:97|61:118,1,90,8|2,0:0|0:0,0:0:0:0:
83,234,91690,2,0,P|70:269|10:302,1,90,0|8,0:0|0:0,0:0:0:0:
294,200,92032,6,0,B|397:166|450:239|450:239|423:218|388:227,1,215.999993408203,2|4,0:3|0:3,0:0:0:0:
297,286,92547,5,2,0:3:0:0:
317,38,92718,1,8,0:0:0:0:
447,49,92890,1,8,0:0:0:0:
447,49,92975,1,0,0:0:0:0:
447,49,93061,6,0,B|537:128|457:229|457:229|427:213|386:233,1,251.999992309571,4|8,0:0|0:0,0:0:0:0:
294,200,93575,5,2,0:0:0:0:
188,229,93747,2,0,P|141:246|113:302,1,90,0|8,0:0|0:0,0:0:0:0:
163,143,94090,2,0,P|101:120|32:141,1,135,2|0,0:3|0:0,0:0:0:0:
18,163,94432,2,0,B|16:186|16:186|83:147|72:60,1,135
57,41,94775,1,8,0:0:0:0:
33,266,94947,1,2,0:0:0:0:
237,184,95118,6,0,P|289:162|391:191,1,144,8|8,0:3|0:0,0:0:0:0:
459,267,95632,5,2,0:0:0:0:
317,269,95804,2,0,L|218:297,1,90
142,78,96147,6,0,L|372:15,1,215.999993408203,2|0,0:3|0:0,0:0:0:0:
479,106,96661,5,8,0:0:0:0:
421,182,96832,2,0,B|354:187|326:129|326:129|326:148|319:163,1,135
308,161,97175,6,0,P|294:186|184:180,1,144,4|8,0:2|0:0,0:0:0:0:
54,148,97690,5,2,0:0:0:0:
99,283,97861,1,0,0:0:0:0:
240,135,98032,1,8,0:0:0:0:
240,135,98118,1,0,0:0:0:0:
240,135,98204,6,0,P|216:196|77:169,1,215.999993408203,2|0,0:3|0:0,0:0:0:0:
7,115,98718,5,2,0:0:0:0:
0,290,98890,1,8,0:3:0:0:
156,137,99061,1,8,0:0:0:0:
156,137,99147,1,0,0:0:0:0:
156,137,99232,6,0,P|137:180|58:194,1,108,4|0,0:2|0:0,0:0:0:0:
22,182,99575,6,0,L|17:80,1,90,8|0,0:0|0:0,0:0:0:0:
308,51,99918,2,0,L|313:160,1,90,0|8,0:0|0:0,0:0:0:0:
419,242,100261,6,0,P|477:211|448:65,1,215.999993408203,2|0,0:3|0:0,0:0:0:0:
405,146,100775,5,2,0:0:0:0:
463,338,100947,1,0,0:0:0:0:
332,291,101118,1,8,0:0:0:0:
332,291,101204,1,0,0:0:0:0:
332,291,101290,6,0,P|252:266|199:273,1,108,4|0,0:2|0:0,0:0:0:0:
199,273,101632,6,0,P|146:304|121:340,1,90
17,142,101975,2,0,P|71:142|145:194,1,135,8|0,0:0|0:0,0:0:0:0:
152,201,102318,6,0,P|165:129|241:86,1,125.999996154785,2|0,0:3|0:0,0:0:0:0:
436,57,102661,5,0,0:0:0:0:
485,210,102832,1,2,0:0:0:0:
306,123,103004,1,0,0:0:0:0:
347,228,103175,1,8,0:0:0:0:
347,228,103261,1,0,0:0:0:0:
347,228,103347,6,0,B|391:261|391:261|400:372|400:372|358:338,1,215.999993408203,8|0,0:3|0:0,0:0:0:0:
144,349,103861,6,0,B|112:372|112:372|121:261|121:261|165:228,1,180,4|0,0:3|0:0,0:0:0:0:
307,293,104375,6,0,L|189:303,1,108,2|0,0:3|0:0,0:0:0:0:
148,306,104718,5,0,0:0:0:0:
66,283,104890,1,0,0:0:0:0:
15,215,105061,1,0,0:0:0:0:
11,121,105232,1,0,0:0:0:0:
68,50,105404,1,4,0:0:0:0:
361,100,117747,6,0,B|439:136|503:86|503:86|481:93|468:92,1,180,4|8,0:3|0:0,0:0:0:0:
396,193,118261,2,0,P|379:224|395:302,2,90,2|0|0,0:0|0:0|0:0,0:0:0:0:
452,187,118690,1,0,0:0:0:0:
452,187,118775,2,0,P|483:231|466:368,1,180,2|8,0:3|0:0,0:0:0:0:
23,104,119461,6,0,L|12:203,1,90,0|2,0:0|0:0,0:0:0:0:
85,235,119804,2,0,B|143:260|143:260|195:204|195:204|200:153,1,180,8|0,0:3|0:0,0:0:0:0:
191,82,120318,2,0,B|158:82|131:109|131:109|102:90|73:94,2,90,4|0|2,0:3|0:0|0:0,0:0:0:0:
270,122,120832,2,0,B|328:160|384:121|384:121|421:98|458:118,1,180,2|0,0:3|0:0,0:0:0:0:
497,182,121347,1,0,2:0:0:0:
497,182,121518,2,0,P|467:206|476:269,1,90,0|0,2:0|2:0,2:0:0:0:
375,300,121861,6,0,B|399:340|438:346|438:346|399:340|365:360,1,144,4|0,0:0|0:0,0:0:0:0:
189,264,122547,1,2,0:0:0:0:
110,317,122890,2,0,P|57:330|12:313,1,72,8|0,0:0|0:0,0:0:0:0:
189,264,123232,2,0,P|245:275|306:344,1,144
187,343,123747,1,2,0:0:0:0:
112,233,123918,6,0,B|63:186|108:122|108:122|132:142,1,144,8|0,0:0|0:0,0:0:0:0:
162,174,124432,2,0,P|95:182|65:167,1,72,0|2,0:0|0:0,0:0:0:0:
366,177,124947,2,0,P|410:190|459:277,1,144,8|0,0:0|0:0,0:0:0:0:
320,243,125461,1,0,0:0:0:0:
320,243,125632,2,0,L|229:235,1,72,8|2,0:0|0:0,0:0:0:0:
252,68,125975,6,0,L|414:61,1,144,8|0,0:0|0:0,0:0:0:0:
490,102,126490,1,0,0:0:0:0:
389,140,126661,2,0,P|346:146|316:124,1,72,2|0,0:0|0:0,0:0:0:0:
252,68,127004,2,0,P|205:31|107:61,1,144,8|0,0:0|0:0,0:0:0:0:
144,325,127690,2,0,P|193:327|225:311,1,72,8|2,0:0|0:0,0:0:0:0:
49,183,128032,6,0,B|0:237|53:288|53:288|47:264|53:235,1,144,8|0,0:0|0:0,0:0:0:0:
132,233,128547,1,0,0:0:0:0:
219,183,128718,2,0,P|236:222|214:270,1,72,2|0,0:0|0:0,0:0:0:0:
362,245,129061,2,0,B|417:222|466:263|466:263|450:243|450:216,1,144,8|0,0:0|0:0,0:0:0:0:
406,146,129575,1,0,0:0:0:0:
434,8,129747,1,8,0:0:0:0:
508,128,129918,1,2,0:0:0:0:
318,95,130090,6,0,P|286:91|213:138,1,108,8|0,0:0|0:0,0:0:0:0:
202,158,130432,2,0,B|187:168|183:182|183:182|163:159|126:153,1,72
23,226,130775,2,0,L|108:216,1,72,2|0,0:0|0:0,0:0:0:0:
90,87,131118,2,0,L|14:86,1,72,8|0,0:0|0:0,0:0:0:0:
170,78,131461,2,0,P|215:96|237:194,1,144
210,262,131975,1,2,0:0:0:0:
308,356,132147,6,0,B|270:304|321:253|321:253|350:271|334:299,1,144,8|0,0:0|0:0,0:0:0:0:
239,339,132661,2,0,P|194:342|158:326,2,72,0|2|0,0:0|0:0|0:0,0:0:0:0:
420,305,133175,2,0,P|472:263|505:176,1,144,8|0,0:0|0:0,0:0:0:0:
481,92,133690,1,0,0:0:0:0:
323,20,133861,1,8,0:0:0:0:
342,194,134032,1,2,0:0:0:0:
368,104,134204,5,8,0:0:0:0:
243,114,134375,2,0,B|186:126|167:184|167:184|163:153|131:138,1,144
83,111,134890,2,0,L|8:78,1,72,2|0,0:0|0:0,0:0:0:0:
77,281,135232,2,0,B|0:246|0:246|24:242,1,108,8|0,0:0|0:0,0:0:0:0:
65,234,135575,2,0,P|30:281|32:310,1,72
180,312,135918,2,0,B|159:344|172:372|172:372|183:358,1,72,8|2,0:0|0:0,0:0:0:0:
328,314,136261,6,0,B|343:327|343:350|343:350|370:301|421:308|421:308|418:316|419:324,1,144,8|0,0:0|0:0,0:0:0:0:
265,360,136775,1,0,0:0:0:0:
265,197,136947,1,2,0:0:0:0:
423,175,137118,1,0,0:0:0:0:
421,257,137290,1,8,0:0:0:0:
421,257,137632,1,0,0:0:0:0:
262,235,137804,1,0,0:0:0:0:
264,83,137975,1,0,0:0:0:0:
428,48,138147,1,2,0:0:0:0:
385,119,138318,6,0,B|359:120|339:96|339:96|332:146|283:180|223:147,1,180,4|0,0:0|0:0,0:0:0:0:
74,122,139004,2,0,B|65:75|65:75|108:33,1,90,2|0,0:0|0:0,0:0:0:0:
109,201,139347,2,0,L|16:193,1,90,8|0,0:0|0:0,0:0:0:0:
154,133,139690,2,0,P|190:189|139:278,1,180,8|0,0:0|0:0,0:0:0:0:
57,294,140204,1,2,0:0:0:0:
109,201,140375,6,0,B|195:230|165:308|165:308|147:276|117:271,1,180,8|0,0:0|0:0,0:0:0:0:
262,262,140890,2,0,P|317:246|377:269,1,90,0|2,0:0|0:0,0:0:0:0:
425,295,141232,1,0,0:0:0:0:
401,167,141404,2,0,P|375:110|403:-1,1,180,8|0,0:0|0:0,0:0:0:0:
495,171,142090,2,0,P|516:127|505:66,1,90,8|2,0:0|0:0,0:0:0:0:
235,57,142432,6,0,B|208:95|226:142|226:142|208:117|171:107,1,135,8|0,0:0|0:0,0:0:0:0:
132,95,142775,2,0,P|86:93|37:113,1,90
303,107,143118,2,0,P|347:91|377:51,1,90,2|0,0:0|0:0,0:0:0:0:
155,186,143461,2,0,P|131:211|121:268,1,90,8|0,0:0|0:0,0:0:0:0:
340,281,143804,2,0,B|350:216|296:186|296:186|298:207|294:222,1,135
264,259,144147,2,0,B|229:280|198:252|198:252|214:247|223:248,1,90,8|2,0:0|0:0,0:0:0:0:
274,352,144490,6,0,P|223:362|105:318,1,180,8|0,0:0|0:0,0:0:0:0:
46,248,145004,1,0,0:0:0:0:
168,146,145175,2,0,P|190:167|186:233,1,90,2|0,0:0|0:0,0:0:0:0:
66,91,145518,2,0,P|117:38|240:17,1,180,8|0,0:0|0:0,0:0:0:0:
333,69,146032,1,0,0:0:0:0:
359,226,146204,1,8,0:0:0:0:
292,180,146375,1,2,0:0:0:0:
292,180,146547,6,0,P|323:152|420:172,1,135,8|0,0:0|0:0,0:0:0:0:
460,190,146890,2,0,B|483:197|494:217|494:217|487:192|494:161,1,90
359,226,147232,2,0,P|339:272|363:324,1,90,2|0,0:0|0:0,0:0:0:0:
476,334,147575,2,0,P|449:288|409:276,1,90,8|0,0:0|0:0,0:0:0:0:
269,302,147918,2,0,B|214:328|206:385|206:385|191:333|119:328,1,180,8|0,0:0|0:0,0:0:0:0:
14,281,148432,1,2,0:0:0:0:
18,355,148604,6,0,B|8:380|8:380|108:355|99:248,1,180,8|0,0:0|0:0,0:0:0:0:
74,172,149118,1,0,0:0:0:0:
26,99,149290,2,0,B|-2:73|25:33|25:33|57:44,1,90,2|0,0:0|0:0,0:0:0:0:
192,86,149632,2,0,P|232:106|325:63,1,135,8|0,0:0|0:0,0:0:0:0:
353,42,149975,2,0,P|404:32|459:73,1,90
448,218,150318,2,0,P|397:238|350:227,1,90,0|2,0:0|0:0,0:0:0:0:
315,209,150575,1,0,0:0:0:0:
315,209,150661,6,0,B|318:192|294:165|294:165|377:195|352:295,1,180,8|0,0:0|0:0,0:0:0:0:
317,341,151175,2,0,P|267:364|225:351,2,90,0|2|0,0:0|0:0|0:0,0:0:0:0:
170,306,151690,2,0,P|112:279|38:316,1,135,8|0,0:0|0:0,0:0:0:0:
23,331,152032,2,0,P|50:258|46:231,1,90,0|2,0:0|0:0,0:0:0:0:
231,11,152375,2,0,B|250:108|250:108|289:128,1,135,8|0,0:0|0:0,0:0:0:0:
333,108,152718,6,0,B|350:104|360:92|360:92|405:137|461:128|461:128|479:116|480:91,1,180,8|0,0:0|0:0,0:0:0:0:
429,18,153232,1,0,0:0:0:0:
397,201,153404,2,0,P|382:255|402:310,1,90,2|0,0:0|0:0,0:0:0:0:
477,359,153747,2,0,P|490:305|471:254,1,90,8|0,0:0|0:0,0:0:0:0:
388,287,154090,2,0,B|344:279|320:316|320:316|293:260|219:269,1,180,0|2,0:0|0:0,0:0:0:0:
154,283,154604,1,8,0:0:0:0:
256,192,154775,12,8,155804,0:3:0:0:
201,124,156147,5,8,0:3:0:0:
28,122,156318,1,2,0:3:0:0:
109,247,156490,1,0,0:0:0:0:
141,264,156575,1,0,0:0:0:0:
177,269,156661,1,0,0:0:0:0:
212,258,156747,1,0,0:0:0:0:
265,222,156832,6,0,B|345:177|411:240|411:240|381:222|342:222,1,215.999993408203,4|8,0:0|0:0,0:0:0:0:
164,192,157347,2,0,P|134:166|128:89,1,107.999996704102,2|0,0:0|0:0,0:0:0:0:
347,77,157690,1,0,0:0:0:0:
357,222,157861,2,0,P|357:280|369:338,1,107.999996704102,2|0,0:3|0:0,0:0:0:0:
428,211,158204,2,0,P|448:274|473:320,1,107.999996704102,0|2,0:0|0:0,0:0:0:0:
264,326,158547,2,0,P|272:269|288:211,1,107.999996704102,8|0,0:0|0:0,0:0:0:0:
158,365,158890,6,0,B|137:319|74:317|74:317|2:338,1,161.999995056153,8|0,0:3|0:0,0:0:0:0:
16,333,159232,2,0,P|12:273|56:221,1,107.999996704102,8|4,0:0|0:3,0:0:0:0:
146,238,159575,1,0,0:0:0:0:
0,133,159747,1,2,0:0:0:0:
139,2,159918,2,0,B|185:33|185:33|198:113|198:113|153:86,1,161.999995056153,2|0,0:3|0:0,0:0:0:0:
128,99,160261,2,0,P|172:75|233:89,1,107.999996704102,8|0,0:0|0:0,0:0:0:0:
417,156,160604,2,0,B|446:176|446:176|464:89,1,107.999996704102,0|2,0:0|0:0,0:0:0:0:
288,158,160947,6,0,P|250:228|325:295,1,161.999995056153,4|0,0:3|0:0,0:0:0:0:
349,288,161290,2,0,B|378:250|350:214|350:214|300:228,1,107.999996704102,8|0,0:0|0:0,0:0:0:0:
182,277,161632,2,0,B|143:288|143:288|138:296|138:296|134:287|134:287|128:294|128:294|79:311,1,107.999996704102,0|2,0:0|0:0,0:0:0:0:
13,99,161975,2,0,P|77:77|181:137,1,161.999995056153,2|0,0:3|0:0,0:0:0:0:
186,154,162318,2,0,B|191:168|181:178|181:178|161:151|210:81,1,107.999996704102,8|0,0:0|0:0,0:0:0:0:
370,30,162661,2,0,B|405:33|405:33|412:27|412:27|413:39|413:39|419:34|419:34|481:41,1,107.999996704102,0|2,0:0|0:0,0:0:0:0:
354,317,163004,6,0,B|411:237|508:288|508:288|483:300|460:285,1,215.999993408203,8|8,0:3|0:0,0:0:0:0:
317,238,163518,1,4,0:3:0:0:
254,109,163690,1,0,0:0:0:0:
382,132,163861,1,0,0:0:0:0:
196,215,164032,2,0,B|93:240|61:146|61:146|83:166|122:170,1,215.999993408203,2|4,0:3|0:3,0:0:0:0:
172,122,164547,1,2,0:0:0:0:
64,271,164718,2,0,P|23:329|30:390,1,107.999996704102,8|0,0:0|0:0,0:0:0:0:
356,366,165061,6,0,P|337:293|209:225,1,215.999993408203,4|0,0:2|0:0,0:0:0:0:
238,325,165575,1,8,0:0:0:0:
325,211,165747,2,0,P|275:205|203:240,1,107.999996704102
409,177,166090,2,0,P|496:166|494:94,1,161.999995056153,2|0,0:3|0:0,0:0:0:0:
470,71,166432,2,0,P|430:97|372:71,1,107.999996704102,8|2,0:0|0:0,0:0:0:0:
192,114,166775,2,0,L|304:102,1,107.999996704102
34,185,167118,6,0,B|-3:136|50:71|50:71|94:111,1,161.999995056153,8|0,0:3|0:0,0:0:0:0:
130,149,167461,2,0,P|92:149|30:190,1,107.999996704102,8|4,0:0|0:3,0:0:0:0:
173,251,167804,2,0,B|153:289|172:324|172:324|166:368,1,107.999996704102
282,295,168147,2,0,B|385:308|385:308|372:276|394:251,1,161.999995056153,2|0,0:3|0:0,0:0:0:0:
452,233,168490,2,0,P|488:257|456:331,1,107.999996704102,8|2,0:0|0:0,0:0:0:0:
258,223,168832,2,0,L|261:106,1,107.999996704102
448,9,169175,6,0,P|492:61|466:198,1,215.999993408203,4|8,0:3|0:0,0:0:0:0:
354,68,169690,1,2,0:0:0:0:
203,20,169861,1,0,0:0:0:0:
54,73,170032,1,0,0:0:0:0:
17,187,170204,1,2,0:3:0:0:
119,140,170375,1,0,0:0:0:0:
119,140,170461,1,0,0:0:0:0:
119,140,170547,2,0,B|185:114|237:155|237:155|212:143|179:157,1,161.999995056153,8|0,0:0|0:0,0:0:0:0:
177,208,170890,2,0,P|146:268|175:322,1,107.999996704102,0|2,0:0|0:0,0:0:0:0:
386,309,171232,6,0,P|397:273|297:160,1,161.999995056153,8|0,0:3|0:0,0:0:0:0:
300,157,171575,1,8,0:0:0:0:
426,16,171747,2,0,B|453:46|482:44|482:44|462:24|406:31|371:57|352:112,1,215.999993408203,4|0,0:3|0:0,0:0:0:0:
386,309,172261,2,0,B|406:355|406:355|428:234|428:234|405:186,1,215.999993408203,2|0,0:3|0:0,0:0:0:0:
168,105,172775,1,8,0:0:0:0:
43,248,172947,1,0,0:0:0:0:
208,294,173118,2,0,P|245:289|255:260,1,53.9999983520508,8|0,0:0|0:0,0:0:0:0:
234,158,173290,6,0,P|159:149|183:285,1,251.999992309571,4|0,0:0|0:0,0:0:0:0:
189,214,173804,5,2,0:0:0:0:
94,100,173975,2,0,L|-10:112,1,90,8|0,0:0|0:0,0:0:0:0:
10,336,174318,2,0,L|168:335,1,135,2|0,0:3|0:0,0:0:0:0:
190,334,174661,2,0,B|239:326|255:362|255:362|241:349|228:352,1,90
310,248,175004,2,0,P|344:218|405:221,1,90,8|2,0:0|0:0,0:0:0:0:
495,257,175347,6,0,B|541:305|510:365|510:365|484:328,1,144,8|0,0:3|0:0,0:0:0:0:
462,162,175861,5,0,0:0:0:0:
248,123,176032,2,0,P|234:182|256:235,1,90,8|0,0:0|0:0,0:0:0:0:
191,41,176375,6,0,B|79:43|63:151|63:151|72:122|99:109,1,215.999993408203,2|0,0:3|0:0,0:0:0:0:
159,126,176890,5,2,0:0:0:0:
0,69,177061,1,0,0:0:0:0:
55,256,177232,1,8,0:0:0:0:
240,209,177404,6,0,B|278:190|418:219|333:309|251:286|251:218|343:169|403:165,1,251.999992309571,4|0,0:3|0:0,0:0:0:0:
475,161,177918,5,0,0:0:0:0:
412,279,178090,2,0,B|400:376,1,90,8|2,0:0|0:0,0:0:0:0:
203,289,178432,2,0,P|139:271|71:303,1,135,2|0,0:3|0:0,0:0:0:0:
31,333,178775,2,0,B|19:358|19:358|13:293,1,90
59,108,179118,2,0,P|43:163|75:211,1,90,8|0,0:0|0:0,0:0:0:0:
202,49,179461,6,0,P|241:115|317:126,1,144,8|0,0:3|0:0,0:0:0:0:
292,41,179975,5,2,0:0:0:0:
186,195,180147,1,0,0:0:0:0:
379,197,180318,1,8,0:0:0:0:
423,112,180490,6,0,B|487:87|525:151|525:151|485:188,1,161.999995056153,2|0,0:3|0:0,0:0:0:0:
453,200,180832,6,0,P|409:135|424:103,1,90,8|2,0:0|0:0,0:0:0:0:
209,212,181175,1,8,0:3:0:0:
131,239,181347,2,0,P|106:236|74:210,1,45,8|0,0:0|0:0,0:0:0:0:
37,168,181518,6,0,B|-14:76|81:11|81:11|132:29|131:87,1,251.999992309571,4|0,0:0|0:0,0:0:0:0:
123,142,182032,5,2,0:0:0:0:
88,226,182204,2,0,P|55:276|70:344,1,90,8|0,0:0|0:0,0:0:0:0:
304,329,182547,2,0,B|316:268|253:233|253:233|254:257,1,135,2|0,0:3|0:0,0:0:0:0:
240,284,182890,2,0,P|219:295|152:266,1,90
396,253,183232,2,0,P|443:274|468:334,1,90,8|2,0:0|0:0,0:0:0:0:
296,137,183575,6,0,B|270:70|325:26|325:26|330:60,1,144,4|0,0:3|0:0,0:0:0:0:
381,109,184090,1,2,0:0:0:0:
173,72,184261,1,8,0:0:0:0:
246,215,184432,1,0,0:0:0:0:
246,215,184518,1,0,0:0:0:0:
246,215,184604,6,0,B|166:240|121:183|121:183|138:189|163:184,1,161.999995056153,2|0,0:3|0:0,0:0:0:0:
181,171,184947,6,0,P|151:222|175:273,1,90
440,262,185290,2,0,L|428:164,1,90,8|2,0:0|0:0,0:0:0:0:
294,25,185632,6,0,B|264:28|264:28|235:42|235:42|139:49,1,144,4|0,0:2|0:0,0:0:0:0:
33,18,186147,5,8,0:0:0:0:
9,173,186318,1,0,0:0:0:0:
157,129,186490,1,8,0:0:0:0:
157,129,186575,1,0,0:0:0:0:
157,129,186661,6,0,P|194:178|178:337,1,215.999993408203,2|0,0:3|0:0,0:0:0:0:
109,286,187175,5,2,0:0:0:0:
286,228,187347,1,8,0:3:0:0:
383,331,187518,1,8,0:0:0:0:
383,331,187604,1,0,0:0:0:0:
383,331,187690,6,0,B|345:358|299:333|299:333|336:296,1,108,4|0,0:2|0:0,0:0:0:0:
419,291,188032,6,0,P|476:323|503:371,1,90,8|0,0:0|0:0,0:0:0:0:
369,232,188375,2,0,L|361:135,1,90
430,6,188718,6,0,P|491:53|488:181,1,161.999995056153,2|0,0:3|0:0,0:0:0:0:
490,177,189061,5,0,0:0:0:0:
292,214,189232,1,2,0:0:0:0:
263,66,189404,1,0,0:0:0:0:
126,87,189575,1,8,0:0:0:0:
126,87,189661,1,0,0:0:0:0:
126,87,189747,6,0,P|72:113|21:96,1,108,4|0,0:2|0:0,0:0:0:0:
149,98,190090,6,0,P|201:99|243:150,1,90,8|2,0:0|0:0,0:0:0:0:
163,283,190432,2,0,P|123:269|94:209,1,90
344,240,190775,6,0,B|418:199|473:262|473:262|449:241|412:242,1,188.999994232178,2|0,0:3|0:0,0:0:0:0:
383,213,191118,6,0,P|381:130|403:106,1,90,8|2,0:0|0:0,0:0:0:0:
346,318,191461,2,0,P|299:305|270:264,1,90
470,118,191804,6,0,P|435:58|296:73,1,215.999993408203,8|0,0:3|0:0,0:0:0:0:
232,137,192318,6,0,P|158:179|66:135,1,180,4|0,0:3|0:0,0:0:0:0:
14,76,192832,6,0,B|14:46|14:46|137:75,1,144,2|0,0:3|0:0,0:0:0:0:
226,97,193347,5,0,0:0:0:0:
226,97,193432,1,0,0:0:0:0:
226,97,193518,1,0,0:0:0:0:
314,115,193690,1,0,0:0:0:0:
326,238,193861,6,0,P|360:211|473:189,1,144,12|0,0:0|0:0,0:0:0:0:
384,297,194375,2,0,P|431:283|474:295,1,72,2|0,0:0|0:0,0:0:0:0:
144,263,194890,2,0,P|93:238|42:153,1,144,8|0,0:0|0:0,0:0:0:0:
126,145,195404,1,2,0:0:0:0:
195,197,195575,2,0,P|202:164|243:122,1,72,8|2,0:0|0:0,0:0:0:0:
376,61,195918,6,0,P|453:61|519:94,1,144,8|0,0:0|0:0,0:0:0:0:
416,162,196432,2,0,P|460:156|496:164,1,72,2|0,0:0|0:0,0:0:0:0:
440,254,196775,2,0,B|460:233|490:238|490:238|473:255,1,72,2|2,0:0|0:3,0:0:0:0:
225,264,197290,2,0,P|248:306|258:358,1,72,8|2,0:0|0:0,0:0:0:0:
128,365,197632,2,0,P|145:323|166:304,1,72,8|2,0:0|0:0,0:0:0:0:
315,280,197975,6,0,B|393:277|406:343|406:343|381:325,1,144,8|0,0:0|0:0,0:0:0:0:
353,215,198490,2,0,P|370:171|403:137,1,72,2|0,0:0|0:0,0:0:0:0:
334,97,198832,2,0,P|394:77|425:77,1,72,2|8,0:0|0:0,0:0:0:0:
95,33,199347,1,0,0:0:0:0:
95,33,199690,2,0,P|116:60|128:118,1,72,8|2,0:0|0:0,0:0:0:0:
76,226,200032,6,0,B|43:251|43:251|61:142,1,144,8|0,0:3|0:0,0:0:0:0:
216,126,200547,2,0,B|261:150|261:150|276:266,1,144,4|2,0:3|0:0,0:0:0:0:
139,349,201061,2,0,P|200:301|230:306,1,108,2|0,0:3|0:0,0:0:0:0:
270,324,201404,2,0,P|305:336|348:323,1,72,0|8,0:0|0:3,0:0:0:0:
84,248,201747,1,4,0:3:0:0:
208,375,201918,1,4,0:3:0:0:
307,258,202090,6,0,B|323:191|407:165|407:165|396:179|397:203,1,180,4|8,0:0|0:0,0:0:0:0:
412,275,202604,2,0,P|452:311|494:311,1,90,2|0,0:0|0:0,0:0:0:0:
189,68,203118,2,0,P|134:28|25:44,1,180,2|8,0:3|0:0,0:0:0:0:
160,140,203632,1,2,0:0:0:0:
237,129,203804,2,0,P|293:108|319:66,1,90
160,140,204147,2,0,B|89:204|141:273|141:273|138:253|157:229,1,180,0|8,0:0|0:0,0:0:0:0:
79,191,204661,2,0,P|62:180|-4:217,1,90,2|0,0:0|0:0,0:0:0:0:
9,340,205004,2,0,L|101:347,1,90,2|2,0:0|0:3,0:0:0:0:
279,331,205518,2,0,L|371:338,1,90,8|2,0:0|0:0,0:0:0:0:
478,289,205861,2,0,B|514:265|492:224|492:224|492:241|483:252,1,90
261,251,206204,6,0,P|241:200|325:82,1,180,0|8,0:0|0:0,0:0:0:0:
408,18,206718,1,2,0:0:0:0:
502,133,206890,1,0,0:0:0:0:
397,111,207061,1,2,0:0:0:0:
274,18,207232,2,0,B|185:9|149:78|149:78|170:63|201:62,1,180,2|8,0:3|0:0,0:0:0:0:
239,112,207747,1,2,0:0:0:0:
47,30,207918,1,0,0:0:0:0:
116,162,208090,1,0,0:0:0:0:
323,134,208261,6,0,B|353:168|353:168|341:277|341:277|368:254,1,180,8|0,0:3|0:0,0:0:0:0:
440,224,208775,2,0,B|469:197|469:197|460:306|460:306|419:336,1,180,4|0,0:3|0:0,0:0:0:0:
343,371,209290,2,0,B|307:364|307:364|259:306|259:306|178:289,1,180,2|0,0:3|0:0,0:0:0:0:
5,337,209804,1,2,0:3:0:0:
119,375,209975,1,0,2:0:0:0:
125,330,210061,1,0,2:0:0:0:
107,288,210147,1,0,2:0:0:0:
70,262,210232,1,0,2:0:0:0:
6,258,210318,6,0,B|17:272|20:293|20:293|-1:153|131:100,1,251.999992309571,4|8,0:0|0:0,0:0:0:0:
276,68,210832,5,2,0:0:0:0:
362,101,211004,2,0,P|395:125|421:195,1,90
214,251,211347,2,0,P|243:194|287:165,1,90,2|0,0:3|0:0,0:0:0:0:
435,316,211690,2,0,P|388:321|338:282,1,90
152,338,212032,2,0,P|155:293|194:268,1,90,0|2,0:0|0:0,0:0:0:0:
411,242,212375,6,0,P|484:256|506:344,1,144,8|8,0:3|0:0,0:0:0:0:
330,250,212890,5,2,0:0:0:0:
285,160,213061,2,0,P|270:111|283:67,1,90
461,17,213404,6,0,B|536:63|499:139|499:139|461:108,1,161.999995056153,2|0,0:3|0:0,0:0:0:0:
438,109,213747,6,0,P|392:91|342:120,1,90,0|2,0:0|0:0,0:0:0:0:
192,195,214090,1,0,0:0:0:0:
152,35,214261,1,0,0:0:0:0:
152,35,214347,1,0,0:0:0:0:
152,35,214432,6,0,B|203:48|192:108|192:108|75:142|41:15,1,251.999992309571,4|8,0:3|0:0,0:0:0:0:
295,40,214947,5,2,0:0:0:0:
192,195,215118,2,0,P|162:247|159:307,1,90
245,271,215461,2,0,P|177:234|41:249,1,180,2|0,0:3|0:0,0:0:0:0:
14,311,215975,1,2,0:0:0:0:
157,275,216147,1,0,0:0:0:0:
269,183,216318,1,0,0:0:0:0:
326,47,216490,6,0,B|344:32|337:12|337:12|330:29|343:86|411:99,1,144,8|8,0:3|0:0,0:0:0:0:
504,95,217004,5,2,0:0:0:0:
423,13,217175,1,0,0:0:0:0:
348,183,217347,2,0,P|338:208|363:255,1,45
482,275,217518,6,0,B|523:218|458:166|458:166|466:190|446:222,1,161.999995056153,2|0,0:3|0:0,0:0:0:0:
430,217,217861,6,0,L|323:228,1,90,0|2,0:0|0:0,0:0:0:0:
166,278,218204,2,0,L|59:289,1,90,0|8,0:0|0:0,0:0:0:0:
4,65,218547,6,0,B|45:21|128:16|128:16|194:36|220:94,1,251.999992309571,4|8,0:0|0:0,0:0:0:0:
228,191,219061,5,2,0:0:0:0:
82,172,219232,2,0,B|57:137|91:101|91:101|98:118|110:129,1,90
166,278,219575,2,0,P|105:301|75:295,1,90,2|0,0:3|0:0,0:0:0:0:
333,271,219918,2,0,B|405:277|419:331|419:331|395:322|378:312,1,135
308,262,220261,2,0,L|309:161,1,90,0|2,0:0|0:0,0:0:0:0:
475,10,220604,6,0,P|505:56|509:155,1,144,4|8,0:3|0:0,0:0:0:0:
395,114,221118,5,0,0:0:0:0:
215,140,221290,1,0,0:0:0:0:
292,43,221461,1,0,0:0:0:0:
143,212,221632,6,0,B|63:145|126:55|126:55|130:86|172:106,1,215.999993408203,2|8,0:3|0:0,0:0:0:0:
73,158,222147,6,0,P|35:155|0:95,1,90,2|0,0:0|0:0,0:0:0:0:
367,248,222661,6,0,P|441:255|489:217,1,108,4|0,0:2|0:0,0:0:0:0:
509,207,223004,5,8,0:0:0:0:
414,173,223175,1,2,0:0:0:0:
306,191,223347,1,0,0:0:0:0:
245,274,223518,1,0,0:0:0:0:
245,274,223604,1,0,0:0:0:0:
245,274,223690,6,0,P|211:328|91:327,1,161.999995056153,2|0,0:3|0:0,0:0:0:0:
67,317,224032,6,0,L|79:213,1,90,8|2,0:0|0:0,0:0:0:0:
270,227,224375,2,0,L|289:350,1,90,8|0,0:3|0:0,0:0:0:0:
212,156,224718,6,0,P|265:126|345:137,1,144,4|8,0:2|0:0,0:0:0:0:
426,212,225232,5,2,0:0:0:0:
485,95,225404,2,0,P|425:98|395:128,1,90
210,197,225747,6,0,P|159:220|51:151,1,161.999995056153,2|0,0:3|0:0,0:0:0:0:
35,137,226090,5,8,0:0:0:0:
147,106,226261,1,2,0:0:0:0:
194,307,226432,1,0,0:0:0:0:
86,326,226604,1,0,0:0:0:0:
66,181,226775,6,0,P|109:169|179:208,1,108,4|0,0:2|0:0,0:0:0:0:
192,233,227118,6,0,B|206:242|208:251|208:251|206:226|227:169,1,90,8|2,0:0|0:0,0:0:0:0:
334,74,227461,2,0,P|361:117|365:165,1,90
314,313,227804,6,0,B|390:264|466:314|466:314|443:305|425:309,1,188.999994232178,2|0,0:3|0:0,0:0:0:0:
286,338,228147,6,0,P|241:362|185:359,1,90,8|2,0:0|0:0,0:0:0:0:
214,167,228490,2,0,B|241:209|241:209|241:262,1,90
31,256,228832,6,0,B|34:209|34:209|88:155|88:155|92:53,1,215.999993408203,8|0,0:3|0:0,0:0:0:0:
59,50,229347,6,0,B|56:118|56:118|119:184|119:184|119:229,1,180,4|0,0:3|0:0,0:0:0:0:
123,274,229861,6,0,P|145:229|253:197,1,144,2|0,0:3|0:0,0:0:0:0:
319,200,230375,5,0,0:0:0:0:
395,248,230547,1,0,0:0:0:0:
419,335,230718,1,0,0:0:0:0:
343,312,230890,1,4,0:0:0:0:
200,143,234318,5,0,0:0:0:0:
126,175,234490,1,0,0:0:0:0:
48,147,234661,1,0,0:0:0:0:
21,64,234832,1,0,0:0:0:0:
124,73,235004,1,4,0:0:0:0:
134,316,236718,2,0,B|103:292|61:309|61:309|79:264|34:229,1,144
